Filmek VII -Itt nem kérünk!

balboka

Állandó Tag
Állandó Tag
Halálod appja (Countdown) 2019 BDRip MD Hun



Eredeti cím:
Countdown
sFilm adatlap:
sFilm
Év:
2019
Játékidő:
90 perc
imdb_icon értékelés:
5.3
Kategória:
Horror, Thriller
Rendező:
Justin Dec
Író:
Justin Dec
Szereplők:
Peter Facinelli (Dr. Sullivan), Louisa Abernathy (Mrs. Talbot), Tichina Arnold (Nurse Amy), P.J. Byrne (Father John (as PJ Byrne)), P.J. Byrne (Father John), Matt Letscher (Charlie), Lana McKissack (Rachel), Valente Rodriguez (Father David), Jordan Calloway (Matt Monroe), Charlie McDermott (Scott), Dillon Lane (Evan), Tom Segura (Derek), Anne Winters (Courtney), Talitha Eliana Bateman (Jordan Harris (as Talitha Bateman)), Elizabeth Lail (Quinn Harris), Jonny Berryman (Jeff)

Leírás:
Az okostelefonok teljesen átszövik midnennapjainkat, egymás után jelennek meg a hasznosabbnál hasznosabb applikációk, a legújabb őrületnek azonban az az alkalmazás számít, amely képes megjósolni, mennyi van hátra az életünkből. Quinn döbbenten veszi észre, hogy mindössze két napja maradt. A másodpercek egyre csak peregnek visszafelé, a lány pedig próbál versenyt futni az idővel, miközben egy gyanús és sötét alak is a nyomába…

Média
Időtartam 1:30:35
Bitráta 2557 kbps
Width 1920
Height 800
Aspect Ratio 2.35
Video Resolution 1080p
Container MKV
Video Frame Rate 24p
Video Profile high
Rész
Időtartam 1:30:35
File Halalod.Appja.2019.1080p.BluRay.MD.HUN.cinema.zsozso.mkv
Size 1.62 GB
Container MKV
Video Profile high
Codec H264
Bitráta 2301 kbps
Bit Depth 8
Chroma Location left
Chroma Subsampling 4:2:0
Coded Height 800
Coded Width 1920
Frame Rate 24 fps
Height 800
Szint 4.1
Profil high
Ref Frames 4
Scan Type progressive
Width 1920
Display Title 1080p (H.264)
Codec MP3
Csatornák 2
Bitráta 256 kbps
Audio Channel Layout stereo
Sampling Rate 48000 Hz
Display Title Ismeretlen (MP3 Stereo)

[HIDE]
Kód:
https://waaw.tv/watch_video.php?v=Wfrwd67rBS0W

vagy
https://vidoza.net/998bbxvu0dr7.html

vagy
https://upstream.to/57vpn2fit5si

vagy tölsd le itt
https://dropapk.to/7dc1miw7fvji
[/HIDE]
 

balboka

Állandó Tag
Állandó Tag
Úriemberek (The gentlemen) 2020 WebDl MD Hun


Év:
2019
Játékidő:
113 perc
imdb_icon értékelés:
8.1
Kategória:
Akció, Bűnügyi
Rendező:
Guy Ritchie
Írók:
Guy Ritchie
Szereplők:
Matthew McConaughey (Mickey Pearson), Hugh Grant (Fletcher), Colin Farrell (Coach), Charlie Hunnam (Ray), Eddie Marsan (Big Dave), Jeremy Strong (Matthew), Tom Wu (Lord George), Simon. R. Barker (Frazier (as Simon Barker)), Lyne Renee (Jackie (as Lyne Renée)), Michelle Dockery (Rosalind Pearson), John Dagleish (Hammy), Jason Wong (Phuc), Chidi Ajufo (Bunny), Henry Golding (Dry Eye), Jordan Long (Barman)

Leírás:
Amikor híre megy, hogy az amerikai drogkereskedő, Mickey Pearson (Matthew McConaughey) túl akar adni szuperjövedelmező londoni marihuána birodalmán az egész alvilág felbolydul. Rengeteg lóvé forog kockán, nem is csoda, hogy a gengszterek között kirobban a harc. Bérgyilkosok, kisstílű bűnözők, nagypályások, dílerek, mindenféle kétes alakok bukkannak fel a meggazdagodás reményében. A helyzet kezd igen csak eldurvulni: egyre több hulla potyog, egyre több fegyver kerül terítékre, ám azt mégis nehéz lenne megjósolni, hogy végül kinek a kezében landol a csinos drogbiznisz.

Általános

CompleteName : Uriemberek.2020.WEBDL.HUN.MRIphone11-cinema.zsozso.mkv
Format : Matroska
Format_Version : Version 4 / Version 2
FileSize/String : 1,41 GiB
Duration/String : 1 óra
OverallBitRate/String : 1 786 Kbps


Kép
ID/String : 1
Format : MPEG-4 Visual
Format_Profile : [email protected]
Format_Settings_BVOP/String : nem
Format_Settings_QPel/String : nem
Format_Settings_GMC/String : 0 warppoint
Format_Settings_Matrix/String : Default (H.263)
CodecID : XVID
CodecID/Hint : XviD
Duration/String : 1 óra
BitRate/String : 1 430 Kbps
Width/String : 720 képpont
Height/String : 302 képpont
DisplayAspectRatio/String : 2,40:1
FrameRate/String : 24,000 fps
ColorSpace : YUV
ChromaSubsampling : 4:2:0
BitDepth/String : 8 bit
ScanType/String : folytonos
Bits-(Pixel*Frame) : 0.274
StreamSize/String : 1,13 GiB (80%)
Encoded_Library/String : Lavc58.1.100
Default/String : igen
Forced/String : nem

Hang
ID/String : 2
Format : MPEG Audio
Format_Version : Version 1
Format_Profile : Layer 3
CodecID : A_MPEG/L3
CodecID/Hint : MP3
Duration/String : 1 óra
BitRate_Mode/String : állandó
BitRate/String : 320 Kbps
Channel(s)/String : 1 csatorna
SamplingRate/String : 44,1 KHz
StreamSize/String : 250 MiB (17%)
Encoded_Library/String : LAME3.99.5ŞŞŞŞŞŞŞŞŞŞ
Default/String : igen
Forced/String : nem
Nyelv : magyar

[HIDE]
Kód:
https://ouo.io/b1dK9j
vagy
https://ouo.io/SbY33f
vagy
https://ouo.io/lBzhgT

vagy tölsd le itt
https://ouo.io/7YGi83
[/HIDE]
 

balboka

Állandó Tag
Állandó Tag
Wasp Network - Az ellenállók 2019 Cam Xvid hun




Eredeti cím:
Wasp Network

Év:
2019
Játékidő:
123 perc
imdb_icon értékelés:
5.5
Kategória:
Thriller
Rendező:
Olivier Assayas
Író:
Olivier Assayas
Szereplők:
Penélope Cruz (Olga Salanueva), Gael García Bernal (Gerardo Hernandez), Steve Howard (Colonel Holmes), Wagner Moura (Juan Pablo Roque), Leonardo Sbaraglia (Jose Basulto), Edgar Ramírez (Rene Gonzalez), Gisela Chipe (Maria Elvira Salazar), Ana de Armas (Ana Magarita Martinez), Julian Flynn ('El Tigre Viamonte' (PUND's pilot)), Stephen W. Tenner (Mack McLarty), Patricia Gonzalez Ciuffardi (Lucia Newman), Brannon Cross (Customs Officer), Eric Goode (Funeral Home Boss), Harlys Becerra (), Michael Vitovich (White House Advisor), Johanna Sol (Newscaster)

Leírás:
Havanna, a kilencvenes évek eleje. A pilótaként dolgozó René González ellop egy repülőgépet, és elrepül Kubából, maga mögött hagyva szeretett feleségét és lányát. Miamiban kezd új életet, de nemsokára más kubai disszidensek követik, és szép lassan kialakítanak egy kémhálózatot. Azt tűzik ki küldetésük céljául, hogy épüljenek be az erőszakos, Castro-ellenes szervezetekbe, amelyek a sziget elleni terrortámadásokért felelősek.



Általános
Teljes név : Wasp.Network.-Az.Ellnalok.2020.CAM.HUN.MRIphone11-cinema.zsozso.mp4
Formátum : MPEG-4
Formátum profil : Base Media
Kódek azonosító : isom (isom/iso2/avc1/mp41)
Fájlméret : 1,65 GiB
Időtartam : 2 óra
Teljes adatsebesség : változó
Teljes adatsebesség : 1 954 kb/s
Kódoló szoftver : Lavf54.63.104

Kép
Sáv száma : 1
Formátum : AVC
Formátum/adatok : Advanced Video Codec
Formátum profil : [email protected]
Formátum beállítások : CABAC / 1 Ref Frames
Formátum beállítások, CABAC : igen
Formátum beállítások, RefFrames : 1 képkocka
Kódek azonosító : avc1
Kódek azonosító/adatok : Advanced Video Coding
Időtartam : 2 óra
Adatsebesség : 1 845 kb/s
Szélesség : 720 képpont
Magasság : 404 képpont
Képarány : 16:9
Képkockasebességi mód : állandó
Képkockasebesség : 29,970 (30000/1001) FPS
ColorSpace : YUV
ChromaSubsampling/String : 4:2:0
BitDepth/String : 8 bit
Sorváltás típusa : folytonos
Bit/(képpont*képkocka) : 0.212
Adatfolyam mérete : 1,56 GiB (94%)
Kódoló könyvtár : x264 core 129


Hang
Sáv száma : 2
Formátum : AAC LC
Formátum/adatok : Advanced Audio Codec Low Complexity
Kódek azonosító : mp4a-40-2
Időtartam : 2 óra
Duration_FirstFrame : 70emp
Adatsebesség mód : változó
Adatsebesség : 102 kb/s
Legnagyobb adatsebesség : 176 kb/s
Csatornák száma : 2 csatorna
ChannelLayout : L R
Mintavételezési gyakoriság : 44,1 kHz
Képkockasebesség : 43,066 FPS (1024 SPF)
Adatfolyam mérete : 88,6 MiB (5%)
Default : igen
AlternateGroup/String : 1
Nyelv : magyar

[HIDE]
Kód:
nézd itt
https://ouo.io/Ogs3Eb
https://ouo.io/wyqFHj
https://ouo.io/tuoxkP
vagy tölsd le itt 
https://ouo.io/RDXQjN
[/HIDE]
 

balboka

Állandó Tag
Állandó Tag
A Gokartkirály! (Go!) 2020 WebDl Xvid Hun



Év:
2020
Játékidő:
102 perc
imdb_icon értékelés:
5.8
Kategória:
Családi
Író:
Steve Worland
Rendező:
Owen Trevor
Szereplők:
Damian de Montemas (Mike Zeta), Frances O'Connor (Christie Hooper), Richard Roxburgh (Patrick), Dan Wyllie (Barry), Jack Connell (Ralph), Riley Papalia (Mechanic), Simon Lockwood (Leroy), Adam T Perkins (Jack's Dad), Cooper van Grootel (Dean Zeta), Emily Nagisa Machin (Spectator (as Emily Machin)), Darius Amarfio Jefferson (Colin), Shannon Diamond (Spectator), Tashie Baker (Spectator), Rhys Lander (Ted), William Lodder (Jack Hooper), Anastasia Bampos (Mandy Zeta)

Leírás:
A 15 éves Jack élete gyökeres fordulatot vesz, amikor új városba költöznek, ahol beleszeret a gokartozásba. Amikor csak teheti, pályán van, ám ahhoz, hogy a nemzetközi versenyen is megmérettethesse magát, egy kis önuralmomra is szüksége lesz. Szerencsére akad, aki segíti őt célja elérésében, újdonsült barátai és egy titokzaos veterán versenyző mindenben mellette állnak.

VIDEO



Format..........: AVI
Video codec.....: XviD
Bitrate.........: 1564 kb/s
Resolution......: 720x304
D.A.R...........: 2,35:1
Video FPS.......: 24.000
B./P.*Fr........: 0.298
A.R.E...........: 0,011%
Source info.....: WEB-DL



AUDIO



Format...........: AC-3
Language.........: HUN
Frequency........: 48,0 kHz
Bitrate..........: 448 kb/s
Channels.........: 6 /5.1/
Source info......: PTHD / Netflix (THX!)

[HIDE]
Kód:
nézd itt
https://waaw.tv/watch_video.php?v=PyO84uoYu3ox
vagy
https://ouo.io/2XQqHZa
vagy
https://vidoza.net/bqbuw3dpn7vd.html
vagy tölsd le itt
https://dropapk.to/hv55vpgvkxuk
[/HIDE]
 

balboka

Állandó Tag
Állandó Tag
Tőrbe ejtve (Knives Out) 2019 WEBRip XviD MD HUN



Eredeti cím:
Knives Out

Év:
2019
Játékidő:
131 perc
imdb_icon értékelés:
8.0
Kategória:
Vígjáték, Bűnügyi, Dráma, Misztikus, Thriller
Rendező:
Rian Johnson
Író:
Rian Johnson
Szereplők:
Jamie Lee Curtis (Linda Drysdale), Don Johnson (Richard Drysdale), Frank Oz (Alan Stevens), Toni Collette (Joni Thrombey), Christopher Plummer (Harlan Thrombey), K Callan (Greatnana Wanetta), Daniel Craig (Benoit Blanc), Chris Evans (Ransom Drysdale), Edi Patterson (Fran), Michael Shannon (Walt Thrombey), Riki Lindhome (Donna Thrombey), Ana de Armas (Marta Cabrera), LaKeith Stanfield (Lieutenant Elliott), Jaeden Martell (Jacob Thrombey), Katherine Langford (Meg Thrombey)

Leírás:
A milliárdos krimiírót 85. születésnapján holtan találják vidéki villájában. A partit követő napon a tett helyszínére érkezik a híres magándetektív, Benoit Blanc (Daniel Craig), akit egy titokzatos személy bérelt fel a szenzációs bűncselekmény felderítésével. Ahogy a nyomozó elkezdi felgöngyölíteni az ügyet, egyre különösebb tiktokra derít fényt. És bár az ünnepségen résztvevő családtagoknak, és a személyzetnek is megdönthetetlen alibije van, mindenkinek alapos indítéka volt a szörnyű tett elkövetésére... Rian Johnson (Looper – A jövő gyilkosa, Star Wars: Az utolsó Jedik) forgatókönyvíró-rendező feszült krimiije egy modern köntösbe öltöztetett klasszikus Agatha Christie-történet, ahol az utolsó pillanatig izgatottan várja a néző a mindent leleplező, és döbbent fordulatot hozó végkifejletet. A milliárdos krimiírót az Oscar-díjas Christopher Plummer alakítja, díszes családját olyan sztárok keltik életre, mint Chris Evans, az Oscar-jelölt Toni Collette, a kétszeres Golden Globe-díjas Jamie Lee Curtis, az Oscar-jelölt Michael Shannon, a Golden Globe-díjas Don Johnson, a személyzet egyik tagját Ana de Armas játssza, a neves detektív szerepében pedig Daniel Craig remekel.


Format : AVI
Format/Info : Audio Video Interleave
Format profile : OpenDML
File size : 1.82 GiB
Duration : 4h 56mn
Overall bit rate : 881 Kbps
Writing application : Lavf56.15.102
Video
Format : xvid
Codec ID : xvid
Duration : 4h 56mn
Bit rate : 819 Kbps
Width : 720 pixels
Height : 384 pixels
Display aspect ratio : 1.875
Frame rate : 29.970 fps
Resolution : 24 bits
Bits/(Pixel*Frame) : 0.099
Stream size : 1.69 GiB (93%)
Audio #1
ID : 1
Format : MPEG Audio
Format version : Version 1
Format profile : Layer 3
Codec ID : 55
Codec ID/Hint : MP3
Duration : 2h 10mn
Bit rate mode : Constant
Bit rate : 128 Kbps
Channel(s) : 2 channels
Sampling rate : 44.1 KHz
Resolution : 16 bits
Stream size : 119 MiB (6%)
Alignment : Aligned on interleaves
Interleave, duration : 26 ms (0.78 video frame)
Interleave, preload duration : 26 ms

[HIDE]
Kód:
nézd itt
https://waaw.tv/watch_video.php?v=45XKLY6YnA69
vagy
https://ouo.io/K7OviK
vagy
https://vidoza.net/xbsisk5n00hq.html

vagy tölsd le itt
https://ouo.io/rtF39W
[/HIDE]
 

balboka

Állandó Tag
Állandó Tag
10 nap anyu nélkül (10 jours sans maman) 2020 WebDl Xvid MD Hun


sFilm adatlap:

Év:
2020
Játékidő:
104 perc
imdb_icon értékelés:
5.7
Kategória:
Vígjáték
Rendező:
Ludovic Bernard
Írók:
Ludovic Bernard
Szereplők:
Aure Atika (Isabelle Mercier), Franck Dubosc (Antoine Mercier), Daniel Martin (Roland Chassagne), Alexis Michalik (Di Caprio), Evan Paturel (Jojo), Héléna Noguerra (Audrey), Alice David (Julia), Rupert Wynne-James (Actionnaire du Sud), Violette Guillon (Chloé), Liza Paturel (Employée crèche), Gabrielle Marie (Cascadeuse), Swan Joulin (Arthur), Ilan Debrabant (Maxime)

Leírás:
Antione-t, a sikeres HR vezetőt már nem sok választja el attól, hogy előléptessék. A rafinált üzletember arra azonban nem számít, hogy imádott felesége fogja a legnagyobb próbatétel elé állítani: Isabelle ugyanis úgy dönt, vakációzik egyet egyedül. Bár gondosan lediktálja, hogy mik is a feladatok a gyerekekkel arra a 10 napra, amíg ő nem lesz otthon, de hamar kiderül, hogy ez édes kevés lesz Antoione boldogulásához.




Általános
Complete name : 10Nap.Anyu.Nelkül.2020.WEBDL.HUN.MRIphone11-cinema.zsozso.mp4
Format : MPEG-4
Format profile : Base Media
Codec ID : isom (isom/iso2/avc1/mp41)
File size : 1,31 GiB
Duration : 1 óra


Kép
ID : 1
Format : AVC
Format/Info : Advanced Video Codec
Format profile : [email protected]
Format settings : CABAC / 1 Ref Frames
Format settings, CABAC : igen
Format settings, Reference frames : 1 képkocka
Codec ID : avc1
Codec ID/Info : Advanced Video Coding
Duration : 1 óra
Bit rate : 1 845 kb/s
Width : 720 képpont
Height : 404 képpont
Display aspect ratio : 16:9
Frame rate mode : állandó
Frame rate : 29,970 (30000/1001) FPS
Color space : YUV
Chroma subsampling : 4:2:0
Bit depth : 8 bit
Scan type : folytonos
Bits/(Pixel*Frame) : 0.212
Stream size : 1,25 GiB (96%)
Writing library : x264 core 129


Hang
ID : 2
Format : AAC LC
Format/Info : Advanced Audio Codec Low Complexity
Codec ID : mp4a-40-2
Duration : 1 óra
Duration_FirstFrame : 70emp
Bit rate mode : változó
Bit rate : 73,8 kb/s
Maximum bit rate : 88,2 kb/s
Channel(s) : 1 csatorna
Channel layout : C
Sampling rate : 44,1 kHz
Frame rate : 43,066 FPS (1024 SPF)
Stream size : 51,7 MiB (4%)
Default : igen
Nyelv : magyar

[HIDE]
Kód:
nézd itt
https://waaw.tv/watch_video.php?v=l6at1CoecnFZ
vagy
https://vidoza.net/o56guvdozp1g.html
vagy tölsd le itt
https://ouo.io/jjHV6E
[/HIDE]
 

balboka

Állandó Tag
Állandó Tag
NászszezON (The Wedding Year) 2019 BDRip Xvid Hun


Eredeti cím:
The Wedding Year
sFilm adatlap:
sFilm
Év:
2019
Játékidő:
90 perc
imdb_icon értékelés:
5.4
Kategória:
Vígjáték
Rendező:
Robert Luketic
Író:
Donald Diego
Szereplők:
Kristen Johnston (Barbara), Keith David (Preston), Sarah Hyland (Mara), Wanda Sykes (), Darlene Vogel (Mother), Jenna Dewan (Jessica), Noureen DeWulf (Boss Queen), Nadia Dawn (Bridesmaid), Tyler James Williams (Jake), Anna Camp (Ellie), Matt Shively (Alex), Natasha Loring (Kelly's Sister), Grace Helbig (Kelly), Camille Hyde (Nicole), Laci Mosley (Violet), Christian A. Pierce (Gilman), Martin Martinez (Alex)

Leírás:
A Los Angeles-i Mara nagy kanállal habzsolja az életet. Mindene megvan, amire vágyik; könnyed flörtök és találkák, sikeres fotós karrier, de amihez a leginkább ragaszkodik, az a függetlenség érzése. Amikor azonban betoppan az életébe Jake, a fiatal és ambiciózus mesterszakács, minden megváltozik. A nő továbbra is próbál úrra lenni érzésein, és bízik benne, hogy minden visszatér a megszokott kerékvágásba, ám amikor ismerősei sorra az oltár elé vonulnak, úgy érzi, ideje elhatározni, hogyan tovább.

Média
Időtartam 1:30:45
Bitráta 1805 kbps
Width 720
Height 304
Aspect Ratio 2.35
Video Resolution SD
Container AVI
Video Frame Rate 24p
Video Profile advanced simple
Rész
Időtartam 1:30:45
File gianni-the.wedding.year.avi
Size 1.14 GB
Container AVI
Video Profile advanced simple
Codec MPEG4
Bitráta 1540 kbps
Bit Depth 8
Chroma Location left
Chroma Subsampling 4:2:0
Coded Height 304
Coded Width 720
Frame Rate 23.976 fps
Height 304
Szint 5
Profil advanced simple
Ref Frames 1
Width 720
Display Title SD (MPEG4)
Codec AC3
Csatornák 2
Bitráta 256 kbps
Audio Channel Layout stereo
Sampling Rate 48000 Hz
Stream Identifier 1
Display Title Ismeretlen (AC3 Stereo)


[HIDE]
Kód:
  tölsd le itt, privát szerver jelszó:  123   csak a jelszót kell beirni és indul a letöltés 100mbit vagy több:)
https://ouo.io/ZnSfsE
[/HIDE]
 

balboka

Állandó Tag
Állandó Tag
Drakulics elvtárs 2019 BDRip x264 Hun


Év:
2019
Játékidő:
95 perc
imdb_icon értékelés:
7.1
Kategória:
Vígjáték
Rendező:
Márk Bodzsár
Író:
Márk Bodzsár
Szereplők:
Éva Kerekes (Telekes titkárno), Ervin Nagy (Kun László), Judit Rezes (Réti Lajosné), Roland Rába (Kádár János), Szabolcs Thuróczy (Esvégh elvtárs), Zsolt Trill (Galambos elvtárs), István Znamenák (Cserkó Jeno), András Vinnai (Vellai bárpultos), Zsolt Nagy (Fábián elvtárs), Nelli Szücs (Cserkóné), Mónika Balsai (Nádja asszony), Tibor Bödõcs (Szikra konferanszié), Hanna Pálos (Polláck Ilona), Alexandra Borbély (Ibolya), Lili Walters (Magyar Mária)

Leírás:
------20 PERCES ÍZELÍTŐ A FILMBŐL------A Kádár-korszak fénykorában hazatér a kubai forradalomban edződött Fábián elvtárs (Nagy Zsolt). Nagyszerű ötlettel áll elő, hozzálát a rendszerezett véradás megszervezéséhez. Valami azonban furcsa a viselkedésében, ráadásul feltűnően fiatalos megjelenése és a nők körében töretlen népszerűsége is gyanakvásra ad okot. Nem csoda hát, hogy a magyar kémelhárítás prominens tagjait állítják rá az elvtársra. Klasszikus módszerhez folyamodnak, Mária (Walters Lili) a női csáberő bevetésével próbál közel kerülni a kétes alakhoz. Színlelt kapcsolatuk kezd elmélyülni, a kémnő pedig egyre biztosabb abban, hogy végre sikerült átvennie az irányítást a férfiak fölött. Barátja, Laci (Nagy Ervin) azonban korántsem örül ennyire a nő románcának. Megunja a háttérből szimatolást, és elkezd a történteken morfondírozni, noha az ésszerűség nem tartozik az erősségei közé. Vajon fény derül a titokzatos elvtársat körbelengő rejtélyre? Elképzelhető, hogy a talány kulcsa a férfi üvegében levő piros nedű? A sokatlátott hírszerző osztagnak nehéz újat mutatni, ez a titokzatos eset azonban számukra is komoly fejtörést okoz. Ijedelemre azonban semmi ok, a kémelhárítás színe-java tartja szemmel a köztünk járó vérszívókat, fegyvertárukban klasszikus és modern eszközök egyaránt megtalálhatók. A bravúros vígjáték Bodzsár Márk írói és rendezői munkáját dícséri. Nagyszerű színészek, pörgős cselekmény, bohókás fordulatok teszik feledhetetlenné a produkciót...


Média
Időtartam 1:37:13
Bitráta 2124 kbps
Width 720
Height 302
Aspect Ratio 2.35
Video Resolution SD
Container MKV
Video Frame Rate 24p
Video Profile high
Rész
Időtartam 1:37:13
File legacy-drakulicselvtars.mkv
Size 1.44 GB
Container MKV
Video Profile high
Codec H264
Bitráta 1484 kbps
Nyelv Magyar
Bit Depth 8
Chroma Location left
Chroma Subsampling 4:2:0
Coded Height 304
Coded Width 720
Color Primaries bt709
Color Range tv
Color Space bt709
Color Trc bt709
Frame Rate 24 fps
Height 302
Szint 4.1
Profil high
Ref Frames 16
Scan Type progressive
Cím Legacy pwns u!
Width 720
Display Title SD (H.264)
Codec AC3
Csatornák 6
Bitráta 640 kbps
Nyelv Magyar
Audio Channel Layout 5.1(side)
Sampling Rate 48000 Hz
Cím Hungarian DD 5.1
Display Title Magyar (AC3 5.1)
Kényszerített true
Codec SRT
Nyelv Magyar
Cím Hungarian Forced
Display Title Magyar Kényszerített (SRT)
Codec SRT
Nyelv Magyar
Cím Hungarian
Display Title Magyar (SRT)
Codec SRT
Nyelv Magyar
Cím Hungarian SDH
Display Title Magyar (SRT)
Codec SRT
Nyelv English
Cím English
Display Title English (SRT)


Kód:
tölsd le itt, privát szerver jelszó:  123   csak a jelszót kell beirni és indul a letöltés 100mbit vagy több:)
https://ouo.io/NsSwG3
 
Utoljára módosítva a moderátor által:

balboka

Állandó Tag
Állandó Tag
Seveled 2019 BDRip x264 Hun


Év:
2019
Játékidő:
90 perc
imdb_icon értékelés:
6.7
Kategória:
Vígjáték, Romantikus
Rendező:
Dénes Orosz
Írók:
Dénes Orosz, Zsuzsi Várady
Szereplők:
Luca Bercovici (Frank Davenport), Gyula Bodrogi (Géza), Bori Boldoghy (Robika felesége), Juli Básti (Emma), György Cserhalmi (Károly), Judit Rezes (Hedvig), Eszter Ónodi (Anna Foszerkeszto), Anna Pálmai (Petra), Béla Mészáros (Gergo), Zsolt Dér (Zsolt), Hajnalka Szakács (Noémi, újonc), Máté Mészáros (Adonisz), Péter Telekes (Balázs), Réka Tenki (Saci), Áron Molnár (Robika)

Leírás:
Elsőre jó ötletnek látszott. Gergő (Mészáros Béla), a csajozógép filmkritikus szeretne beteg édesanyja (Básti Juli) kedvében járni, és a jó ügy érdekében hazudik egy nagyot. Csak egyetlen egyet: beviszi hozzá a kórházba a szomszédját (Tenki Réka), a nagyszájú ex-sztriptíztáncosnőt, akinek van egy nagy előnye: öt hónapos terhes. Az unokamániás anyuka boldogan látja, hogy a fia révbe ért, elbúcsúzik mindenkitől – és meggyógyul. Ettől kezdve Gergő és Saci kénytelen újabb és újabb hazugságokkal tartani a frontot. Bár alig bírják egymást elviselni, ha jön a „nagyi”, úgy tesznek, mintha boldog, fiatal pár volnának. Az átverések persze sosem tökéletesek, és a bonyodalom Saci pocakjával együtt terebélyesedik: pedig előbb-utóbb meg kell születnie a megoldásnak.



Média
Időtartam 1:35:38
Bitráta 2088 kbps
Width 720
Height 270
Aspect Ratio 2.35
Video Resolution SD
Container MKV
Video Frame Rate 24p
Video Profile high
Rész
Időtartam 1:35:38
File legacy-seveled.mkv
Size 1.40 GB
Container MKV
Video Profile high
Codec H264
Bitráta 1448 kbps
Nyelv Magyar
Bit Depth 8
Chroma Location left
Chroma Subsampling 4:2:0
Coded Height 272
Coded Width 720
Color Primaries bt709
Color Range tv
Color Space bt709
Color Trc bt709
Frame Rate 24 fps
Height 270
Szint 4.1
Profil high
Ref Frames 16
Scan Type progressive
Cím Legacy pwns u!
Width 720
Display Title SD (H.264)
Codec AC3
Csatornák 6
Bitráta 640 kbps
Nyelv Magyar
Audio Channel Layout 5.1(side)
Sampling Rate 48000 Hz
Cím Hungarian DD 5.1
Display Title Magyar (AC3 5.1)
Kényszerített true
Codec SRT
Nyelv Magyar
Cím Hungarian Forced
Display Title Magyar Kényszerített (SRT)
Codec SRT
Nyelv English
Cím English
Display Title English (SRT)

[HIDE]
Kód:
 tölsd le itt, privát szerver jelszó:  123   csak a jelszót kell beirni és indul a letöltés 100mbit vagy több:)
https://ouo.io/EGa44i
[/HIDE]
 

balboka

Állandó Tag
Állandó Tag
Black '47 2018 BDRip Xvid Hun


Eredeti cím:
Black '47
sFilm adatlap:
sFilm
Év:
2018
Játékidő:
100 perc
imdb_icon értékelés:
6.8
Kategória:
Akció, Dráma
Rendező:
Lance Daly
Írók:
Lance Daly, P.J. Dillon
Szereplők:
Jim Broadbent (Lord Kilmichael), Stephen Rea (Conneely), John Cronin (Wright), Dermot Crowley (Judge Bolton), Diarmuid de Faoite (Catholic Priest), Finbar Lynch (Brown), Hugo Weaving (Hannah), Jeff Konter (Constabulary), Ella Grace Lee (Roisin), Keanu Parks (Tomas), Aidan McArdle (Cronin), Antonia Campbell-Hughes (Brigid Ni Dhomhnaill), Sarah Greene (Ellie), James Frecheville (Feeney), Freddie Fox (Pope), Moe Dunford (Fitzgibbon), Barry Keoghan (Hobson), Ciaran Grace (O'Sé), Brandon Maher (Mícheál Og), Olivier Biwer (Prison Officer), Laurence O'Fuarain (I.C Sub Constable), Ryan McAllister (Bailiff), Peadar Cox (Translator), Colm Seoighe (Swineherd), Kieran Boland (Sullivan), Ronan O'Connor (Red)

Leírás:
Martin Feeney (James Frecheville) több év katonai szolgálat után visszatér a szülőföldjére. Itt nemcsak az éhínség következményeivel szembesül, hanem azzal is, hogy a családja odalett: édesanyja éhen halt, a bátyját pedig felkötötték, mert megtámadta az őket kilakoltató törvényszolgát. Feeney bosszút esküszik, a tettei azonban nem maradnak következmények nélkül, Hannah felügyelőt (Hugo Weaving) küldik utána, hogy véget vessen véres ténykedésének.ihívja a legendás kung-fu mestert, Wong Jack Man-t egy megkötések nélküli harcra Észak-Kaliforniában.


Média
Időtartam 1:39:48
Bitráta 1937 kbps
Width 720
Height 304
Aspect Ratio 2.35
Video Resolution SD
Container AVI
Video Frame Rate 24p
Video Profile advanced simple
Rész
Időtartam 1:39:48
File gianni-black.47.avi
Size 1.36 GB
Container AVI
Video Profile advanced simple
Codec MPEG4
Bitráta 1681 kbps
Bit Depth 8
Chroma Location left
Chroma Subsampling 4:2:0
Frame Rate 24 fps
Height 304
Szint 5
Profil advanced simple
Ref Frames 1
Width 720
Display Title SD (MPEG4)
Codec AC3
Csatornák 2
Bitráta 256 kbps
Audio Channel Layout stereo
Sampling Rate 48000 Hz
Stream Identifier 1
Display Title Ismeretlen (AC3 Stereo)
Codec SRT
Format SRT
Display Title Ismeretlen (SRT Külső)

Ajánlott letöltés Jdownloaderrel a reklámok elkerölése végett, AMIT NEM KELL TELEPITENI!!
letöltöd kicsomagolod egy könyvtárba
aztán JDownloader2.exe futtatása, majd a beallitasokba beallitod hova töltse a gépedre a filmet, kimasolod a linket, és inditás.
jó töltögetést, ha valami nem megy irjatok nyugodtan.

[HIDE]
Kód:
JDownloader2
https://ouo.io/HJjqEM

Kód:
tölsd le itt
https://ouo.io/c78FMiW
[/HIDE]
 

balboka

Állandó Tag
Állandó Tag
Bosszuallok Ultron Kora 2015 BDRip XviD Hun


Eredeti cím:
Avengers: Age of Ultron
sFilm adatlap:
sFilm
Év:
2015
Játékidő:
141 perc
imdb_icon értékelés:
7.3
Kategória:
Akció, Kaland, Sci-Fi
Készítők:
Stan Lee, Joss Whedon
Írók:
Stan Lee, Joss Whedon
Rendező:
Joss Whedon
Szereplők:
Samuel L. Jackson (Nick Fury), Don Cheadle (James Rhodes), Don Cheadle (James Rhodes / War Machine), Don Cheadle (War Machine), Robert Downey Jr. (Iron Man), Robert Downey Jr. (Tony Stark), Robert Downey Jr. (Tony Stark / Iron Man), James Spader (Ultron), Paul Bettany (Jarvis), Paul Bettany (Jarvis / Vision), Paul Bettany (Vision), Chris Evans (Captain America), Chris Evans (Steve Rogers), Chris Evans (Steve Rogers / Captain America), Scarlett Johansson (Black Widow), Scarlett Johansson (Natasha Romanoff), Scarlett Johansson (Natasha Romanoff / Black Widow), Elizabeth Olsen (Scarlet Witch), Elizabeth Olsen (Wanda Maximoff), Elizabeth Olsen (Wanda Maximoff / Scarlet Witch), Jeremy Renner (Clint Barton), Jeremy Renner (Clint Barton / Hawkeye), Jeremy Renner (Hawkeye), Mark Ruffalo (Bruce Banner), Mark Ruffalo (Bruce Banner / Hulk), Mark Ruffalo (Hulk), Aaron Taylor-Johnson (Pietro Maximoff), Aaron Taylor-Johnson (Pietro Maximoff / Quicksilver), Aaron Taylor-Johnson (Quicksilver), Anthony Mackie (Falcon), Anthony Mackie (Sam Wilson), Anthony Mackie (Sam Wilson / Falcon), Anthony Mackie (Sam Wilson / The Falcon), Cobie Smulders (Maria Hill), Chris Hemsworth (Thor), Hayley Atwell (Peggy Carter)

Leírás:
Amikor Tony Stark újra életet akar lehelni a parkolópályára állított békefenntartó programba, nem minden sikerül a tervei szerint. A Föld legnagyobb hőseinek, vagyis Vasembernek, Amerika kapitánynak, Thornak, a Hihetetlen Hulknak, a Fekete Özvegynek és Sólyomszemnek ezúttal a legvégső megmérettetésen kell helytállniuk, mivel a bolygó sorsáról van szó. A rettegett Ultron megjelenésével a Bosszúállókra vár a feladat, hogy megakadályozzák ördögi terve megvalósítását. Az egyedülálló, globális kaland azonban csupán vonakodva megköttetett szövetségek és nem várt események árán teljesedhet ki.

Bosszuallok.Ultron.Kora.2015.BDRip.XviD.Hun-XiDER.avi
Média
Időtartam 2:21:40
Bitráta 1708 kbps
Width 720
Height 304
Aspect Ratio 2.35
Video Resolution SD
Container AVI
Video Frame Rate 24p
Video Profile advanced simple
Rész
Időtartam 2:21:40
File Bosszuallok.Ultron.Kora.2015.BDRip.XviD.Hun-XiDER.avi
Size 1.70 GB
Container AVI
Video Profile advanced simple
Codec MPEG4
Bitráta 1325 kbps
Bit Depth 8
Chroma Location left
Chroma Subsampling 4:2:0
Frame Rate 23.976 fps
Height 304
Szint 5
Profil advanced simple
Ref Frames 1
Width 720
Display Title SD (MPEG4)
Codec AC3
Csatornák 6
Bitráta 383 kbps
Audio Channel Layout 5.1(side)
Sampling Rate 48000 Hz
Stream Identifier 1
Display Title Ismeretlen (AC3 5.1)
Codec SRT
Format SRT
Display Title Ismeretlen (SRT Külső)

Ajánlott letöltés Jdownloaderrel a reklámok elkerülése végett, AMIT NEM KELL TELEPITENI!!
letöltöd kicsomagolod egy könyvtárba
aztán JDownloader2.exe futtatása, majd a beallitasokba beallitod hova töltse a gépedre a filmet, kimasolod a linket, és inditás.
jó töltögetést, ha valami nem megy irjatok nyugodtan.

[HIDE]
Kód:
JDownloader2
https://ouo.io/HJjqEM
https://mega.nz/file/JTJHQIjC#Drzfrqs0AAohy3afPSqREfbuaBbhWcnxCS5oUQ6dWnQ

Kód:
tölsd le itt
https://ouo.io/skVQUw
[/HIDE]
 

balboka

Állandó Tag
Állandó Tag
Bosszúállók: Végtelen háború 2018 Custom BDRip XviD Hun




Eredeti cím:
Avengers: Infinity War
sFilm adatlap:
sFilm
Év:
2018
Játékidő:
149 perc
imdb_icon értékelés:
8.5
Kategória:
Akció, Kaland, Sci-Fi
Rendező:
Anthony Russo, Joe Russo
directors:
Anthony Russo, Joe Russo
Készítők:
Christopher Markus, Stephen McFeely
Írók:
Christopher Markus, Stephen McFeely
Szereplők:
Don Cheadle (James Rhodes / War Machine), Robert Downey Jr. (Tony Stark / Iron Man), Josh Brolin (Thanos), Benicio Del Toro (The Collector), Linda Cardellini (Laura Barton), Paul Bettany (Vision), Idris Elba (Heimdall), Chris Evans (Steve Rogers), Chris Evans (Steve Rogers / Captain America), Scarlett Johansson (Natasha Romanoff / Black Widow), Elizabeth Olsen (Wanda Maximoff / Scarlet Witch), Chris Pratt (Peter Quill / Star-Lord), Mark Ruffalo (Bruce Banner / Hulk), Zoe Saldana (Gamora), Tom Hiddleston (Loki), Anthony Mackie (Sam Wilson / Falcon), Chris Hemsworth (Thor), Dave Bautista (Drax), Benedict Cumberbatch (Doctor Strange), Benedict Cumberbatch (Dr. Stephen Strange), Chadwick Boseman (T'Challa / Black Panther), Sebastian Stan (Bucky Barnes / White Wolf), Sebastian Stan (Bucky Barnes / Winter Soldier), Danai Gurira (Okoye), Tessa Thompson (Valkyrie (rumored)), Karen Gillan (Nebula), Pom Klementieff (Mantis), Letitia Wright (Shuri), Tom Holland (Peter Parker / Spider-Man)

Leírás:
A Marvel mozis univerzumának egészét felölelő, tíz év eseményeinek tetőpontját jelentő Bosszúállók: Végtelen háborúban minden idők legnagyobb és leghalálosabb leszámolására kerül sor. A Bosszúállóknak és szövetségeseiknek mindent kockára kell tenniük, hogy megfékezzék a nagy erejű Thanost, aki egy szemvillanás alatt elpusztíthatja a világot.

Bosszuallok.Vegtelen.Haboru.2018.Custom.BDRip.XviD.Hun-eStone.avi
Média
Időtartam 2:29:21
Bitráta 1829 kbps
Width 720
Height 304
Aspect Ratio 2.35
Video Resolution SD
Container AVI
Video Frame Rate 24p
Video Profile advanced simple
Rész
Időtartam 2:29:21
File Bosszuallok.Vegtelen.Haboru.2018.Custom.BDRip.XviD.Hun-eStone.avi
Size 1.92 GB
Container AVI
Video Profile advanced simple
Codec MPEG4
Bitráta 1605 kbps
Bit Depth 8
Chroma Location left
Chroma Subsampling 4:2:0
Frame Rate 23.976 fps
Height 304
Szint 5
Profil advanced simple
Ref Frames 1
Width 720
Display Title SD (MPEG4)
Codec AC3
Csatornák 2
Bitráta 224 kbps
Audio Channel Layout stereo
Sampling Rate 48000 Hz
Stream Identifier 1
Display Title Ismeretlen (AC3 Stereo)
Codec SRT
Format SRT
Display Title Ismeretlen (SRT Külső)




Ajánlott letöltés Jdownloaderrel a reklámok elkerülése végett, AMIT NEM KELL TELEPITENI!!
letöltöd kicsomagolod egy könyvtárba
aztán JDownloader2.exe futtatása, majd a beallitasokba beallitod hova töltse a gépedre a filmet, kimasolod a linket, és inditás.
jó töltögetést, ha valami nem megy irjatok nyugodtan.

[HIDE]
Kód:
JDownloader2
https://ouo.io/HJjqEM
https://mega.nz/file/JTJHQIjC#Drzfrqs0AAohy3afPSqREfbuaBbhWcnxCS5oUQ6dWnQ


Kód:
tölsd le itt
https://ouo.io/JbDfZ5S
[/HIDE]
 

balboka

Állandó Tag
Állandó Tag
Árok (Underwater) 2020 HDRip Xvid MD Hun


Eredeti cím:
Underwater
sFilm adatlap:
sFilm
Év:
2020
Játékidő:
95 perc
imdb_icon értékelés:
6.1
Kategória:
Akció, Dráma, Horror, Sci-Fi, Thriller
Rendező:
William Eubank
Írók:
Adam Cozad, Brian Duffield
Szereplők:
Vincent Cassel (), Vincent Cassel (Captain), John Gallagher Jr. (), John Gallagher Jr. (Smith), Kristen Stewart (Norah), Amanda Troop (Poseidon Patty), Fiona Rene (Godmother), Gunner Wright (Lee), T.J. Miller (), T.J. Miller (Paul), Jessica Henwick (Emily), Mamoudou Athie (), Mamoudou Athie (Rodrigo)

Leírás:
Egy mélytengeri kutatóbázis személyzete a túlélésért kénytelen küzdeni, miután földrengés rázza meg laboratóriumukat.


Arok.2020.HDRip.MD.HuN.XviD.NoGrp.avi
Média
Időtartam 1:33:55
Bitráta 1958 kbps
Width 720
Height 406
Aspect Ratio 1.78
Video Resolution SD
Container AVI
Video Frame Rate NTSC
Video Profile simple
Rész
Időtartam 1:33:55
File Arok.2020.HDRip.MD.HuN.XviD.NoGrp.avi
Size 1.29 GB
Container AVI
Video Profile simple
Codec MPEG4
Bitráta 1702 kbps
Bit Depth 8
Chroma Location left
Chroma Subsampling 4:2:0
Coded Height 406
Coded Width 720
Frame Rate 29.97 fps
Height 406
Szint 5
Pixel Aspect Ratio 255:254
Profil simple
Ref Frames 1
Width 720
Display Title SD (MPEG4)
Codec MP3
Csatornák 2
Bitráta 256 kbps
Audio Channel Layout stereo
Sampling Rate 48000 Hz
Stream Identifier 1
Display Title Ismeretlen (MP3 Stereo)

Ajánlott letöltés Jdownloaderrel a reklámok elkerülése végett, AMIT NEM KELL TELEPITENI!!
letöltöd kicsomagolod egy könyvtárba
aztán JDownloader2.exe futtatása, majd a beallitasokba beallitod hova töltse a gépedre a filmet, kimasolod a linket, és inditás.
jó töltögetést, ha valami nem megy irjatok nyugodtan.

[HIDE]
Kód:
JDownloader2
https://ouo.io/HJjqEM

Kód:
nézd itt
https://waaw.tv/f/DsLJDaObyhu0
vagy
https://ouo.io/eNyvLG
vagy tölsd le itt
https://www.file-up.org/tmtlpl0k0x3q
[/HIDE]
 

balboka

Állandó Tag
Állandó Tag
A betolakodó (The Intruder) 2019 BDRip x264 Hun


Szinkronizált,amerikai thriller horror dráma, 2019 (16)






Rendező: Deon Taylor
Forgatókönyvíró: David Loughery
Producer: Deon Taylor, Roxanne Avent, Bradley Kaplan, Jonathan Schwartz
Operatőr: Daniel Pearl
Zene: Geoff Zanelli
Vágó: Melissa Kent

Szereplők:
Meagan Good (Annie Russell)
Dennis Quaid (Charlie Peck)
Erica Cerra (Jillian Richards)
Michael Ealy (Scott Russell)
Joseph Sikora (Mike)
Alvina August (Rachel)
Debs Howard (Recepciós tiszt)
Lili Sepe (Charlie Peck lánya)
Lee Shorten (Brian)
Kurt Evans (Grady Kramer)

Scott és Annie boldogsága nem is lehetne nagyobb. A fiatal házaspár ugyanis a kaliforniai Napa-
völgyben megtalálta álmai házát. Meg is vásárolják azt Charlie Pecktől, az excentrikus, özvegy
tulajdonostól. A fiatalok azt gondolják, hogy megtalálták a tökéletes,békés és nyugodt otthonu-
kat, így semmi akadálya annak, hogy a következő lépésre, a babaprogramra koncentráljanak. Arra
azonban nem számítanak, hogy Charlie különösen ragaszkodó természet, és valósággal beszivárog
az életükbe.

The.Intruder.2019.BDRip.x264.HUN-SFY
Videó információk:
Méret: 1,28 GB
Hossz: 1:41:54
Típus: Matroska (AVC - Advanced Video Codec)
Felbontás: 720 x 300 pixel
Bitráta: 1 519 Kbps
Képkockák száma/mp: 23.976
Oldalarány: 2.400

Audió információk:
Audiósávok száma: 1
Audiosáv #1 adatai:
Audiósáv típusa: AC3 (AC3)
Csatornák száma: 2
Bitráta: 192 Kbps CBR
Mintavételezési frekvencia: 48.0 KHz


Ajánlott letöltés Jdownloaderrel a reklámok elkerülése végett, AMIT NEM KELL TELEPITENI!!
letöltöd kicsomagolod egy könyvtárba
aztán JDownloader2.exe futtatása, majd a beallitasokba beallitod hova töltse a gépedre a filmet, kimasolod a linket, és inditás.
jó töltögetést, ha valami nem megy irjatok nyugodtan.
[HIDE]
Kód:
JDownloader2
https://ouo.io/HJjqEM


Kód:
nézd itt
https://waaw.tv/f/kucQk0AsLX50
vagy
https://vidoza.net/9kd5b1qmnghc.html
vagy
https://ouo.io/Iti0go
vagy tölsd le itt
https://ouo.io/LVwRL7
[/HIDE]
 

papadi

Állandó Tag
Állandó Tag
Azok a csodálatos Baker fiúk (The Fabulous Baker Boys)

387a02b50cfda00f954ee5a6cc2ff5f5.jpg


Azok a csodálatos Baker fiúk
(The Fabulous Baker Boys)
Amerikai zenés film (1989)
Főszereplők: Jeff Bridges, Michelle Pfeiffer, Beau Bridges
Rendezte: Steven Kloves
Computer Panoráma 2002/5
Hang: magyar, angol
Felirat: magyar

Jack (Jeff Bridges) és Frank (Beau Bridges) bárzongorista testvérpár, akiknek már kellene valamit újítani műsorukon. Kézenfekvőnek látszik az ötlet, hogy egy énekesnő feldobná kissé poros fellépéseiket. Az alapos és eredménytelen meghallgatások után csaknem véletlenül toppan be életükbe Suzie (Michelle Pfeiffer). Különleges kisugárzásával nemcsak a közönséget kápráztatja el, hanem a Baker fiúkat is. Kérdés, hogy a művészetet és az érzelmeket el tudja-e rontani a féltékenység, a karriervágy és a pénz.

Extrák (csak a dvd-n):

Előzetesek (15:04)
Azok a csodálatos Baker fiúk (3:23)
Lopakodók
1492 - A Paradicsom meghódítása
Hóbortos hétvége
Dűne
A holtsáv
Szemenszedett szenzáció

Karaoke (2:48)
Eredeti film track
Karaoke

Werkfilm (6:54)
Interjú (6:50)
Szereplők - életrajz és filmográfia
Michelle Pfeiffer
Beau Bridges
Jeff Bridges


Média információ:

Video:
Kodek: MPEG-1/2 Video (mpgv)
Felbontás: 720x576
Képkockasebesség: 25

Hang:
Kodek: A52 Audio (aka AC3) (a52)
Csatornák: Sztereó
Mintavételi frekvencia: 48000 Hz
Bitsebesség: 192 kb/mp

Formátum: dvd
Méret: 5,45 GB
Műsoridő: 1:49:08 (2:02:45)

(prémium)
[HIDE-THANKS]
Kód:
https://data.hu/get/12386631/D0019d2.part1.rar
https://data.hu/get/12386634/D0019d2.part2.rar
https://data.hu/get/12386642/D0019d2.part3.rar
https://data.hu/get/12386640/D0019d2.part4.rar
https://data.hu/get/12386637/D0019d2.part5.rar
https://data.hu/get/12386632/D0019d2.part6.rar
[/HIDE-THANKS]

419568bc414369b9515093a6691d8e8a.jpg


Formátum: dvdrip/avi
Méret: 1,39 GB
Felbontás: 720x416
Mintavételi frekvencia: 48000 Hz
Bitsebesség: 128 kbps
Műsoridő: 1:49:08

Részletes média információ:
I:\0000\CP 2002-05 Azok a csodlatos Baker fik\CP 2002-05 Azok a csodálatos Baker fiúk\Azok a csodálattos Baker fiúk.avi
General
Complete name : I:\0000\CP 2002-05 Azok a csodlatos Baker fik\CP 2002-05 Azok a csodálatos Baker fiúk\Azok a csodálattos Baker fiúk.avi
Format : AVI
Format/Info : Audio Video Interleave
File size : 1.17 GiB
Duration : 1 h 49 min
Overall bit rate : 1 531 kb/s
Writing application : VirtualDubMod 1.5.4.1 (build 2178/release)
Writing library : VirtualDubMod build 2178/release
Video #0
ID : 0
Format : MPEG-4 Visual
Format profile : Advanced [email protected]
Format settings, BVOP : No
Format settings, QPel : No
Format settings, GMC : No warppoints
Format settings, Matrix : Custom
Codec ID : XVID
Codec ID/Hint : XviD
Duration : 1 h 49 min
Bit rate : 1 266 kb/s
Width : 720 pixels
Height : 416 pixels
Display aspect ratio : 1.731
Frame rate : 25.000 FPS
Color space : YUV
Chroma subsampling : 4:2:0
Bit depth : 8 bits
Scan type : Progressive
Compression mode : Lossy
Bits/(Pixel*Frame) : 0.169
Stream size : 988 MiB (83%)
Writing library : XviD 1.2.1 (UTC 2008-12-04)
Audio #1
ID : 1
Format : MPEG Audio
Format version : Version 1
Format profile : Layer 3
Mode : Joint stereo
Mode extension : MS Stereo
Codec ID : 55
Codec ID/Hint : MP3
Duration : 1 h 49 min
Bit rate mode : Constant
Bit rate : 128 kb/s
Channel(s) : 2 channels
Sampling rate : 48.0 kHz
Compression mode : Lossy
Stream size : 99.9 MiB (8%)
Alignment : Aligned on interleaves
Interleave, duration : 80 ms (2.00 video frames)
Interleave, preload duration : 504 ms
Writing library : LAME3.98r
Encoding settings : -m j -V 4 -q 2 -lowpass 17 -b 128
Audio #2
ID : 2
Format : MPEG Audio
Format version : Version 1
Format profile : Layer 3
Mode : Joint stereo
Mode extension : MS Stereo
Codec ID : 55
Codec ID/Hint : MP3
Duration : 1 h 49 min
Bit rate mode : Constant
Bit rate : 128 kb/s
Channel(s) : 2 channels
Sampling rate : 48.0 kHz
Compression mode : Lossy
Stream size : 99.9 MiB (8%)
Alignment : Aligned on interleaves
Interleave, duration : 80 ms (2.00 video frames)
Interleave, preload duration : 504 ms
Writing library : LAME3.98r
Encoding settings : -m j -V 4 -q 2 -lowpass 17 -b 128

prémium
[HIDE-THANKS]
Kód:
https://data.hu/get/12386627/D0019a.part1.rar
https://data.hu/get/12386636/D0019a.part2.rar
[/HIDE-THANKS]
vagy free
[HIDE-THANKS]
Kód:
https://data.hu/get/12386630/D0019av.part1.rar
https://data.hu/get/12386639/D0019av.part2.rar
https://data.hu/get/12386629/D0019av.part3.rar
https://data.hu/get/12386628/D0019av.part4.rar
https://data.hu/get/12386638/D0019av.part5.rar
https://data.hu/get/12386635/D0019av.part6.rar
https://data.hu/get/12386633/D0019av.part7.rar
[/HIDE-THANKS]

Az elveszett link miatt újratöltve.
 
Utoljára módosítva:

balboka

Állandó Tag
Állandó Tag
Legyetek jók, ha tudtok 1984 Custom DVDRip Xvid Hun


Eredeti cím:
State buoni se potete
sFilm adatlap:
sFilm
Év:
1983
Játékidő:
115 perc
imdb_icon értékelés:
8.0
Kategória:
Vígjáték, Dráma, Történelmi
Készítők:
Luigi Magni
Rendező:
Luigi Magni
Írók:
Luigi Magni
Szereplők:
Mario Adorf (Sisto V), Philippe Leroy (Ignazio di Loyola), Rodolfo Bigotti (Cirifischio), Flora Carabella (), Giovanni Crippi (), Eurilla del Bono (Leonetta (as Eurilla Del Bona)), Johnny Dorelli (Don Filippo Neri), Roberto Farris (Young Cirifischio), Gianni Franco (), Franco Javarone (Il capitano delle guardie (as Franco Iavarone)), Federica Mastroianni (Young Leonetta), Renzo Montagnani (The Devil (Il diavolo)), Iris Peynado (Il diavolo), Raimondo Ricci (), Giovanni Crippa (The Cardinal)


Leírás:
Cirifischio (Roberto Farris) árva gyerek, aki ellop egy kelyhet egy oltárról, ám szerencséjére rábukkan Néri Fülöp (Johnny Dorelli) "templomára" és a jóságos pap őt is befogadja a többi gyerek közé. Azonban még aznap este, Fülöp atya szokásos alamizsna-kéregető útján megverik őket a bíboros emberei, és köztük van egy fiú, aki ráadásul nevet a balszerencséjükön. Cirifischio bosszút esküszik és a többi gyerekkel együtt lecsap az apródra, ám mikor el akarják agyabugyálni, kiderül róla, hogy valójában lány! Leonetta (Federica Mastroianni) szintén árva és kényszerből van a bíboros mellett, ám hamarosan a sors kőhajító keze révén mégis kiszabadulhat. A fiú és a lány pedig egymásba szeretnek, aztán az évek boldogságban telnek (felnőttként Rodolfo Bigotti és Eurilla del Bono alakítják őket), ám az Ördög nem alszik, mindig más alakot öltve veszi rá a fiút gaztettekre. A fiatalok útjai végül különválnak, de sohasem mondanak le a másikról. Vajon együtt lehetnek még valaha? De azért rajtuk kívül szoríthatunk Fülöp atyáért is, akinek vén fejjel rongyos ruhákban kell koldulni járnia - hacsak valami csoda nem történik...


Média
Időtartam 1:44:52
Bitráta 1586 kbps
Width 720
Height 434
Aspect Ratio 1.66
Video Resolution SD
Container MKV
Video Frame Rate PAL
Video Profile high
Rész
Időtartam 1:44:52
File Legyetek jók, ha tudtok.mkv
Size 1.16 GB
Container MKV
Video Profile high
Codec H264
Bitráta 1362 kbps
Bit Depth 8
Chroma Location left
Chroma Subsampling 4:2:0
Color Range tv
Color Space bt709
Frame Rate 25 fps
Height 434
Szint 4.1
Profil high
Ref Frames 16
Scan Type progressive
Width 720
Display Title SD (H.264)
Codec AC3
Csatornák 2
Bitráta 224 kbps
Audio Channel Layout stereo
Sampling Rate 48000 Hz
Display Title Ismeretlen (AC3 Stereo)



Keresel egy jó iptvt rengeteg csatornával és videó tárral!! akkor probáld ki a 48 órás ingyenes tesztet
ha magyar ipcimről akarsz regizni szükséged lesz a hola vpn pluginra ami beépül a böngészőbe, itt tudsz regisztrálni https://ouo.io/AtdLjR,
vásárlás előtt irj nekik üzenetet,es elküldik hol tudsz fizetni!!

Ajánlott letöltés Jdownloaderrel a reklámok elkerülése végett, AMIT NEM KELL TELEPITENI!!
letöltöd kicsomagolod egy könyvtárba
aztán JDownloader2.exe futtatása, majd a beallitasokba beallitod hova töltse a gépedre a filmet, kimasolod a linket, és inditás.
jó töltögetést, ha valami nem megy irjatok nyugodtan.

[HIDE]
Kód:
JDownloader2

https://datoid.cz/au1j7E/jd2-fully-loaded-15-04-2020uj-rar



Kód:
nézd itt
https://ouo.io/pMrJRf
vagy
https://ouo.io/ue54Aw

vagy tölsd le itt 1fichier
https://ouo.io/qn7au8
[/HIDE]
 

balboka

Állandó Tag
Állandó Tag
Valan - Az angyalok völgye 2019 WebDL Hun



Eredeti cím:
Valan
sFilm adatlap:
sFilm
Év:
2019
Játékidő:
98 perc
imdb_icon értékelés:
7.3
Kategória:
Bűnügyi, Dráma
Rendező:
Béla Bagota
Író:
Béla Bagota
Szereplők:
Júlia Nyakó (Kati), Marthi Alpár (Young Vlad), Gál Bence-Levente (Boy 1), Bucica Andrei (Boy 3), Gidofalvi Boldizsár (Friend of Vlad), András Hatházi (János), László Mátray (Miklós), Csaba Krisztik (Péter), Csaba Ciugulitu (Bogdan), Annamária Albu (Karaoke Singer), Emõke Pál (Lilla), Károly Baksai (SWAT Operator), Zoltán Cservák (Peti), Tollas Gábor (Dragos), Tauber Boglárka (Juli)

Leírás:
Péter (Krisztik Csaba) nagyvárosi rendőrként emberkereskedők után nyomoz Brassóban. Az életét annak szenteli, hogy eltűnt lányokat találjon meg. Minden megmentett lányban valahol a saját húgát, Julit látja. Julinak huszonkét évvel ezelőtt nyoma veszett szülővárosukban, a romániai forradalom káoszában felbolydult Valanban. Péter egy telefonhívás miatt kénytelen visszatérni az erdélyi bányavárosba, amikor felmerül a gyanúja, hogy testvére holtteste került elő a hófödte fenyvesek között. A múltba vezető nyomozás útvesztőjében a férfinek nemcsak a várost fojtogató bűnözéssel kell megküzdenie, hanem a saját démonjaival is.


General : G:\Valan\Valan.mp4
Format : MPEG-4 at 1 612 kb/s
Length : 1,11 GiB for 1 óra 38 perc 27 mp 41emp

Video #0 : AVC at 1 348 kb/s
Aspect : 1646 x 836 (1.969) at 24.000 fps

Audio #0 : AAC at 256 kb/s
Infos : 2 csatorna, 44,1 kHz
[HIDE]

Kód:
nézd itt
https://upstream.to/qczwd2d70qoo
vagy
https://waaw.tv/f/R1Ydnl1vbXsv
vagy
https://vidoza.net/p7r2pr9uqbqn.html

vagy tölsd le itt
https://www.file-up.org/9jodib14h89m
[/HIDE]
 

balboka

Állandó Tag
Állandó Tag
Wild Wild West - Vadiúj vadnyugat 1999 BDRip Xvid Hun



Eredeti cím:
Wild Wild West
sFilm adatlap:
sFilm
Év:
1999
Játékidő:
106 perc
imdb_icon értékelés:
4.9
Kategória:
Akció, Vígjáték, Sci-Fi, Western
Rendező:
Barry Sonnenfeld
Készítők:
Jim Thomas, John Thomas
Írók:
Jim Thomas, John Thomas
Szereplők:
Kenneth Branagh (Dr. Arliss Loveless), Salma Hayek (Rita Escobar), Kevin Kline (Artemus Gordon), Kevin Kline (Artemus Gordon / President Grant), Kevin Kline (President Grant), Will Smith (Capt. James West), Will Smith (James West), Bai Ling (Miss East), M. Emmet Walsh (Coleman), Rodney A. Grant (Hudson), Garcelle Beauvais (Girl In Water Tower), Sofia Eng (Miss Lippenrieder), Ted Levine (General McGrath), Mike H. McGaughy (Big Reb (as Mike McGaughy)), Mike H. McGaughy (Big Reb), Buck Taylor (Eye-Crossed Reb), Frederique Van Der Wal (Amazonia (as Frederique van der Wal)), Frederique Van Der Wal (Amazonia), Musetta Vander (Munitia), Jerry Wills (Other Reb)

Leírás:
A büszke déliek visszavágásra készülnek az elvesztett polgárháború után. Hadseregük nem lévén új és minden eddiginél hatékonyabb harci eszköz kifejlesztésén és Grant elnök meggyilkolásán dolgoznak. Vezérük a zseniális és bosszúéhes háborús veterán, Arliss Loveless (Kenneth Branagh). Az agytröszt parancsára elrabolják az Államok legnagyobb tudósait, hogy titkos rejtekhelyükön a félelmetes Tarantula nevű harci szerkezet megvalósításán dolgozzanak. A kormány két legjobb titkos ügynökét küldi a mindenre elszánt lázadók megállítására. Az egyik James West (Will Smith), akinek sármja, nagy dumája és gyors keze a fegyvere. A másik Artemus Gordon (Kevin Kline), aki pedig az álcázás, az intelligencia és az ügyes kis szerkezetek nagymestere. A két ügynök kezdetben egymással rivalizálva vág neki a feladatnak, de gyorsan rájönnek, hogy ezzel az ellenféllel szemben csakis egymással társulva érhetik el céljukat.

Média
Időtartam 1:46:00
Bitráta 1484 kbps
Width 624
Height 352
Aspect Ratio 1.78
Video Resolution SD
Container AVI
Video Frame Rate 24p
Video Profile advanced simple
Rész
Időtartam 1:46:00
File ppb-wild.wild.west.avi
Size 1.10 GB
Container AVI
Video Profile advanced simple
Codec MPEG4
Bitráta 1283 kbps
Bit Depth 8
Chroma Location left
Chroma Subsampling 4:2:0
Coded Height 352
Coded Width 624
Frame Rate 23.976 fps
Height 352
Szint 5
Pixel Aspect Ratio 180224:180219
Profil advanced simple
Ref Frames 1
Width 624
Display Title SD (MPEG4)
Codec AC3
Csatornák 2
Bitráta 192 kbps
Audio Channel Layout stereo
Sampling Rate 48000 Hz
Stream Identifier 1
Display Title Ismeretlen AC3 Stereo

[HIDE]
Kód:
nézd itt
https://waaw.tv/f/IjbGGjOyAzOJ

vagy tölsd le itt
https://www.file-up.org/bgke6gq860wn
vagy
https://dropapk.to/ff3yblnvam4t
[/HIDE]
 

dzsefff

Állandó Tag
Állandó Tag
A gyanú árnyéka (Before and After)
Magyarul beszélő amerikai filmdráma 1996

large_yTDzXDKNGlmGYk5HuEeZUAypo1p.jpg

108 perc,1,64 Gb,mkv

Rendező:Barbet Schroeder
Író:Rosellen Brown

Szereplők

Meryl Streep
Liam Neeson
Edward Furlong
Julia Weldon
Alfred Molina
Daniel von Bargen




Carolyn Ryan, a köztiszteletben álló gyermekgyógyász és férje Ben életét váratlan esemény dúlja fel. Tinédzserkorú fiuk, Jacob különös körülmények között eltűnik, méghozzá nem sokkal azután, hogy a barátnőjét brutálisan meggyilkolták. Ben és Carolyn kétségbeesetten küzd azért, hogy megtudják, mi is történt valójában, és megvédjék a fiukat. Azonban módszereik és indíttatásuk más és más, és egyikük sem lehet biztos abban, hogy helyes döntést hoz, sem abban, hogy a fiuk megmentésére tett erőfeszítésükkel nem okoznak-e még az eddiginél is nagyobb kárt.

[HIDE][/HIDE][HIDE]
https://data.hu/get/12463648/1996._A_gyanu_arnyekaban.part01.rar
https://data.hu/get/12463647/1996._A_gyanu_arnyekaban.part02.rar
https://data.hu/get/12463646/1996._A_gyanu_arnyekaban.part03.rar
https://data.hu/get/12463645/1996._A_gyanu_arnyekaban.part04.rar
https://data.hu/get/12463640/1996._A_gyanu_arnyekaban.part05.rar
https://data.hu/get/12463643/1996._A_gyanu_arnyekaban.part06.rar
https://data.hu/get/12463642/1996._A_gyanu_arnyekaban.part07.rar
https://data.hu/get/12463644/1996._A_gyanu_arnyekaban.part08.rar
https://data.hu/get/12463634/1996._A_gyanu_arnyekaban.part09.rar
[/HIDE]
 

balboka

Állandó Tag
Állandó Tag


1917
Megjelenés éve: 2019
DVD Megjelenés: 2020
Rendező: Sam Mendes
Szereplők: Dean-Charles Chapman, George MacKay, Daniel Mays, Colin Firth, Pip Carter
Ország: USA, UK, India, Spain, Canada
Hossz: 119 perc
Címkék: dráma, háborús
IMDb értékelés: 8.3
IMDb link: https://imdb.com/title/tt8579674

Eredeti release!

Kritika:
https://hessteg.com/1917-kritika/

Javában zajlik az I. világháború, amikor két fiatal brit katonát egy lehetetlennek tűnő küldetéssel bíznak meg: az ellenséges vonalon kell áthatolniuk, hogy egy üzenetet kézbesítsenek bajtársaiknak. Egy napjuk van, hogy célhoz érjenek, különben 1600 társuk, köztük egyikük testvére is odavész. A két bátor harcos hihetetlen elszántsággal indul neki a német frontnak…
Az Oscar-díjas Sam Mendes (Skyfall, Amerikai szépség) gyönyörűen fényképezett, elképesztően feszült atmoszférájú filmjének egyik különlegessége, hogy látszólag vágás nélkül kerül a nézők elé a két katona élet-halál harca, olyan érzést keltve, mintha valós időben követnék nyomon az izgalmas akciókat. Mendes az Oscar-díjas Roger Deakinst (Szárnyas fejvadász 2049, Sicario – A bérgyilkos) kérte fel az operatőri munkára, akinek erőteljes képeivel az 1917 egy felejthetetlen mozélménnyé válik minden néző számára. A főszerepekben George MacKay, Dean-Charles Chapman látható, akik mellett Benedict Cumberbatch, Colin Firth, és Mark Strong is feltűnik.


RELEASE NAME......: 1917.2019.BDRip.x264.HuN-prldm
RELEASE SIZE......: 1.65 GiB
RUNTIME...........: 1 hrs 58 mins 58 secs
VIDEO CODEC.......: x264 (tMod)
FRAMERATE.........: 23.976 fps
BITRATE...........: 1800 kbps
BITS/(PIXEL*FRAME): 0.345
RESOLUTION........: 720 x 302
AUDIO.............: HUNGARIAN AAC 2.0 @ 192 kbps
SOURCES...........: 1080p Blu-ray AVC TrueHD 7.1-WUTANG (video,chapterlist)
˙ TV GO (hundub)
˙ Hegeman, S to the G (hunsub)


nézd itt
[HIDE]
Kód:
https://waaw.tv/f/mhGXcgN37H4M
vagy
https://upstream.to/b3o3e6qtswlu

vagy tölsd le itt 100mbit 1fichier

Kód:
https://ouo.io/Vo7EvN
[/HIDE]
 
Oldal tetejére