Gyermekeknek való rajzfilmek, filmek, sorozatok

papadi

Állandó Tag

Willy Fog - 80 nap alatt a Föld körül
(La vuelta al mundo de Willy Fog)
Spanyol-japán rajzfilmsorozat (1983)
Rendezte: Luis Ballester
Mirax, 2008. február 27.
Hang: magyar, angol
Felirat: nincs

DVD4:
16. Nyaralás Hawaii-on
17. Utazás hőlégballonnal
18. Ismét vonaton
19. Bivalycsorda
20. Kockázatos döntés

Média információ:
Video:
Kodek: MPEG-1/2 Video (mpgv)
Felbontás: 720x576
Képkockasebesség: 25
Képformátum: 1.33:1 (4:3)
Hang:
Kodek: A52 Audio (aka AC3) (a52)
Csatornák: Sztereó
Mintavételi frekvencia: 48000 Hz
Bitsebesség: 192 kb/mp
Formátum: iso
Méret: 6,68 GB
Műsoridő: 2:05:19
(prémium)
[HIDE-THANKS]
Kód:
https://data.hu/get/11667816/D3364i.part1.rar
https://data.hu/get/11667828/D3364i.part2.rar
https://data.hu/get/11667817/D3364i.part3.rar
https://data.hu/get/11667826/D3364i.part4.rar
https://data.hu/get/11667821/D3364i.part5.rar
https://data.hu/get/11667825/D3364i.part6.rar
https://data.hu/get/11667807/D3364i.part7.rar
[/HIDE-THANKS]


Formátum: dvdrip/avi
Méret: 1,71 GB
Felbontás: 720x544
Mintavételi frekvencia: 48000 Hz
Bitsebesség: 128 kbps
Műsoridő: 2:05:19
Részletes média információ:
I:\Video\Willy Fog - 80 nap alatt a Föld körül 4\16 - Nyaralás Hawai-on.avi
General
Complete name : I:\Video\Willy Fog - 80 nap alatt a Föld körül 4\16 - Nyaralás Hawai-on.avi
Format : AVI
Format/Info : Audio Video Interleave
File size : 350 MiB
Duration : 25 min
Overall bit rate : 1 952 kb/s
Writing application : VirtualDubMod 1.5.4.1 (build 2178/release)
Writing library : VirtualDubMod build 2178/release
Video #0
ID : 0
Format : MPEG-4 Visual
Format profile : Advanced [email protected]
Format settings, BVOP : 1
Format settings, QPel : No
Format settings, GMC : No warppoints
Format settings, Matrix : Custom
Codec ID : XVID
Codec ID/Hint : XviD
Duration : 25 min
Bit rate : 1 687 kb/s
Width : 720 pixels
Height : 544 pixels
Display aspect ratio : 4:3
Frame rate : 25.000 FPS
Color space : YUV
Chroma subsampling : 4:2:0
Bit depth : 8 bits
Scan type : Progressive
Compression mode : Lossy
Bits/(Pixel*Frame) : 0.172
Stream size : 302 MiB (86%)
Writing library : XviD 1.2.1 (UTC 2008-12-04)
Audio #1
ID : 1
Format : MPEG Audio
Format version : Version 1
Format profile : Layer 3
Mode : Joint stereo
Mode extension : MS Stereo
Codec ID : 55
Codec ID/Hint : MP3
Duration : 25 min
Bit rate mode : Constant
Bit rate : 128 kb/s
Channel(s) : 2 channels
Sampling rate : 48.0 kHz
Compression mode : Lossy
Stream size : 22.9 MiB (7%)
Alignment : Aligned on interleaves
Interleave, duration : 80 ms (2.00 video frames)
Interleave, preload duration : 504 ms
Writing library : LAME3.98r
Encoding settings : -m j -V 4 -q 2 -lowpass 17 -b 128
Audio #2
ID : 2
Format : MPEG Audio
Format version : Version 1
Format profile : Layer 3
Mode : Joint stereo
Mode extension : MS Stereo
Codec ID : 55
Codec ID/Hint : MP3
Duration : 25 min
Bit rate mode : Constant
Bit rate : 128 kb/s
Channel(s) : 2 channels
Sampling rate : 48.0 kHz
Compression mode : Lossy
Stream size : 22.9 MiB (7%)
Alignment : Aligned on interleaves
Interleave, duration : 80 ms (2.00 video frames)
Interleave, preload duration : 504 ms
Writing library : LAME3.98r
Encoding settings : -m j -V 4 -q 2 -lowpass 17 -b 128
[HIDE-THANKS]
Kód:
https://data.hu/get/11667815/D3364a.part1.rar
https://data.hu/get/11667827/D3364a.part2.rar
vagy free
Kód:
https://data.hu/get/11667809/D3364av.part01.rar
https://data.hu/get/11667818/D3364av.part02.rar
https://data.hu/get/11667822/D3364av.part03.rar
https://data.hu/get/11667823/D3364av.part04.rar
https://data.hu/get/11667806/D3364av.part05.rar
https://data.hu/get/11667819/D3364av.part06.rar
https://data.hu/get/11667805/D3364av.part07.rar
https://data.hu/get/11667810/D3364av.part08.rar
https://data.hu/get/11667824/D3364av.part09.rar
https://data.hu/get/11667808/D3364av.part10.rar
[/HIDE-THANKS]
 

papadi

Állandó Tag

Willy Fog - 80 nap alatt a Föld körül
(La vuelta al mundo de Willy Fog)
Spanyol-japán rajzfilmsorozat (1983)
Rendezte: Luis Ballester
Mirax, 2008. február 27.
Hang: magyar, angol
Felirat: nincs

DVD5:
21. Egy különleges vonat
22. Rigodon visszatér
23. Irány New York
24. Lázadás a Henriettán
25. Willy Fog-ot letartóztatják
26. A végső döntés

Média információ:
Video:
Kodek: MPEG-1/2 Video (mpgv)
Felbontás: 720x576
Képkockasebesség: 25
Képformátum: 1.33:1 (4:3)
Hang:
Kodek: A52 Audio (aka AC3) (a52)
Csatornák: Sztereó
Mintavételi frekvencia: 48000 Hz
Bitsebesség: 192 kb/mp
Formátum: iso
Méret: 7,29 GB
Műsoridő: 2:29:40
(prémium)
[HIDE-THANKS]
Kód:
https://data.hu/get/11668446/D3365i.part1.rar
https://data.hu/get/11668456/D3365i.part2.rar
https://data.hu/get/11668451/D3365i.part3.rar
https://data.hu/get/11668452/D3365i.part4.rar
https://data.hu/get/11668450/D3365i.part5.rar
https://data.hu/get/11668455/D3365i.part6.rar
https://data.hu/get/11668457/D3365i.part7.rar
[/HIDE-THANKS]


Formátum: dvdrip/avi
Méret: 2,05 GB
Felbontás: 720x544
Mintavételi frekvencia: 48000 Hz
Bitsebesség: 128 kbps
Műsoridő: 2:29:40
Részletes média információ:
I:\Video\Willy Fog - 80 nap alatt a Föld körül 5\21 - Egy különleges vonat.avi
General
Complete name : I:\Video\Willy Fog - 80 nap alatt a Föld körül 5\21 - Egy különleges vonat.avi
Format : AVI
Format/Info : Audio Video Interleave
File size : 349 MiB
Duration : 25 min
Overall bit rate : 1 947 kb/s
Writing application : VirtualDubMod 1.5.4.1 (build 2178/release)
Writing library : VirtualDubMod build 2178/release
Video #0
ID : 0
Format : MPEG-4 Visual
Format profile : Advanced [email protected]
Format settings, BVOP : 1
Format settings, QPel : No
Format settings, GMC : No warppoints
Format settings, Matrix : Custom
Codec ID : XVID
Codec ID/Hint : XviD
Duration : 25 min
Bit rate : 1 681 kb/s
Width : 720 pixels
Height : 544 pixels
Display aspect ratio : 4:3
Frame rate : 25.000 FPS
Color space : YUV
Chroma subsampling : 4:2:0
Bit depth : 8 bits
Scan type : Progressive
Compression mode : Lossy
Bits/(Pixel*Frame) : 0.172
Stream size : 301 MiB (86%)
Writing library : XviD 1.2.1 (UTC 2008-12-04)
Audio #1
ID : 1
Format : MPEG Audio
Format version : Version 1
Format profile : Layer 3
Mode : Joint stereo
Mode extension : MS Stereo
Codec ID : 55
Codec ID/Hint : MP3
Duration : 25 min
Bit rate mode : Constant
Bit rate : 128 kb/s
Channel(s) : 2 channels
Sampling rate : 48.0 kHz
Compression mode : Lossy
Stream size : 22.9 MiB (7%)
Alignment : Aligned on interleaves
Interleave, duration : 80 ms (2.00 video frames)
Interleave, preload duration : 504 ms
Writing library : LAME3.98r
Encoding settings : -m j -V 4 -q 2 -lowpass 17 -b 128
Audio #2
ID : 2
Format : MPEG Audio
Format version : Version 1
Format profile : Layer 3
Mode : Joint stereo
Mode extension : MS Stereo
Codec ID : 55
Codec ID/Hint : MP3
Duration : 25 min
Bit rate mode : Constant
Bit rate : 128 kb/s
Channel(s) : 2 channels
Sampling rate : 48.0 kHz
Compression mode : Lossy
Stream size : 23.0 MiB (7%)
Alignment : Aligned on interleaves
Interleave, duration : 80 ms (2.00 video frames)
Interleave, preload duration : 504 ms
Writing library : LAME3.98r
Encoding settings : -m j -V 4 -q 2 -lowpass 17 -b 128
[HIDE-THANKS]
Kód:
https://data.hu/get/11668079/D3365a.part1.rar
https://data.hu/get/11668083/D3365a.part2.rar
https://data.hu/get/11668070/D3365a.part3.rar
vagy free
Kód:
https://data.hu/get/11668072/D3365av.part01.rar
https://data.hu/get/11668081/D3365av.part02.rar
https://data.hu/get/11668080/D3365av.part03.rar
https://data.hu/get/11668074/D3365av.part04.rar
https://data.hu/get/11668075/D3365av.part05.rar
https://data.hu/get/11668071/D3365av.part06.rar
https://data.hu/get/11668076/D3365av.part07.rar
https://data.hu/get/11668073/D3365av.part08.rar
https://data.hu/get/11668069/D3365av.part09.rar
https://data.hu/get/11668082/D3365av.part10.rar
https://data.hu/get/11668077/D3365av.part11.rar
[/HIDE-THANKS]
 

papadi

Állandó Tag

Willy Fog újabb kalandjai - Utazás a Föld középpontjába
(Willy Fog 2 - Vigie al Centro de la Tierra / 20.000 Leguas de Vigie Submarino)
Spanyol rajzfilmsorozat (1993)
Rendezte: Olivia Borricon
Mirax, 2013. szeptember 27.
Hang: magyar, német
Felirat: nincs

DVD1:
1. A titkos üzenet
2. Indulás Izlandra
3. A rejtélyes kisérő
4. Az alvó tűzhányó

Média információ:
Video:
Kodek: MPEG-1/2 Video (mpgv)
Felbontás: 720x576
Képkockasebesség: 25
Képformátum: 1.33:1 (4:3)
Hang:
Kodek: A52 Audio (aka AC3) (a52)
Csatornák: Sztereó
Mintavételi frekvencia: 48000 Hz
Bitsebesség: 192 kb/mp
Formátum: iso
Méret: 5,91 GB
Műsoridő: 1:41:56
(prémium)
[HIDE-THANKS]
Kód:
https://data.hu/get/11668533/D3366i.part1.rar
https://data.hu/get/11668537/D3366i.part2.rar
https://data.hu/get/11668530/D3366i.part3.rar
https://data.hu/get/11668529/D3366i.part4.rar
https://data.hu/get/11668534/D3366i.part5.rar
https://data.hu/get/11668535/D3366i.part6.rar
[/HIDE-THANKS]


Formátum: dvdrip/avi
Méret: 1,36 GB
Felbontás: 720x544
Mintavételi frekvencia: 48000 Hz
Bitsebesség: 128 kbps
Műsoridő: 1:41:55
Részletes média információ:
I:\Video\Willy Fog - Utazás a Föld középpontjába 1\01 - A titkos üzenet.avi
General
Complete name : I:\Video\Willy Fog - Utazás a Föld középpontjába 1\01 - A titkos üzenet.avi
Format : AVI
Format/Info : Audio Video Interleave
File size : 348 MiB
Duration : 25 min
Overall bit rate : 1 923 kb/s
Writing application : VirtualDubMod 1.5.4.1 (build 2178/release)
Writing library : VirtualDubMod build 2178/release
Video #0
ID : 0
Format : MPEG-4 Visual
Format profile : Advanced [email protected]
Format settings, BVOP : 1
Format settings, QPel : No
Format settings, GMC : No warppoints
Format settings, Matrix : Custom
Codec ID : XVID
Codec ID/Hint : XviD
Duration : 25 min
Bit rate : 1 657 kb/s
Width : 720 pixels
Height : 544 pixels
Display aspect ratio : 4:3
Frame rate : 25.000 FPS
Color space : YUV
Chroma subsampling : 4:2:0
Bit depth : 8 bits
Scan type : Progressive
Compression mode : Lossy
Bits/(Pixel*Frame) : 0.169
Stream size : 300 MiB (86%)
Writing library : XviD 1.2.1 (UTC 2008-12-04)
Audio #1
ID : 1
Format : MPEG Audio
Format version : Version 1
Format profile : Layer 3
Mode : Joint stereo
Mode extension : MS Stereo
Codec ID : 55
Codec ID/Hint : MP3
Duration : 25 min
Bit rate mode : Constant
Bit rate : 128 kb/s
Channel(s) : 2 channels
Sampling rate : 48.0 kHz
Compression mode : Lossy
Stream size : 23.2 MiB (7%)
Alignment : Aligned on interleaves
Interleave, duration : 80 ms (2.00 video frames)
Interleave, preload duration : 504 ms
Writing library : LAME3.98r
Encoding settings : -m j -V 4 -q 2 -lowpass 17 -b 128
Audio #2
ID : 2
Format : MPEG Audio
Format version : Version 1
Format profile : Layer 3
Mode : Joint stereo
Mode extension : MS Stereo
Codec ID : 55
Codec ID/Hint : MP3
Duration : 25 min
Bit rate mode : Constant
Bit rate : 128 kb/s
Channel(s) : 2 channels
Sampling rate : 48.0 kHz
Compression mode : Lossy
Stream size : 23.2 MiB (7%)
Alignment : Aligned on interleaves
Interleave, duration : 80 ms (2.00 video frames)
Interleave, preload duration : 504 ms
Writing library : LAME3.98r
Encoding settings : -m j -V 4 -q 2 -lowpass 17 -b 128
[HIDE-THANKS]
Kód:
https://data.hu/get/11668538/D3366a.part1.rar
https://data.hu/get/11668540/D3366a.part2.rar
vagy free
Kód:
https://data.hu/get/11668543/D3366av.part1.rar
https://data.hu/get/11668541/D3366av.part2.rar
https://data.hu/get/11668528/D3366av.part3.rar
https://data.hu/get/11668539/D3366av.part4.rar
https://data.hu/get/11668542/D3366av.part5.rar
https://data.hu/get/11668536/D3366av.part6.rar
https://data.hu/get/11668531/D3366av.part7.rar
https://data.hu/get/11668532/D3366av.part8.rar
[/HIDE-THANKS]
 

papadi

Állandó Tag

Willy Fog újabb kalandjai - Utazás a Föld középpontjába
(Willy Fog 2 - Vigie al Centro de la Tierra / 20.000 Leguas de Vigie Submarino)
Spanyol rajzfilmsorozat (1993)
Rendezte: Olivia Borricon
Mirax, 2013. szeptember 27.
Hang: magyar, német
Felirat: nincs

DVD2:
5. Romy veszélyben
6. Útban a földközepe felé
7. Transfer bosszúja
8. A rejtőzködő folyó

Média információ:
Video:
Kodek: MPEG-1/2 Video (mpgv)
Felbontás: 720x576
Képkockasebesség: 25
Képformátum: 1.33:1 (4:3)
Hang:
Kodek: A52 Audio (aka AC3) (a52)
Csatornák: Sztereó
Mintavételi frekvencia: 48000 Hz
Bitsebesség: 192 kb/mp
Formátum: iso
Méret: 5,94 GB
Műsoridő: 1:42:27
(prémium)
[HIDE-THANKS]
Kód:
https://data.hu/get/11668949/D3367i.part1.rar
https://data.hu/get/11668953/D3367i.part2.rar
https://data.hu/get/11668951/D3367i.part3.rar
https://data.hu/get/11668955/D3367i.part4.rar
https://data.hu/get/11668952/D3367i.part5.rar
https://data.hu/get/11668964/D3367i.part6.rar
[/HIDE-THANKS]


Formátum: dvdrip/avi
Méret: 1,36 GB
Felbontás: 720x544
Mintavételi frekvencia: 48000 Hz
Bitsebesség: 128 kbps
Műsoridő: 1:42:26
Részletes média információ:
I:\Video\Willy Fog - Utazás a Föld középpontjába 2\05 - Romy veszélyben.avi
General
Complete name : I:\Video\Willy Fog - Utazás a Föld középpontjába 2\05 - Romy veszélyben.avi
Format : AVI
Format/Info : Audio Video Interleave
File size : 348 MiB
Duration : 25 min
Overall bit rate : 1 892 kb/s
Writing application : VirtualDubMod 1.5.4.1 (build 2178/release)
Writing library : VirtualDubMod build 2178/release
Video #0
ID : 0
Format : MPEG-4 Visual
Format profile : Advanced [email protected]
Format settings, BVOP : 1
Format settings, QPel : No
Format settings, GMC : No warppoints
Format settings, Matrix : Custom
Codec ID : XVID
Codec ID/Hint : XviD
Duration : 25 min
Bit rate : 1 627 kb/s
Width : 720 pixels
Height : 544 pixels
Display aspect ratio : 4:3
Frame rate : 25.000 FPS
Color space : YUV
Chroma subsampling : 4:2:0
Bit depth : 8 bits
Scan type : Progressive
Compression mode : Lossy
Bits/(Pixel*Frame) : 0.166
Stream size : 299 MiB (86%)
Writing library : XviD 1.2.1 (UTC 2008-12-04)
Audio #1
ID : 1
Format : MPEG Audio
Format version : Version 1
Format profile : Layer 3
Mode : Joint stereo
Mode extension : MS Stereo
Codec ID : 55
Codec ID/Hint : MP3
Duration : 25 min
Bit rate mode : Constant
Bit rate : 128 kb/s
Channel(s) : 2 channels
Sampling rate : 48.0 kHz
Compression mode : Lossy
Stream size : 23.6 MiB (7%)
Alignment : Aligned on interleaves
Interleave, duration : 80 ms (2.00 video frames)
Interleave, preload duration : 504 ms
Writing library : LAME3.98r
Encoding settings : -m j -V 4 -q 2 -lowpass 17 -b 128
Audio #2
ID : 2
Format : MPEG Audio
Format version : Version 1
Format profile : Layer 3
Mode : Joint stereo
Mode extension : MS Stereo
Codec ID : 55
Codec ID/Hint : MP3
Duration : 25 min
Bit rate mode : Constant
Bit rate : 128 kb/s
Channel(s) : 2 channels
Sampling rate : 48.0 kHz
Compression mode : Lossy
Stream size : 23.6 MiB (7%)
Alignment : Aligned on interleaves
Interleave, duration : 80 ms (2.00 video frames)
Interleave, preload duration : 504 ms
Writing library : LAME3.98r
Encoding settings : -m j -V 4 -q 2 -lowpass 17 -b 128
[HIDE-THANKS]
Kód:
https://data.hu/get/11668965/D3367a.part1.rar
https://data.hu/get/11668958/D3367a.part2.rar
vagy free
Kód:
https://data.hu/get/11668967/D3367av.part1.rar
https://data.hu/get/11668961/D3367av.part2.rar
https://data.hu/get/11668963/D3367av.part3.rar
https://data.hu/get/11668966/D3367av.part4.rar
https://data.hu/get/11668959/D3367av.part5.rar
https://data.hu/get/11668950/D3367av.part6.rar
https://data.hu/get/11668948/D3367av.part7.rar
https://data.hu/get/11668960/D3367av.part8.rar
[/HIDE-THANKS]
 

papadi

Állandó Tag

Willy Fog újabb kalandjai - Utazás a Föld középpontjába
(Willy Fog 2 - Vigie al Centro de la Tierra / 20.000 Leguas de Vigie Submarino)
Spanyol rajzfilmsorozat (1993)
Rendezte: Olivia Borricon
Mirax, 2013. szeptember 27.
Hang: magyar, német
Felirat: nincs

DVD3:
9. Tévelygés a sötétségben
10. A földalatti tenger
11. A szörnyek csatája
12. A vihar
13. A visszaút

Média információ:
Video:
Kodek: MPEG-1/2 Video (mpgv)
Felbontás: 720x576
Képkockasebesség: 25
Képformátum: 1.33:1 (4:3)
Hang:
Kodek: A52 Audio (aka AC3) (a52)
Csatornák: Sztereó
Mintavételi frekvencia: 48000 Hz
Bitsebesség: 192 kb/mp
Formátum: iso
Méret: 7,28 GB
Műsoridő: 2:08:06
(prémium)
[HIDE-THANKS]
Kód:
https://data.hu/get/11669538/D3368i.part1.rar
https://data.hu/get/11669528/D3368i.part2.rar
https://data.hu/get/11669532/D3368i.part3.rar
https://data.hu/get/11669533/D3368i.part4.rar
https://data.hu/get/11669531/D3368i.part5.rar
https://data.hu/get/11669536/D3368i.part6.rar
https://data.hu/get/11669530/D3368i.part7.rar
[/HIDE-THANKS]


Formátum: dvdrip/avi
Méret: 1,70 GB
Felbontás: 720x544
Mintavételi frekvencia: 48000 Hz
Bitsebesség: 128 kbps
Műsoridő: 2:08:06
Részletes média információ:
I:\Video\Willy Fog - Utazás a Föld középpontjába 3\09 - Tévelygés a sötétségben.avi
General
Complete name : I:\Video\Willy Fog - Utazás a Föld középpontjába 3\09 - Tévelygés a sötétségben.avi
Format : AVI
Format/Info : Audio Video Interleave
File size : 348 MiB
Duration : 25 min
Overall bit rate : 1 892 kb/s
Writing application : VirtualDubMod 1.5.4.1 (build 2178/release)
Writing library : VirtualDubMod build 2178/release
Video #0
ID : 0
Format : MPEG-4 Visual
Format profile : Advanced [email protected]
Format settings, BVOP : 1
Format settings, QPel : No
Format settings, GMC : No warppoints
Format settings, Matrix : Custom
Codec ID : XVID
Codec ID/Hint : XviD
Duration : 25 min
Bit rate : 1 626 kb/s
Width : 720 pixels
Height : 544 pixels
Display aspect ratio : 4:3
Frame rate : 25.000 FPS
Color space : YUV
Chroma subsampling : 4:2:0
Bit depth : 8 bits
Scan type : Progressive
Compression mode : Lossy
Bits/(Pixel*Frame) : 0.166
Stream size : 299 MiB (86%)
Writing library : XviD 1.2.1 (UTC 2008-12-04)
Audio #1
ID : 1
Format : MPEG Audio
Format version : Version 1
Format profile : Layer 3
Mode : Joint stereo
Mode extension : MS Stereo
Codec ID : 55
Codec ID/Hint : MP3
Duration : 25 min
Bit rate mode : Constant
Bit rate : 128 kb/s
Channel(s) : 2 channels
Sampling rate : 48.0 kHz
Compression mode : Lossy
Stream size : 23.6 MiB (7%)
Alignment : Aligned on interleaves
Interleave, duration : 80 ms (2.00 video frames)
Interleave, preload duration : 504 ms
Writing library : LAME3.98r
Encoding settings : -m j -V 4 -q 2 -lowpass 17 -b 128
Audio #2
ID : 2
Format : MPEG Audio
Format version : Version 1
Format profile : Layer 3
Mode : Joint stereo
Mode extension : MS Stereo
Codec ID : 55
Codec ID/Hint : MP3
Duration : 25 min
Bit rate mode : Constant
Bit rate : 128 kb/s
Channel(s) : 2 channels
Sampling rate : 48.0 kHz
Compression mode : Lossy
Stream size : 23.6 MiB (7%)
Alignment : Aligned on interleaves
Interleave, duration : 80 ms (2.00 video frames)
Interleave, preload duration : 504 ms
Writing library : LAME3.98r
Encoding settings : -m j -V 4 -q 2 -lowpass 17 -b 128
[HIDE-THANKS]
Kód:
https://data.hu/get/11669115/D3368a.part1.rar
https://data.hu/get/11669119/D3368a.part2.rar
vagy free
Kód:
https://data.hu/get/11669116/D3368av.part01.rar
https://data.hu/get/11669121/D3368av.part02.rar
https://data.hu/get/11669122/D3368av.part03.rar
https://data.hu/get/11669112/D3368av.part04.rar
https://data.hu/get/11669113/D3368av.part05.rar
https://data.hu/get/11669117/D3368av.part06.rar
https://data.hu/get/11669118/D3368av.part07.rar
https://data.hu/get/11669111/D3368av.part08.rar
https://data.hu/get/11669120/D3368av.part09.rar
https://data.hu/get/11669123/D3368av.part10.rar
[/HIDE-THANKS]
 

papadi

Állandó Tag

Willy Fog újabb kalandjai - 20000 mérföld a tenger mélyén
(Willy Fog 2 - Vigie al Centro de la Tierra / 20.000 Leguas de Vigie Submarino)
Spanyol rajzfilmsorozat (1993)
Rendezte: Olivia Borricon
Mirax, 2013. szeptember 27.
Hang: magyar
Felirat: nincs

DVD1:
1. (14.) A tengeri rejtély
2. (15.) Régi barátok
3. (16.) Ned Land, a szigonyhajító
4. (17.) A nyílt tengeren

Média információ:
Video:
Kodek: MPEG-1/2 Video (mpgv)
Felbontás: 720x576
Képkockasebesség: 25
Képformátum: 1.33:1 (4:3)
Hang:
Kodek: A52 Audio (aka AC3) (a52)
Csatornák: Sztereó
Mintavételi frekvencia: 48000 Hz
Bitsebesség: 192 kb/mp
Formátum: iso
Méret: 5,73 GB
Műsoridő: 1:42:32
(prémium)
[HIDE-THANKS]
Kód:
https://data.hu/get/11670168/D3369i.part1.rar
https://data.hu/get/11670156/D3369i.part2.rar
https://data.hu/get/11670159/D3369i.part3.rar
https://data.hu/get/11670170/D3369i.part4.rar
https://data.hu/get/11670173/D3369i.part5.rar
https://data.hu/get/11670163/D3369i.part6.rar
[/HIDE-THANKS]


Formátum: dvdrip/avi
Méret: 1,36 GB
Felbontás: 720x544
Mintavételi frekvencia: 48000 Hz
Bitsebesség: 128 kbps
Műsoridő: 1:42:32
Részletes média információ:
I:\Video\Willy Fog - 20000 mérföld a tenger mélyén 1\01 - A tengeri rejtély.avi
General
Complete name : I:\Video\Willy Fog - 20000 mérföld a tenger mélyén 1\01 - A tengeri rejtély.avi
Format : AVI
Format/Info : Audio Video Interleave
File size : 349 MiB
Duration : 25 min
Overall bit rate : 1 893 kb/s
Writing application : VirtualDubMod 1.5.4.1 (build 2178/release)
Writing library : VirtualDubMod build 2178/release
Video #0
ID : 0
Format : MPEG-4 Visual
Format profile : Advanced [email protected]
Format settings, BVOP : 1
Format settings, QPel : No
Format settings, GMC : No warppoints
Format settings, Matrix : Custom
Codec ID : XVID
Codec ID/Hint : XviD
Duration : 25 min
Bit rate : 1 758 kb/s
Width : 720 pixels
Height : 544 pixels
Display aspect ratio : 4:3
Frame rate : 25.000 FPS
Color space : YUV
Chroma subsampling : 4:2:0
Bit depth : 8 bits
Scan type : Progressive
Compression mode : Lossy
Bits/(Pixel*Frame) : 0.179
Stream size : 324 MiB (93%)
Writing library : XviD 1.2.1 (UTC 2008-12-04)
Audio #1
ID : 1
Format : MPEG Audio
Format version : Version 1
Format profile : Layer 3
Mode : Joint stereo
Mode extension : MS Stereo
Codec ID : 55
Codec ID/Hint : MP3
Duration : 25 min
Bit rate mode : Constant
Bit rate : 128 kb/s
Channel(s) : 2 channels
Sampling rate : 48.0 kHz
Compression mode : Lossy
Stream size : 23.6 MiB (7%)
Alignment : Aligned on interleaves
Interleave, duration : 80 ms (2.00 video frames)
Interleave, preload duration : 504 ms
Writing library : LAME3.98r
Encoding settings : -m j -V 4 -q 2 -lowpass 17 -b 128
[HIDE-THANKS]
Kód:
https://data.hu/get/11670160/D3369a.part1.rar
https://data.hu/get/11670172/D3369a.part2.rar
vagy free
Kód:
https://data.hu/get/11670167/D3369av.part1.rar
https://data.hu/get/11670164/D3369av.part2.rar
https://data.hu/get/11670165/D3369av.part3.rar
https://data.hu/get/11670154/D3369av.part4.rar
https://data.hu/get/11670166/D3369av.part5.rar
https://data.hu/get/11670171/D3369av.part6.rar
https://data.hu/get/11670161/D3369av.part7.rar
https://data.hu/get/11670174/D3369av.part8.rar
[/HIDE-THANKS]
 

papadi

Állandó Tag

Willy Fog újabb kalandjai - 20000 mérföld a tenger mélyén
(Willy Fog 2 - Vigie al Centro de la Tierra / 20.000 Leguas de Vigie Submarino)
Spanyol rajzfilmsorozat (1993)
Rendezte: Olivia Borricon
Mirax, 2013. szeptember 27.
Hang: magyar
Felirat: nincs

DVD2:
5. (18.) A mélységek szörnyetege
6. (19.) A titokzatos kapitány
7. (20.) A Nautilus foglyai
8. (21.) A víz alatti séta

Média információ:
Video:
Kodek: MPEG-1/2 Video (mpgv)
Felbontás: 720x576
Képkockasebesség: 25
Képformátum: 1.33:1 (4:3)
Hang:
Kodek: A52 Audio (aka AC3) (a52)
Csatornák: Sztereó
Mintavételi frekvencia: 48000 Hz
Bitsebesség: 192 kb/mp
Formátum: iso
Méret: 5,67 GB
Műsoridő: 1:43:07
(prémium)
[HIDE-THANKS]
Kód:
https://data.hu/get/11670609/D3370i.part1.rar
https://data.hu/get/11670604/D3370i.part2.rar
https://data.hu/get/11670611/D3370i.part3.rar
https://data.hu/get/11670610/D3370i.part4.rar
https://data.hu/get/11670612/D3370i.part5.rar
https://data.hu/get/11670597/D3370i.part6.rar
[/HIDE-THANKS]


Formátum: dvdrip/avi
Méret: 1,36 GB
Felbontás: 720x544
Mintavételi frekvencia: 48000 Hz
Bitsebesség: 128 kbps
Műsoridő: 1:43:06
Részletes média információ:
I:\Video\Willy Fog - 20000 mérföld a tenger mélyén 2\05 - A mélységek szörnyetege.avi
General
Complete name : I:\Video\Willy Fog - 20000 mérföld a tenger mélyén 2\05 - A mélységek szörnyetege.avi
Format : AVI
Format/Info : Audio Video Interleave
File size : 349 MiB
Duration : 25 min
Overall bit rate : 1 883 kb/s
Writing application : VirtualDubMod 1.5.4.1 (build 2178/release)
Writing library : VirtualDubMod build 2178/release
Video #0
ID : 0
Format : MPEG-4 Visual
Format profile : Advanced [email protected]
Format settings, BVOP : 1
Format settings, QPel : No
Format settings, GMC : No warppoints
Format settings, Matrix : Custom
Codec ID : XVID
Codec ID/Hint : XviD
Duration : 25 min
Bit rate : 1 748 kb/s
Width : 720 pixels
Height : 544 pixels
Display aspect ratio : 4:3
Frame rate : 25.000 FPS
Color space : YUV
Chroma subsampling : 4:2:0
Bit depth : 8 bits
Scan type : Progressive
Compression mode : Lossy
Bits/(Pixel*Frame) : 0.179
Stream size : 324 MiB (93%)
Writing library : XviD 1.2.1 (UTC 2008-12-04)
Audio #1
ID : 1
Format : MPEG Audio
Format version : Version 1
Format profile : Layer 3
Mode : Joint stereo
Mode extension : MS Stereo
Codec ID : 55
Codec ID/Hint : MP3
Duration : 25 min
Bit rate mode : Constant
Bit rate : 128 kb/s
Channel(s) : 2 channels
Sampling rate : 48.0 kHz
Compression mode : Lossy
Stream size : 23.7 MiB (7%)
Alignment : Aligned on interleaves
Interleave, duration : 80 ms (2.00 video frames)
Interleave, preload duration : 504 ms
Writing library : LAME3.98r
Encoding settings : -m j -V 4 -q 2 -lowpass 17 -b 128
[HIDE-THANKS]
Kód:
https://data.hu/get/11670599/D3370a.part1.rar
https://data.hu/get/11670608/D3370a.part2.rar
vagy free
Kód:
https://data.hu/get/11670600/D3370av.part1.rar
https://data.hu/get/11670602/D3370av.part2.rar
https://data.hu/get/11670605/D3370av.part3.rar
https://data.hu/get/11670598/D3370av.part4.rar
https://data.hu/get/11670606/D3370av.part5.rar
https://data.hu/get/11670603/D3370av.part6.rar
https://data.hu/get/11670601/D3370av.part7.rar
https://data.hu/get/11670607/D3370av.part8.rar
[/HIDE-THANKS]
 

papadi

Állandó Tag

Willy Fog újabb kalandjai - 20000 mérföld a tenger mélyén
(Willy Fog 2 - Vigie al Centro de la Tierra / 20.000 Leguas de Vigie Submarino)
Spanyol rajzfilmsorozat (1993)
Rendezte: Olivia Borricon
Mirax, 2013. szeptember 27.
Hang: magyar
Felirat: nincs

DVD3:
9. (22.) A szárazföldön
10. (23.) A gyöngyhalászok
11. (24.) A déli sarkon
12. (25.) Harc a polipokkal
13. (26.) Szökési tervek

Média információ:
Video:
Kodek: MPEG-1/2 Video (mpgv)
Felbontás: 720x576
Képkockasebesség: 25
Képformátum: 1.33:1 (4:3)
Hang:
Kodek: A52 Audio (aka AC3) (a52)
Csatornák: Sztereó
Mintavételi frekvencia: 48000 Hz
Bitsebesség: 192 kb/mp
Formátum: iso
Méret: 7,01 GB
Műsoridő: 2:08:04
(prémium)
[HIDE-THANKS]
Kód:
https://data.hu/get/11670788/D3371i.part1.rar
https://data.hu/get/11670787/D3371i.part2.rar
https://data.hu/get/11670791/D3371i.part3.rar
https://data.hu/get/11670789/D3371i.part4.rar
https://data.hu/get/11670790/D3371i.part5.rar
https://data.hu/get/11670792/D3371i.part6.rar
https://data.hu/get/11670785/D3371i.part7.rar
[/HIDE-THANKS]


Formátum: dvdrip/avi
Méret: 1,70 GB
Felbontás: 720x544
Mintavételi frekvencia: 48000 Hz
Bitsebesség: 128 kbps
Műsoridő: 2:08:04
Részletes média információ:
I:\Video\Willy Fog - 20000 mérföld a tenger mélyén 3\09 - A szárazföldön.avi
General
Complete name : I:\Video\Willy Fog - 20000 mérföld a tenger mélyén 3\09 - A szárazföldön.avi
Format : AVI
Format/Info : Audio Video Interleave
File size : 349 MiB
Duration : 25 min
Overall bit rate : 1 894 kb/s
Writing application : VirtualDubMod 1.5.4.1 (build 2178/release)
Writing library : VirtualDubMod build 2178/release
Video #0
ID : 0
Format : MPEG-4 Visual
Format profile : Advanced [email protected]
Format settings, BVOP : 1
Format settings, QPel : No
Format settings, GMC : No warppoints
Format settings, Matrix : Custom
Codec ID : XVID
Codec ID/Hint : XviD
Duration : 25 min
Bit rate : 1 759 kb/s
Width : 720 pixels
Height : 544 pixels
Display aspect ratio : 4:3
Frame rate : 25.000 FPS
Color space : YUV
Chroma subsampling : 4:2:0
Bit depth : 8 bits
Scan type : Progressive
Compression mode : Lossy
Bits/(Pixel*Frame) : 0.180
Stream size : 324 MiB (93%)
Writing library : XviD 1.2.1 (UTC 2008-12-04)
Audio #1
ID : 1
Format : MPEG Audio
Format version : Version 1
Format profile : Layer 3
Mode : Joint stereo
Mode extension : MS Stereo
Codec ID : 55
Codec ID/Hint : MP3
Duration : 25 min
Bit rate mode : Constant
Bit rate : 128 kb/s
Channel(s) : 2 channels
Sampling rate : 48.0 kHz
Compression mode : Lossy
Stream size : 23.6 MiB (7%)
Alignment : Aligned on interleaves
Interleave, duration : 80 ms (2.00 video frames)
Interleave, preload duration : 504 ms
Writing library : LAME3.98r
Encoding settings : -m j -V 4 -q 2 -lowpass 17 -b 128
[HIDE-THANKS]
Kód:
https://data.hu/get/11670690/D3371a.part1.rar
https://data.hu/get/11670700/D3371a.part2.rar
vagy free
Kód:
https://data.hu/get/11670695/D3371av.part01.rar
https://data.hu/get/11670698/D3371av.part02.rar
https://data.hu/get/11670692/D3371av.part03.rar
https://data.hu/get/11670691/D3371av.part04.rar
https://data.hu/get/11670697/D3371av.part05.rar
https://data.hu/get/11670699/D3371av.part06.rar
https://data.hu/get/11670696/D3371av.part07.rar
https://data.hu/get/11670701/D3371av.part08.rar
https://data.hu/get/11670694/D3371av.part09.rar
https://data.hu/get/11670693/D3371av.part10.rar
[/HIDE-THANKS]
 

csigafi

Állandó Tag
Levél a királynak



Formátum: mkv
Méret: 1,22 GB
Játékidő: 1:46:25


Format : AVC
Format/Info : Advanced Video Codec
Format profile : [email protected]
Format settings, CABAC : No
Format settings, ReFrames : 1 frame
Codec ID : V_MPEG4/ISO/AVC
Duration : 1h 46mn
Bit rate : 1 150 Kbps
Width : 720 pixels
Height : 384 pixels
Display aspect ratio : 1.85:1
Frame rate mode : Constant
Frame rate : 25.000 fps
Color space : YUV
Chroma subsampling : 4:2:0
Bit depth : 8 bits
Scan type : Progre


Az ifjú Tiurinak már csak egyetlen próbatételt kell teljesítenie, hogy teljesüljön élete nagy vágya: hogy lovaggá üssék. Ám ez nem teljesül, ugyanis váratlanul egy sokkal fontosabb és veszélyesebb feladatot kell teljesítenie. El kell vinnie egy levelet a királynak, amelyben egy súlyosan sérült lovag halálos veszedelemre figyelmezteti uralkodóját. A tapasztalatlan Tiuri átérzi a küldetés fontosságát és ezer veszéllyel dacolva útnak indul.

Kód:
https://drive.google.com/open?id=1xItNAR637wD5rQWGf5mWZBVF2tpJRVp1
 

csigafi

Állandó Tag
Sziasztok!

Keresem Shelldon 1-2-3-4 dvd epizodjait olyat keresek ami nem youtub-rol való



A Shelldon egy angol-thai animációs sorozat, Jirayuth Chusanachoti és Phil Weinstein rendezésében. Magyarországon a KidsCo és a Minimax adta le.

Cselekmény
A történet egy óceán mélyén játszódik, ahol az élőlények - köztük a címadó Shelldon - mindennapjaikban újabb dolgokat fedeznek fel. Kalandoznak és játszanak, s közbe néha kalamajkába keverednek, de könnyen ki is szabadulnak.

Szereplők
  • Shelldon kagyló: Egy tinédzserkorú antropomorf csiga, aki tengeri lakásában él a családjával. Vele kalandozik húga, Click, és öccse, Clack. Shelldon szenvedélyesen gördeszkázik. Az egyik részben azt mondja, hogy odavan osztálytársa, Hurley iránt.
  • Herman: A kék színű remeterák.
 

Csatolások

  • upload_2020-1-12_23-29-12.jpeg
    upload_2020-1-12_23-29-12.jpeg
    9.4 KB · Olvasás: 2

nagy pal

Állandó Tag

Willy Fog - 80 nap alatt a Föld körül
(La vuelta al mundo de Willy Fog)
Spanyol-japán rajzfilmsorozat (1983)
Rendezte: Luis Ballester
Mirax, 2008. február 27.
Hang: magyar, angol
Felirat: nincs

DVD3:
11. Rigodon bajba kerül
12. Vihar a Kínai tengeren
13. Rigodon bekapja a horgot
14. Yokohama felé tartva
15- Akita cirkusza

Kedves feltöltő, vagy további letöltők!

A kirippelt változat datára felrakott fájljai közül a legutolsó rész (D3363av.part10.rar) hiányzik, törölték, így kitömöríteni is csak részlegesen sikerült. Az egyik fájl, a 15 - Akita cirkusza sajnos így hibás lett. Valaki fel tudná tenni esetleg külön csak ezt az epizódot valahová?

Hála és köszönet.
 

lrghtp

Állandó Tag
Keresem a Krypto sorozatot magyarul. Ez egy szuper kutyus... egy epizodot talaltam, mar nem tudom hol, es a gyerekeim imadjak.

Ha valakinek megvan, kerem rakja fel. Elore is koszonom.
 

Luna5

Állandó Tag
Sziasztok.
Keresem Bella Balerina - oktató filmet gyerekeknek - magyar nyelven. (Az angol már megvan.)
Sajnos a régebbi linken már nem érhető el. :(
Előre is köszönöm.
 

papadi

Állandó Tag
Frakk, a macskák réme



Frakk, a macskák réme
Magyar animációs sorozat (1971-1984)
Írta: Bálint Ágnes
Rendezte: Macskássy Gyula, Cseh András és Nagy Pál
Zene: Pethő Zsolt
Hangok: Szabó Gyula (Frakk), Schubert Éva (Lukrécia), Váradi Hédi (Szerénke), Rajz János majd Suka Sándor (Károly bácsi), Pártos Erzsi (Irma néni)



Frakk, fő a kényelem
MTV-MOKÉP, 1971-72/2005
MTV-mesetár

01 - Éji zene - 5:45
02 - A betegápoló - 6:25
03 - Egerészni jó - 6:30
04 - Fő a kényelem! - 6:21
05 - Árulás - 6:19
06 - Élőkép - 6:12
07 - Diadal - 5:51
08 - Éjszaka fényei - 6:13
09 - Szerénke művelődik - 5:46
10 - Egy kis kényeztetés - 6:33
11 - Elégtétel - 6:16
12 - Pancsi-pancsi - 6:12
13 - Bizsu - 7:00

A borítón az 1. és a 7. rész felcserélve

Extra:
Már megjelent DVD-n! (ajánlók)
1 - Mazsola és Tádé - Volt egyszer egy kismalac - 1:04
2 - Kukori és Kotokoda - 1:53
3 - Futrinka utca - 1:50
4 - Dörmögőék kalandjai - 1:51
5 - Frakk, a macskák réme - 1:55
6 - Mazsola és Tádé - Hol az a Tádé? - 1:36

Média információ:

Video:
Kodek: MPEG-1/2 Video (mpgv)
Felbontás: 720x576
Képkockasebesség: 25
Képformátum: 1.33:1 (4:3)

Hang:
Kodek: MPEG Audio layer 1/2 (mpga)
Csatornák: Sztereó
Mintavételi frekvencia: 48000 Hz
Bitsebesség: 224 kb/mp

Formátum: iso
Méret: 4,12 GB
Műsoridő: 1:21:23+10:09

(prémium)
[HIDE-THANKS]
Kód:
https://data.hu/get/11378200/D1612i.part1.rar
https://data.hu/get/11378199/D1612i.part2.rar
https://data.hu/get/11378198/D1612i.part3.rar
https://data.hu/get/11378202/D1612i.part4.rar
https://data.hu/get/11378197/D1612i.part5.rar
[/HIDE-THANKS]



Formátum: dvdrip/avi
Méret: 807 MB
Felbontás: 720x544
Mintavételi frekvencia: 48000 Hz
Bitsebesség: 192 kbps
Műsoridő: 1:21:27

Részletes média információ:
I:\0000\D1612v\D1612v\Frakk - Fö a kényelem\1-01 - Diadal.avi
General
Complete name : I:\0000\D1612v\D1612v\Frakk - Fö a kényelem\1-01 - Diadal.avi
Format : AVI
Format/Info : Audio Video Interleave
File size : 57.9 MiB
Duration : 5 min
Overall bit rate : 1 381 kb/s
Writing application : VirtualDubMod 1.5.4.1 (build 2178/release)
Writing library : VirtualDubMod build 2178/release
Video #0
ID : 0
Format : MPEG-4 Visual
Format profile : Advanced [email protected]
Format settings, BVOP : 1
Format settings, QPel : No
Format settings, GMC : No warppoints
Format settings, Matrix : Custom
Codec ID : XVID
Codec ID/Hint : XviD
Duration : 5 min
Bit rate : 1 182 kb/s
Width : 720 pixels
Height : 544 pixels
Display aspect ratio : 4:3
Frame rate : 25.000 FPS
Color space : YUV
Chroma subsampling : 4:2:0
Bit depth : 8 bits
Scan type : Progressive
Compression mode : Lossy
Bits/(Pixel*Frame) : 0.121
Stream size : 49.5 MiB (86%)
Writing library : XviD 1.2.1 (UTC 2008-12-04)
Audio #1
ID : 1
Format : MPEG Audio
Format version : Version 1
Format profile : Layer 3
Mode : Joint stereo
Mode extension : MS Stereo
Codec ID : 55
Codec ID/Hint : MP3
Duration : 5 min
Bit rate mode : Constant
Bit rate : 192 kb/s
Channel(s) : 2 channels
Sampling rate : 48.0 kHz
Compression mode : Lossy
Stream size : 8.05 MiB (14%)
Alignment : Aligned on interleaves
Interleave, duration : 80 ms (2.00 video frames)
Interleave, preload duration : 504 ms
Writing library : LAME3.98r
Encoding settings : -m j -V 4 -q 2 -lowpass 18.6 -b 192

[HIDE-THANKS]
Kód:
https://data.hu/get/10656610/D1612.rar
[/HIDE-THANKS]
vagy free
[HIDE-THANKS]
Kód:
https://data.hu/get/10656616/D1612v.part01.rar
https://data.hu/get/10656609/D1612v.part02.rar
https://data.hu/get/10656612/D1612v.part03.rar
https://data.hu/get/10656615/D1612v.part04.rar
https://data.hu/get/10656617/D1612v.part05.rar
https://data.hu/get/10656608/D1612v.part06.rar
https://data.hu/get/10656614/D1612v.part07.rar
https://data.hu/get/10656611/D1612v.part08.rar
https://data.hu/get/10656613/D1612v.part09.rar
[/HIDE-THANKS]



Frakk - Macskabál
MTV-MOKÉP, 1973/2009
MTV-mesetár

01 - Karácsonyi angyalkák - 8:05
02 - Macskabál - 6:48
03 - Számtanóra - 6:46
04 - A sonka ízű sajt - 6:29
05 - A szomszéd kakas - 6:45
06 - Vándorcirkusz - 6:38
07 - Kedves emlék - 6:01
08 - Lábnyomok a vetésben - 6:36
09 - Beteglátogatók - 6:36
10 - A kerékpár - 6:15
11 - Majd mi megmutatjuk - 6:56
12 - Ó, mely sok hal… - 6:56
13 - A megszokott kerékvágás - 6:23

Extra:
Bálint Ágnes emlékére - 24:56
Gyerekeknek ajánljuk:
1 - Frakk, kolbászkiállítás - 3:23
2 - Frakk, fő a kényelem - 1:58
3 - Frakk, a macskák réme - 1:16
4 - Kukori és Kotkoda - 1:42

Média információ:

Video:
Kodek: MPEG-1/2 Video (mpgv)
Felbontás: 720x576
Képkockasebesség: 25
Képformátum: 1.33:1 (4:3)

Hang:
Kodek: A52 Audio (aka AC3) (a52)
Csatornák: Sztereó
Mintavételi frekvencia: 48000 Hz
Bitsebesség: 224 kb/mp

Formátum: iso
Méret: 5,03 GB
Műsoridő: 1:27:14+33:15

(prémium)
[HIDE-THANKS]
Kód:
https://data.hu/get/11378330/D1623i.part1.rar
https://data.hu/get/11378328/D1623i.part2.rar
https://data.hu/get/11378332/D1623i.part3.rar
https://data.hu/get/11378327/D1623i.part4.rar
https://data.hu/get/11378326/D1623i.part5.rar
https://data.hu/get/11378329/D1623i.part6.rar
[/HIDE-THANKS]



Formátum: dvdrip/avi
Méret: 1,08 GB
Felbontás: 720x544
Mintavételi frekvencia: 48000 Hz
Bitsebesség: 192 kbps
Műsoridő: 1:27:14+24:56

Részletes média információ:
I:\0000\D1623\D1623\Frakk - Macskabál\2-01 - Karácsonyi angyalkák.avi
General
Complete name : I:\0000\D1623\D1623\Frakk - Macskabál\2-01 - Karácsonyi angyalkák.avi
Format : AVI
Format/Info : Audio Video Interleave
File size : 79.0 MiB
Duration : 8 min
Overall bit rate : 1 367 kb/s
Writing application : VirtualDubMod 1.5.4.1 (build 2178/release)
Writing library : VirtualDubMod build 2178/release
Video #0
ID : 0
Format : MPEG-4 Visual
Format profile : Advanced [email protected]
Format settings, BVOP : 1
Format settings, QPel : No
Format settings, GMC : No warppoints
Format settings, Matrix : Custom
Codec ID : XVID
Codec ID/Hint : XviD
Duration : 8 min
Bit rate : 1 167 kb/s
Width : 720 pixels
Height : 544 pixels
Display aspect ratio : 4:3
Frame rate : 25.000 FPS
Color space : YUV
Chroma subsampling : 4:2:0
Bit depth : 8 bits
Scan type : Progressive
Compression mode : Lossy
Bits/(Pixel*Frame) : 0.119
Stream size : 67.5 MiB (85%)
Writing library : XviD 1.2.1 (UTC 2008-12-04)
Audio #1
ID : 1
Format : MPEG Audio
Format version : Version 1
Format profile : Layer 3
Mode : Joint stereo
Mode extension : MS Stereo
Codec ID : 55
Codec ID/Hint : MP3
Duration : 8 min
Bit rate mode : Constant
Bit rate : 192 kb/s
Channel(s) : 2 channels
Sampling rate : 48.0 kHz
Compression mode : Lossy
Stream size : 11.1 MiB (14%)
Alignment : Aligned on interleaves
Interleave, duration : 80 ms (2.00 video frames)
Interleave, preload duration : 504 ms
Writing library : LAME3.98r
Encoding settings : -m j -V 4 -q 2 -lowpass 18.6 -b 192

[HIDE-THANKS]
Kód:
https://data.hu/get/10656802/D1623.rar
[/HIDE-THANKS]
vagy free
[HIDE-THANKS]
Kód:
https://data.hu/get/12644469/D1623av.part1.rar
https://data.hu/get/12644453/D1623av.part2.rar
https://data.hu/get/12644446/D1623av.part3.rar
https://data.hu/get/12644460/D1623av.part4.rar
https://data.hu/get/12644461/D1623av.part5.rar
https://data.hu/get/12644459/D1623av.part6.rar
[/HIDE-THANKS]



Frakk, a macskák réme
MTV-MOKÉP, 1986/2009
MTV-mesetár

01 - De jó sport a foci - 7:08
02 - Vegyünk neki labdát - 8:12
03 - A művelt eb - 7:36
04 - Egér pongyolában - 7:50
05 - Nyesőolló díszdobozban - 7:27
06 - Egy tollseprű tündöklése - 7:54
07 - Hajrá, vadmacskák! - 7:48
08 - Ki táncol Lukréciával? - 7:46
09 - A falkatárs - 8:07
10 - A csúzli - 7:57
11 - Gumicsont - 7:30
12 - Cinkemama küldi - 7:32
13 - Mit hoz a Télapó? - 7:48

Extrák:
1 - Frakk és a többiek
Mi újság a Futrinka utcában? - 3:14
Mazsola és Tádé - 2:46
Kukori és Kotkoda - 4:16
2 - Kutyaszáj, macskaszáj - 4:02
3 - Frakk macskatorpedója (játék) 8:07+8:22

Média információ:

Video:
Kodek: MPEG-1/2 Video (mpgv)
Felbontás: 720x576
Képkockasebesség: 25
Képformátum: 1.33:1 (4:3)

Hang:
Kodek: A52 Audio (aka AC3) (a52)
Csatornák: Sztereó
Mintavételi frekvencia: 48000 Hz
Bitsebesség: 224 kb/mp

Formátum: iso
Méret: 7,48 GB
Műsoridő: 1:40:42+14:18+16:29

(prémium)
[HIDE-THANKS]
Kód:
https://data.hu/get/11378658/D1624i.part1.rar
https://data.hu/get/11378653/D1624i.part2.rar
https://data.hu/get/11378652/D1624i.part3.rar
https://data.hu/get/11378656/D1624i.part4.rar
https://data.hu/get/11378655/D1624i.part5.rar
https://data.hu/get/11378660/D1624i.part6.rar
https://data.hu/get/11378659/D1624i.part7.rar
[/HIDE-THANKS]



Formátum: dvdrip/avi
Méret: 989 MB
Felbontás: 720x544
Mintavételi frekvencia: 48000 Hz
Bitsebesség: 192 kbps
Műsoridő: 1:40:42

Részletes média információ:
I:\0000\D1624\D1624av\Frakk a macskák réme\3-01 - De jó sport a foci.avi
General
Complete name : I:\0000\D1624\D1624av\Frakk a macskák réme\3-01 - De jó sport a foci.avi
Format : AVI
Format/Info : Audio Video Interleave
File size : 71.1 MiB
Duration : 7 min
Overall bit rate : 1 394 kb/s
Writing application : VirtualDubMod 1.5.4.1 (build 2178/release)
Writing library : VirtualDubMod build 2178/release
Video #0
ID : 0
Format : MPEG-4 Visual
Format profile : Advanced [email protected]
Format settings, BVOP : 1
Format settings, QPel : No
Format settings, GMC : No warppoints
Format settings, Matrix : Custom
Codec ID : XVID
Codec ID/Hint : XviD
Duration : 7 min
Bit rate : 1 194 kb/s
Width : 720 pixels
Height : 544 pixels
Display aspect ratio : 4:3
Frame rate : 25.000 FPS
Color space : YUV
Chroma subsampling : 4:2:0
Bit depth : 8 bits
Scan type : Progressive
Compression mode : Lossy
Bits/(Pixel*Frame) : 0.122
Stream size : 61.0 MiB (86%)
Writing library : XviD 1.2.1 (UTC 2008-12-04)
Audio #1
ID : 1
Format : MPEG Audio
Format version : Version 1
Format profile : Layer 3
Mode : Joint stereo
Mode extension : MS Stereo
Codec ID : 55
Codec ID/Hint : MP3
Duration : 7 min
Bit rate mode : Constant
Bit rate : 192 kb/s
Channel(s) : 2 channels
Sampling rate : 48.0 kHz
Compression mode : Lossy
Stream size : 9.80 MiB (14%)
Alignment : Aligned on interleaves
Interleave, duration : 80 ms (2.00 video frames)
Interleave, preload duration : 504 ms
Writing library : LAME3.98r
Encoding settings : -m j -V 4 -q 2 -lowpass 18.6 -b 192

[HIDE-THANKS]
Kód:
https://data.hu/get/10657427/D1624.rar
[/HIDE-THANKS]
vagy free
[HIDE-THANKS]
Kód:
https://data.hu/get/12644445/D1624av.part1.rar
https://data.hu/get/12644456/D1624av.part2.rar
https://data.hu/get/12644448/D1624av.part3.rar
https://data.hu/get/12644438/D1624av.part4.rar
https://data.hu/get/12644463/D1624av.part5.rar
https://data.hu/get/12644450/D1624av.part6.rar
[/HIDE-THANKS]



Frakk - Kolbászkiállítás
MTV-MOKÉP, 1987/2009
MTV-mesetár

01 - Kis kacsa fürdik - 6:07
02 - Csónaktúra - 6:42
03 - Egy cica… két cica… - 6:21
04 - Oh, az édes otthon - 7:26
05 - Rézlakodalom - 9:13
06 - Kolbászkiállítás - 8:12
07 - Régiségek - 8:14
08 - Hol vadász, hol juhász - 8:13
09 - A kiskutya pizsamája - 8:08
10 - Az irigy kutya karácsonya - 7:49
11 - Gyere, kiskutyám! - 8:04
12 - A gyűjtemény - 8:17
13 - Zöld erdőben jártam… - 8:07

Extra:
Bálint Ágnes emlékére - 24:56
Gyerekeknek ajánljuk:
1 - Frakk, macskabál - 2:06
2 - Frakk, fő a kényelem - 1:58
3 - Frakk, a macskák réme - 1:16
4 - Kukori és Kotkoda - 1:42

Média információ:

Video:
Kodek: MPEG-1/2 Video (mpgv)
Felbontás: 720x576
Képkockasebesség: 25
Képformátum: 1.33:1 (4:3)

Hang:
Kodek: A52 Audio (aka AC3) (a52)
Csatornák: Sztereó
Mintavételi frekvencia: 48000 Hz
Bitsebesség: 224 kb/mp

Formátum: iso
Méret: 5,54 GB
Műsoridő: 1:43:53+24:56+7:02

(prémium)
[HIDE-THANKS]
Kód:
https://data.hu/get/11378822/D2240i.part1.rar
https://data.hu/get/11378823/D2240i.part2.rar
https://data.hu/get/11378827/D2240i.part3.rar
https://data.hu/get/11378825/D2240i.part4.rar
https://data.hu/get/11378824/D2240i.part5.rar
https://data.hu/get/11378821/D2240i.part6.rar
[/HIDE-THANKS]



Formátum: dvdrip/avi
Méret: 0,97 GB
Felbontás: 720x544
Mintavételi frekvencia: 48000 Hz
Bitsebesség: 192 kbps
Műsoridő: 1:40:55

Részletes média információ:
I:\0000\D2240v\D2240v\Frakk - Kolbászkiállitás\4-01 - Kis kacsa fürdik.avi
General
Complete name : I:\0000\D2240v\D2240v\Frakk - Kolbászkiállitás\4-01 - Kis kacsa fürdik.avi
Format : AVI
Format/Info : Audio Video Interleave
File size : 60.0 MiB
Duration : 6 min
Overall bit rate : 1 368 kb/s
Writing application : VirtualDubMod 1.5.4.1 (build 2178/release)
Writing library : VirtualDubMod build 2178/release
Video #0
ID : 0
Format : MPEG-4 Visual
Format profile : Advanced [email protected]
Format settings, BVOP : 1
Format settings, QPel : No
Format settings, GMC : No warppoints
Format settings, Matrix : Custom
Codec ID : XVID
Codec ID/Hint : XviD
Duration : 6 min
Bit rate : 1 169 kb/s
Width : 720 pixels
Height : 544 pixels
Display aspect ratio : 4:3
Frame rate : 25.000 FPS
Color space : YUV
Chroma subsampling : 4:2:0
Bit depth : 8 bits
Scan type : Progressive
Compression mode : Lossy
Bits/(Pixel*Frame) : 0.119
Stream size : 51.2 MiB (85%)
Writing library : XviD 1.2.1 (UTC 2008-12-04)
Audio #1
ID : 1
Format : MPEG Audio
Format version : Version 1
Format profile : Layer 3
Mode : Joint stereo
Mode extension : MS Stereo
Codec ID : 55
Codec ID/Hint : MP3
Duration : 6 min
Bit rate mode : Constant
Bit rate : 192 kb/s
Channel(s) : 2 channels
Sampling rate : 48.0 kHz
Compression mode : Lossy
Stream size : 8.42 MiB (14%)
Alignment : Aligned on interleaves
Interleave, duration : 80 ms (2.00 video frames)
Interleave, preload duration : 504 ms
Writing library : LAME3.98r
Encoding settings : -m j -V 4 -q 2 -lowpass 18.6 -b 192

[HIDE-THANKS]
Kód:
https://data.hu/get/10657710/D2240.rar
[/HIDE-THANKS]
vagy free
[HIDE-THANKS]
Kód:
https://data.hu/get/10657700/D2240v.part01.rar
https://data.hu/get/10657707/D2240v.part02.rar
https://data.hu/get/10657703/D2240v.part03.rar
https://data.hu/get/10657705/D2240v.part04.rar
https://data.hu/get/10657704/D2240v.part05.rar
https://data.hu/get/10657702/D2240v.part06.rar
https://data.hu/get/10657711/D2240v.part07.rar
https://data.hu/get/10657712/D2240v.part08.rar
https://data.hu/get/10657706/D2240v.part09.rar
https://data.hu/get/10657708/D2240v.part10.rar
[/HIDE-THANKS]

Törlődés miatt újratöltve.
 

papadi

Állandó Tag
Willy Fog kalandjai



Willy Fog

Három Verne regény feldolgozása spanyol rajzfilmeken 52 részben:

80 nap alatt a Föld körül
Utazás a Föld középpontjába
20000 mérföld a tenger mélyén


Műsoridő: 25 perc/epizód



Willy Fog - 80 nap alatt a Föld körül
(La vuelta al mundo de Willy Fog)
Spanyol-japán rajzfilmsorozat (1983)
Rendezte: Luis Ballester
Mirax, 2008. február 27.
Hang: magyar, angol
Felirat: nincs

DVD1:

1. A fogadás
2. Az indulás
3. Rázós utazás
4. Körözés Willy Fog-ra
5. Willy Fog és a szellem

Média információ:

Video:
Kodek: MPEG-1/2 Video (mpgv)
Felbontás: 720x576
Képkockasebesség: 25
Képformátum: 1.33:1 (4:3)

Hang:
Kodek: A52 Audio (aka AC3) (a52)
Csatornák: Sztereó
Mintavételi frekvencia: 48000 Hz
Bitsebesség: 192 kb/mp

Formátum: iso
Méret: 5,23 GB
Műsoridő: 2:04:51

(prémium)
[HIDE-THANKS]
Kód:
https://data.hu/get/11666353/D3361i.part1.rar
https://data.hu/get/11666349/D3361i.part2.rar
https://data.hu/get/11666362/D3361i.part3.rar
https://data.hu/get/11666360/D3361i.part4.rar
https://data.hu/get/11666357/D3361i.part5.rar
[/HIDE-THANKS]



Formátum: dvdrip/avi
Méret: 1,71 GB
Felbontás: 720x544
Mintavételi frekvencia: 48000 Hz
Bitsebesség: 128 kbps
Műsoridő: 2:04:51

Részletes média információ:
I:\Video\Willy Fog - 80 nap alatt a Föld körül 1\01 - A fogadás.avi
General
Complete name : I:\Video\Willy Fog - 80 nap alatt a Föld körül 1\01 - A fogadás.avi
Format : AVI
Format/Info : Audio Video Interleave
File size : 350 MiB
Duration : 25 min
Overall bit rate : 1 953 kb/s
Writing application : VirtualDubMod 1.5.4.1 (build 2178/release)
Writing library : VirtualDubMod build 2178/release
Video #0
ID : 0
Format : MPEG-4 Visual
Format profile : Advanced [email protected]
Format settings, BVOP : 1
Format settings, QPel : No
Format settings, GMC : No warppoints
Format settings, Matrix : Custom
Codec ID : XVID
Codec ID/Hint : XviD
Duration : 25 min
Bit rate : 1 687 kb/s
Width : 720 pixels
Height : 544 pixels
Display aspect ratio : 4:3
Frame rate : 25.000 FPS
Color space : YUV
Chroma subsampling : 4:2:0
Bit depth : 8 bits
Scan type : Progressive
Compression mode : Lossy
Bits/(Pixel*Frame) : 0.172
Stream size : 302 MiB (86%)
Writing library : XviD 1.2.1 (UTC 2008-12-04)
Audio #1
ID : 1
Format : MPEG Audio
Format version : Version 1
Format profile : Layer 3
Mode : Joint stereo
Mode extension : MS Stereo
Codec ID : 55
Codec ID/Hint : MP3
Duration : 25 min
Bit rate mode : Constant
Bit rate : 128 kb/s
Channel(s) : 2 channels
Sampling rate : 48.0 kHz
Compression mode : Lossy
Stream size : 22.9 MiB (7%)
Alignment : Aligned on interleaves
Interleave, duration : 80 ms (2.00 video frames)
Interleave, preload duration : 504 ms
Writing library : LAME3.98r
Encoding settings : -m j -V 4 -q 2 -lowpass 17 -b 128
Audio #2
ID : 2
Format : MPEG Audio
Format version : Version 1
Format profile : Layer 3
Mode : Joint stereo
Mode extension : MS Stereo
Codec ID : 55
Codec ID/Hint : MP3
Duration : 25 min
Bit rate mode : Constant
Bit rate : 128 kb/s
Channel(s) : 2 channels
Sampling rate : 48.0 kHz
Compression mode : Lossy
Stream size : 22.9 MiB (7%)
Alignment : Aligned on interleaves
Interleave, duration : 80 ms (2.00 video frames)
Interleave, preload duration : 504 ms
Writing library : LAME3.98r
Encoding settings : -m j -V 4 -q 2 -lowpass 17 -b 128

[HIDE-THANKS]
Kód:
https://data.hu/get/12644462/D3361a.part1.rar
https://data.hu/get/12644470/D3361a.part2.rar
[/HIDE-THANKS]
vagy free
[HIDE-THANKS]
Kód:
https://data.hu/get/11666359/D3361av.part01.rar
https://data.hu/get/11666356/D3361av.part02.rar
https://data.hu/get/11666347/D3361av.part03.rar
https://data.hu/get/11666358/D3361av.part04.rar
https://data.hu/get/11666348/D3361av.part05.rar
https://data.hu/get/11666354/D3361av.part06.rar
https://data.hu/get/11666364/D3361av.part07.rar
https://data.hu/get/11666350/D3361av.part08.rar
https://data.hu/get/11666361/D3361av.part09.rar
https://data.hu/get/11666351/D3361av.part10.rar
[/HIDE-THANKS]



Willy Fog - 80 nap alatt a Föld körül
(La vuelta al mundo de Willy Fog)
Spanyol-japán rajzfilmsorozat (1983)
Rendezte: Luis Ballester
Mirax, 2008. február 27.
Hang: magyar, angol
Felirat: nincs

DVD2:

6. Kaland a pagodában
7. A kalkuttai expressz
8. Veszély a dzsungelben
9. Romy kiszabadítása
10. Ajándék Parisnak

Média információ:

Video:
Kodek: MPEG-1/2 Video (mpgv)
Felbontás: 720x576
Képkockasebesség: 25
Képformátum: 1.33:1 (4:3)

Hang:
Kodek: A52 Audio (aka AC3) (a52)
Csatornák: Sztereó
Mintavételi frekvencia: 48000 Hz
Bitsebesség: 192 kb/mp

Formátum: iso
Méret: 5,40 GB
Műsoridő: 2:05:15

(prémium)
[HIDE-THANKS]
Kód:
https://data.hu/get/11666396/D3362i.part1.rar
https://data.hu/get/11666392/D3362i.part2.rar
https://data.hu/get/11666390/D3362i.part3.rar
https://data.hu/get/11666399/D3362i.part4.rar
https://data.hu/get/11666401/D3362i.part5.rar
[/HIDE-THANKS]



Formátum: dvdrip/avi
Méret: 1,71 GB
Felbontás: 720x544
Mintavételi frekvencia: 48000 Hz
Bitsebesség: 128 kbps
Műsoridő: 2:05:14

Részletes média információ:
I:\Video\Willy Fog - 80 nap alatt a Föld körül 2\06 - Kaland a pagodában.avi
General
Complete name : I:\Video\Willy Fog - 80 nap alatt a Föld körül 2\06 - Kaland a pagodában.avi
Format : AVI
Format/Info : Audio Video Interleave
File size : 350 MiB
Duration : 25 min
Overall bit rate : 1 956 kb/s
Writing application : VirtualDubMod 1.5.4.1 (build 2178/release)
Writing library : VirtualDubMod build 2178/release
Video #0
ID : 0
Format : MPEG-4 Visual
Format profile : Advanced [email protected]
Format settings, BVOP : 1
Format settings, QPel : No
Format settings, GMC : No warppoints
Format settings, Matrix : Custom
Codec ID : XVID
Codec ID/Hint : XviD
Duration : 25 min
Bit rate : 1 690 kb/s
Width : 720 pixels
Height : 544 pixels
Display aspect ratio : 4:3
Frame rate : 25.000 FPS
Color space : YUV
Chroma subsampling : 4:2:0
Bit depth : 8 bits
Scan type : Progressive
Compression mode : Lossy
Bits/(Pixel*Frame) : 0.173
Stream size : 302 MiB (86%)
Writing library : XviD 1.2.1 (UTC 2008-12-04)
Audio #1
ID : 1
Format : MPEG Audio
Format version : Version 1
Format profile : Layer 3
Mode : Joint stereo
Mode extension : MS Stereo
Codec ID : 55
Codec ID/Hint : MP3
Duration : 25 min
Bit rate mode : Constant
Bit rate : 128 kb/s
Channel(s) : 2 channels
Sampling rate : 48.0 kHz
Compression mode : Lossy
Stream size : 22.9 MiB (7%)
Alignment : Aligned on interleaves
Interleave, duration : 80 ms (2.00 video frames)
Interleave, preload duration : 504 ms
Writing library : LAME3.98r
Encoding settings : -m j -V 4 -q 2 -lowpass 17 -b 128
Audio #2
ID : 2
Format : MPEG Audio
Format version : Version 1
Format profile : Layer 3
Mode : Joint stereo
Mode extension : MS Stereo
Codec ID : 55
Codec ID/Hint : MP3
Duration : 25 min
Bit rate mode : Constant
Bit rate : 128 kb/s
Channel(s) : 2 channels
Sampling rate : 48.0 kHz
Compression mode : Lossy
Stream size : 22.9 MiB (7%)
Alignment : Aligned on interleaves
Interleave, duration : 80 ms (2.00 video frames)
Interleave, preload duration : 504 ms
Writing library : LAME3.98r
Encoding settings : -m j -V 4 -q 2 -lowpass 17 -b 128

[HIDE-THANKS]
Kód:
https://data.hu/get/11666393/D3362a.part1.rar
https://data.hu/get/11666394/D3362a.part2.rar
[/HIDE-THANKS]
vagy free
[HIDE-THANKS]
Kód:
https://data.hu/get/11666400/D3362av.part01.rar
https://data.hu/get/11666391/D3362av.part02.rar
https://data.hu/get/11666386/D3362av.part03.rar
https://data.hu/get/11666398/D3362av.part04.rar
https://data.hu/get/11666389/D3362av.part05.rar
https://data.hu/get/11666387/D3362av.part06.rar
https://data.hu/get/11666388/D3362av.part07.rar
https://data.hu/get/11666385/D3362av.part08.rar
https://data.hu/get/11666397/D3362av.part09.rar
https://data.hu/get/11666395/D3362av.part10.rar
[/HIDE-THANKS]



Willy Fog - 80 nap alatt a Föld körül
(La vuelta al mundo de Willy Fog)
Spanyol-japán rajzfilmsorozat (1983)
Rendezte: Luis Ballester
Mirax, 2008. február 27.
Hang: magyar, angol
Felirat: nincs

DVD3:

11. Rigodon bajba kerül
12. Vihar a Kínai tengeren
13. Rigodon bekapja a horgot
14. Yokohama felé tartva
15- Akita cirkusza

Média információ:

Video:
Kodek: MPEG-1/2 Video (mpgv)
Felbontás: 720x576
Képkockasebesség: 25
Képformátum: 1.33:1 (4:3)

Hang:
Kodek: A52 Audio (aka AC3) (a52)
Csatornák: Sztereó
Mintavételi frekvencia: 48000 Hz
Bitsebesség: 192 kb/mp

Formátum: iso
Méret: 4,71 GB
Műsoridő: 2:05:02

(prémium)
[HIDE-THANKS]
Kód:
https://data.hu/get/11666803/D3363i.part1.rar
https://data.hu/get/11666795/D3363i.part2.rar
https://data.hu/get/11666808/D3363i.part3.rar
https://data.hu/get/11666805/D3363i.part4.rar
https://data.hu/get/11666798/D3363i.part5.rar
[/HIDE-THANKS]



Formátum: dvdrip/avi
Méret: 1,70 GB
Felbontás: 720x544
Mintavételi frekvencia: 48000 Hz
Bitsebesség: 128 kbps
Műsoridő: 2:05:04

Részletes média információ:
I:\Video\Willy Fog - 80 nap alatt a Föld körül 3\11 - Rigodon bajba kerül.avi
General
Complete name : I:\Video\Willy Fog - 80 nap alatt a Föld körül 3\11 - Rigodon bajba kerül.avi
Format : AVI
Format/Info : Audio Video Interleave
File size : 350 MiB
Duration : 25 min
Overall bit rate : 1 953 kb/s
Writing application : VirtualDubMod 1.5.4.1 (build 2178/release)
Writing library : VirtualDubMod build 2178/release
Video #0
ID : 0
Format : MPEG-4 Visual
Format profile : Advanced [email protected]
Format settings, BVOP : 1
Format settings, QPel : No
Format settings, GMC : No warppoints
Format settings, Matrix : Custom
Codec ID : XVID
Codec ID/Hint : XviD
Duration : 25 min
Bit rate : 1 687 kb/s
Width : 720 pixels
Height : 544 pixels
Display aspect ratio : 4:3
Frame rate : 25.000 FPS
Color space : YUV
Chroma subsampling : 4:2:0
Bit depth : 8 bits
Scan type : Progressive
Compression mode : Lossy
Bits/(Pixel*Frame) : 0.172
Stream size : 302 MiB (86%)
Writing library : XviD 1.2.1 (UTC 2008-12-04)
Audio #1
ID : 1
Format : MPEG Audio
Format version : Version 1
Format profile : Layer 3
Mode : Joint stereo
Mode extension : MS Stereo
Codec ID : 55
Codec ID/Hint : MP3
Duration : 25 min
Bit rate mode : Constant
Bit rate : 128 kb/s
Channel(s) : 2 channels
Sampling rate : 48.0 kHz
Compression mode : Lossy
Stream size : 22.9 MiB (7%)
Alignment : Aligned on interleaves
Interleave, duration : 80 ms (2.00 video frames)
Interleave, preload duration : 504 ms
Writing library : LAME3.98r
Encoding settings : -m j -V 4 -q 2 -lowpass 17 -b 128
Audio #2
ID : 2
Format : MPEG Audio
Format version : Version 1
Format profile : Layer 3
Mode : Joint stereo
Mode extension : MS Stereo
Codec ID : 55
Codec ID/Hint : MP3
Duration : 25 min
Bit rate mode : Constant
Bit rate : 128 kb/s
Channel(s) : 2 channels
Sampling rate : 48.0 kHz
Compression mode : Lossy
Stream size : 22.9 MiB (7%)
Alignment : Aligned on interleaves
Interleave, duration : 80 ms (2.00 video frames)
Interleave, preload duration : 504 ms
Writing library : LAME3.98r
Encoding settings : -m j -V 4 -q 2 -lowpass 17 -b 128

[HIDE-THANKS]
Kód:
https://data.hu/get/11666802/D3363a.part1.rar
https://data.hu/get/11666797/D3363a.part2.rar
[/HIDE-THANKS]
vagy free
[HIDE-THANKS]
Kód:
https://data.hu/get/12644471/D3363av.part01.rar
https://data.hu/get/12644442/D3363av.part02.rar
https://data.hu/get/12644444/D3363av.part03.rar
https://data.hu/get/12644443/D3363av.part04.rar
https://data.hu/get/12644457/D3363av.part05.rar
https://data.hu/get/12644439/D3363av.part06.rar
https://data.hu/get/12644468/D3363av.part07.rar
https://data.hu/get/12644466/D3363av.part08.rar
https://data.hu/get/12644449/D3363av.part09.rar
https://data.hu/get/12644465/D3363av.part10.rar
[/HIDE-THANKS]



Willy Fog - 80 nap alatt a Föld körül
(La vuelta al mundo de Willy Fog)
Spanyol-japán rajzfilmsorozat (1983)
Rendezte: Luis Ballester
Mirax, 2008. február 27.
Hang: magyar, angol
Felirat: nincs

DVD4:

16. Nyaralás Hawaii-on
17. Utazás hőlégballonnal
18. Ismét vonaton
19. Bivalycsorda
20. Kockázatos döntés

Média információ:

Video:
Kodek: MPEG-1/2 Video (mpgv)
Felbontás: 720x576
Képkockasebesség: 25
Képformátum: 1.33:1 (4:3)

Hang:
Kodek: A52 Audio (aka AC3) (a52)
Csatornák: Sztereó
Mintavételi frekvencia: 48000 Hz
Bitsebesség: 192 kb/mp

Formátum: iso
Méret: 6,68 GB
Műsoridő: 2:05:19

(prémium)
[HIDE-THANKS]
Kód:
https://data.hu/get/11667816/D3364i.part1.rar
https://data.hu/get/11667828/D3364i.part2.rar
https://data.hu/get/11667817/D3364i.part3.rar
https://data.hu/get/11667826/D3364i.part4.rar
https://data.hu/get/11667821/D3364i.part5.rar
https://data.hu/get/11667825/D3364i.part6.rar
https://data.hu/get/11667807/D3364i.part7.rar
[/HIDE-THANKS]



Formátum: dvdrip/avi
Méret: 1,71 GB
Felbontás: 720x544
Mintavételi frekvencia: 48000 Hz
Bitsebesség: 128 kbps
Műsoridő: 2:05:19

Részletes média információ:
I:\Video\Willy Fog - 80 nap alatt a Föld körül 4\16 - Nyaralás Hawai-on.avi
General
Complete name : I:\Video\Willy Fog - 80 nap alatt a Föld körül 4\16 - Nyaralás Hawai-on.avi
Format : AVI
Format/Info : Audio Video Interleave
File size : 350 MiB
Duration : 25 min
Overall bit rate : 1 952 kb/s
Writing application : VirtualDubMod 1.5.4.1 (build 2178/release)
Writing library : VirtualDubMod build 2178/release
Video #0
ID : 0
Format : MPEG-4 Visual
Format profile : Advanced [email protected]
Format settings, BVOP : 1
Format settings, QPel : No
Format settings, GMC : No warppoints
Format settings, Matrix : Custom
Codec ID : XVID
Codec ID/Hint : XviD
Duration : 25 min
Bit rate : 1 687 kb/s
Width : 720 pixels
Height : 544 pixels
Display aspect ratio : 4:3
Frame rate : 25.000 FPS
Color space : YUV
Chroma subsampling : 4:2:0
Bit depth : 8 bits
Scan type : Progressive
Compression mode : Lossy
Bits/(Pixel*Frame) : 0.172
Stream size : 302 MiB (86%)
Writing library : XviD 1.2.1 (UTC 2008-12-04)
Audio #1
ID : 1
Format : MPEG Audio
Format version : Version 1
Format profile : Layer 3
Mode : Joint stereo
Mode extension : MS Stereo
Codec ID : 55
Codec ID/Hint : MP3
Duration : 25 min
Bit rate mode : Constant
Bit rate : 128 kb/s
Channel(s) : 2 channels
Sampling rate : 48.0 kHz
Compression mode : Lossy
Stream size : 22.9 MiB (7%)
Alignment : Aligned on interleaves
Interleave, duration : 80 ms (2.00 video frames)
Interleave, preload duration : 504 ms
Writing library : LAME3.98r
Encoding settings : -m j -V 4 -q 2 -lowpass 17 -b 128
Audio #2
ID : 2
Format : MPEG Audio
Format version : Version 1
Format profile : Layer 3
Mode : Joint stereo
Mode extension : MS Stereo
Codec ID : 55
Codec ID/Hint : MP3
Duration : 25 min
Bit rate mode : Constant
Bit rate : 128 kb/s
Channel(s) : 2 channels
Sampling rate : 48.0 kHz
Compression mode : Lossy
Stream size : 22.9 MiB (7%)
Alignment : Aligned on interleaves
Interleave, duration : 80 ms (2.00 video frames)
Interleave, preload duration : 504 ms
Writing library : LAME3.98r
Encoding settings : -m j -V 4 -q 2 -lowpass 17 -b 128

[HIDE-THANKS]
Kód:
https://data.hu/get/11667815/D3364a.part1.rar
https://data.hu/get/11667827/D3364a.part2.rar
[/HIDE-THANKS]
vagy free
[HIDE-THANKS]
Kód:
https://data.hu/get/11667809/D3364av.part01.rar
https://data.hu/get/11667818/D3364av.part02.rar
https://data.hu/get/11667822/D3364av.part03.rar
https://data.hu/get/11667823/D3364av.part04.rar
https://data.hu/get/11667806/D3364av.part05.rar
https://data.hu/get/11667819/D3364av.part06.rar
https://data.hu/get/11667805/D3364av.part07.rar
https://data.hu/get/11667810/D3364av.part08.rar
https://data.hu/get/11667824/D3364av.part09.rar
https://data.hu/get/11667808/D3364av.part10.rar
[/HIDE-THANKS]



Willy Fog - 80 nap alatt a Föld körül
(La vuelta al mundo de Willy Fog)
Spanyol-japán rajzfilmsorozat (1983)
Rendezte: Luis Ballester
Mirax, 2008. február 27.
Hang: magyar, angol
Felirat: nincs

DVD5:

21. Egy különleges vonat
22. Rigodon visszatér
23. Irány New York
24. Lázadás a Henriettán
25. Willy Fog-ot letartóztatják
26. A végső döntés

Média információ:

Video:
Kodek: MPEG-1/2 Video (mpgv)
Felbontás: 720x576
Képkockasebesség: 25
Képformátum: 1.33:1 (4:3)

Hang:
Kodek: A52 Audio (aka AC3) (a52)
Csatornák: Sztereó
Mintavételi frekvencia: 48000 Hz
Bitsebesség: 192 kb/mp

Formátum: iso
Méret: 7,29 GB
Műsoridő: 2:29:40

(prémium)
[HIDE-THANKS]
Kód:
https://data.hu/get/11668446/D3365i.part1.rar
https://data.hu/get/11668456/D3365i.part2.rar
https://data.hu/get/11668451/D3365i.part3.rar
https://data.hu/get/11668452/D3365i.part4.rar
https://data.hu/get/11668450/D3365i.part5.rar
https://data.hu/get/11668455/D3365i.part6.rar
https://data.hu/get/11668457/D3365i.part7.rar
[/HIDE-THANKS]



Formátum: dvdrip/avi
Méret: 2,05 GB
Felbontás: 720x544
Mintavételi frekvencia: 48000 Hz
Bitsebesség: 128 kbps
Műsoridő: 2:29:40

Részletes média információ:
I:\Video\Willy Fog - 80 nap alatt a Föld körül 5\21 - Egy különleges vonat.avi
General
Complete name : I:\Video\Willy Fog - 80 nap alatt a Föld körül 5\21 - Egy különleges vonat.avi
Format : AVI
Format/Info : Audio Video Interleave
File size : 349 MiB
Duration : 25 min
Overall bit rate : 1 947 kb/s
Writing application : VirtualDubMod 1.5.4.1 (build 2178/release)
Writing library : VirtualDubMod build 2178/release
Video #0
ID : 0
Format : MPEG-4 Visual
Format profile : Advanced [email protected]
Format settings, BVOP : 1
Format settings, QPel : No
Format settings, GMC : No warppoints
Format settings, Matrix : Custom
Codec ID : XVID
Codec ID/Hint : XviD
Duration : 25 min
Bit rate : 1 681 kb/s
Width : 720 pixels
Height : 544 pixels
Display aspect ratio : 4:3
Frame rate : 25.000 FPS
Color space : YUV
Chroma subsampling : 4:2:0
Bit depth : 8 bits
Scan type : Progressive
Compression mode : Lossy
Bits/(Pixel*Frame) : 0.172
Stream size : 301 MiB (86%)
Writing library : XviD 1.2.1 (UTC 2008-12-04)
Audio #1
ID : 1
Format : MPEG Audio
Format version : Version 1
Format profile : Layer 3
Mode : Joint stereo
Mode extension : MS Stereo
Codec ID : 55
Codec ID/Hint : MP3
Duration : 25 min
Bit rate mode : Constant
Bit rate : 128 kb/s
Channel(s) : 2 channels
Sampling rate : 48.0 kHz
Compression mode : Lossy
Stream size : 22.9 MiB (7%)
Alignment : Aligned on interleaves
Interleave, duration : 80 ms (2.00 video frames)
Interleave, preload duration : 504 ms
Writing library : LAME3.98r
Encoding settings : -m j -V 4 -q 2 -lowpass 17 -b 128
Audio #2
ID : 2
Format : MPEG Audio
Format version : Version 1
Format profile : Layer 3
Mode : Joint stereo
Mode extension : MS Stereo
Codec ID : 55
Codec ID/Hint : MP3
Duration : 25 min
Bit rate mode : Constant
Bit rate : 128 kb/s
Channel(s) : 2 channels
Sampling rate : 48.0 kHz
Compression mode : Lossy
Stream size : 23.0 MiB (7%)
Alignment : Aligned on interleaves
Interleave, duration : 80 ms (2.00 video frames)
Interleave, preload duration : 504 ms
Writing library : LAME3.98r
Encoding settings : -m j -V 4 -q 2 -lowpass 17 -b 128

[HIDE-THANKS]
Kód:
https://data.hu/get/11668079/D3365a.part1.rar
https://data.hu/get/11668083/D3365a.part2.rar
https://data.hu/get/11668070/D3365a.part3.rar
[/HIDE-THANKS]
vagy free
[HIDE-THANKS]
Kód:
https://data.hu/get/12644441/D3365av.part01.rar
https://data.hu/get/12644464/D3365av.part02.rar
https://data.hu/get/12644458/D3365av.part03.rar
https://data.hu/get/12644451/D3365av.part04.rar
https://data.hu/get/12644452/D3365av.part05.rar
https://data.hu/get/12644440/D3365av.part06.rar
https://data.hu/get/12644454/D3365av.part07.rar
https://data.hu/get/12644447/D3365av.part08.rar
https://data.hu/get/12644437/D3365av.part09.rar
https://data.hu/get/12644467/D3365av.part10.rar
https://data.hu/get/12644455/D3365av.part11.rar
[/HIDE-THANKS]
 

papadi

Állandó Tag


Willy Fog újabb kalandjai - Utazás a Föld középpontjába
(Willy Fog 2 - Vigie al Centro de la Tierra / 20.000 Leguas de Vigie Submarino)
Spanyol rajzfilmsorozat (1993)
Rendezte: Olivia Borricon
Mirax, 2013. szeptember 27.
Hang: magyar, német
Felirat: nincs

DVD1:

1. A titkos üzenet
2. Indulás Izlandra
3. A rejtélyes kisérő
4. Az alvó tűzhányó

Média információ:

Video:
Kodek: MPEG-1/2 Video (mpgv)
Felbontás: 720x576
Képkockasebesség: 25
Képformátum: 1.33:1 (4:3)

Hang:
Kodek: A52 Audio (aka AC3) (a52)
Csatornák: Sztereó
Mintavételi frekvencia: 48000 Hz
Bitsebesség: 192 kb/mp

Formátum: iso
Méret: 5,91 GB
Műsoridő: 1:41:56

(prémium)
[HIDE-THANKS]
Kód:
https://data.hu/get/12644514/D3366i.part1.rar
https://data.hu/get/12644517/D3366i.part2.rar
https://data.hu/get/12644513/D3366i.part3.rar
https://data.hu/get/12644512/D3366i.part4.rar
https://data.hu/get/12644515/D3366i.part5.rar
https://data.hu/get/12644516/D3366i.part6.rar
[/HIDE-THANKS]



Formátum: dvdrip/avi
Méret: 1,36 GB
Felbontás: 720x544
Mintavételi frekvencia: 48000 Hz
Bitsebesség: 128 kbps
Műsoridő: 1:41:55

Részletes média információ:
I:\Video\Willy Fog - Utazás a Föld középpontjába 1\01 - A titkos üzenet.avi
General
Complete name : I:\Video\Willy Fog - Utazás a Föld középpontjába 1\01 - A titkos üzenet.avi
Format : AVI
Format/Info : Audio Video Interleave
File size : 348 MiB
Duration : 25 min
Overall bit rate : 1 923 kb/s
Writing application : VirtualDubMod 1.5.4.1 (build 2178/release)
Writing library : VirtualDubMod build 2178/release
Video #0
ID : 0
Format : MPEG-4 Visual
Format profile : Advanced [email protected]
Format settings, BVOP : 1
Format settings, QPel : No
Format settings, GMC : No warppoints
Format settings, Matrix : Custom
Codec ID : XVID
Codec ID/Hint : XviD
Duration : 25 min
Bit rate : 1 657 kb/s
Width : 720 pixels
Height : 544 pixels
Display aspect ratio : 4:3
Frame rate : 25.000 FPS
Color space : YUV
Chroma subsampling : 4:2:0
Bit depth : 8 bits
Scan type : Progressive
Compression mode : Lossy
Bits/(Pixel*Frame) : 0.169
Stream size : 300 MiB (86%)
Writing library : XviD 1.2.1 (UTC 2008-12-04)
Audio #1
ID : 1
Format : MPEG Audio
Format version : Version 1
Format profile : Layer 3
Mode : Joint stereo
Mode extension : MS Stereo
Codec ID : 55
Codec ID/Hint : MP3
Duration : 25 min
Bit rate mode : Constant
Bit rate : 128 kb/s
Channel(s) : 2 channels
Sampling rate : 48.0 kHz
Compression mode : Lossy
Stream size : 23.2 MiB (7%)
Alignment : Aligned on interleaves
Interleave, duration : 80 ms (2.00 video frames)
Interleave, preload duration : 504 ms
Writing library : LAME3.98r
Encoding settings : -m j -V 4 -q 2 -lowpass 17 -b 128
Audio #2
ID : 2
Format : MPEG Audio
Format version : Version 1
Format profile : Layer 3
Mode : Joint stereo
Mode extension : MS Stereo
Codec ID : 55
Codec ID/Hint : MP3
Duration : 25 min
Bit rate mode : Constant
Bit rate : 128 kb/s
Channel(s) : 2 channels
Sampling rate : 48.0 kHz
Compression mode : Lossy
Stream size : 23.2 MiB (7%)
Alignment : Aligned on interleaves
Interleave, duration : 80 ms (2.00 video frames)
Interleave, preload duration : 504 ms
Writing library : LAME3.98r
Encoding settings : -m j -V 4 -q 2 -lowpass 17 -b 128

[HIDE-THANKS]
Kód:
https://data.hu/get/11668538/D3366a.part1.rar
https://data.hu/get/11668540/D3366a.part2.rar
[/HIDE-THANKS]
vagy free
[HIDE-THANKS]
Kód:
https://data.hu/get/11668543/D3366av.part1.rar
https://data.hu/get/11668541/D3366av.part2.rar
https://data.hu/get/11668528/D3366av.part3.rar
https://data.hu/get/11668539/D3366av.part4.rar
https://data.hu/get/11668542/D3366av.part5.rar
https://data.hu/get/11668536/D3366av.part6.rar
https://data.hu/get/11668531/D3366av.part7.rar
https://data.hu/get/11668532/D3366av.part8.rar
[/HIDE-THANKS]



Willy Fog újabb kalandjai - Utazás a Föld középpontjába
(Willy Fog 2 - Vigie al Centro de la Tierra / 20.000 Leguas de Vigie Submarino)
Spanyol rajzfilmsorozat (1993)
Rendezte: Olivia Borricon
Mirax, 2013. szeptember 27.
Hang: magyar, német
Felirat: nincs

DVD2:

5. Romy veszélyben
6. Útban a földközepe felé
7. Transfer bosszúja
8. A rejtőzködő folyó

Média információ:

Video:
Kodek: MPEG-1/2 Video (mpgv)
Felbontás: 720x576
Képkockasebesség: 25
Képformátum: 1.33:1 (4:3)

Hang:
Kodek: A52 Audio (aka AC3) (a52)
Csatornák: Sztereó
Mintavételi frekvencia: 48000 Hz
Bitsebesség: 192 kb/mp

Formátum: iso
Méret: 5,94 GB
Műsoridő: 1:42:27

(prémium)
[HIDE-THANKS]
Kód:
https://data.hu/get/11668949/D3367i.part1.rar
https://data.hu/get/11668953/D3367i.part2.rar
https://data.hu/get/11668951/D3367i.part3.rar
https://data.hu/get/11668955/D3367i.part4.rar
https://data.hu/get/11668952/D3367i.part5.rar
https://data.hu/get/11668964/D3367i.part6.rar
[/HIDE-THANKS]



Formátum: dvdrip/avi
Méret: 1,36 GB
Felbontás: 720x544
Mintavételi frekvencia: 48000 Hz
Bitsebesség: 128 kbps
Műsoridő: 1:42:26

Részletes média információ:
I:\Video\Willy Fog - Utazás a Föld középpontjába 2\05 - Romy veszélyben.avi
General
Complete name : I:\Video\Willy Fog - Utazás a Föld középpontjába 2\05 - Romy veszélyben.avi
Format : AVI
Format/Info : Audio Video Interleave
File size : 348 MiB
Duration : 25 min
Overall bit rate : 1 892 kb/s
Writing application : VirtualDubMod 1.5.4.1 (build 2178/release)
Writing library : VirtualDubMod build 2178/release
Video #0
ID : 0
Format : MPEG-4 Visual
Format profile : Advanced [email protected]
Format settings, BVOP : 1
Format settings, QPel : No
Format settings, GMC : No warppoints
Format settings, Matrix : Custom
Codec ID : XVID
Codec ID/Hint : XviD
Duration : 25 min
Bit rate : 1 627 kb/s
Width : 720 pixels
Height : 544 pixels
Display aspect ratio : 4:3
Frame rate : 25.000 FPS
Color space : YUV
Chroma subsampling : 4:2:0
Bit depth : 8 bits
Scan type : Progressive
Compression mode : Lossy
Bits/(Pixel*Frame) : 0.166
Stream size : 299 MiB (86%)
Writing library : XviD 1.2.1 (UTC 2008-12-04)
Audio #1
ID : 1
Format : MPEG Audio
Format version : Version 1
Format profile : Layer 3
Mode : Joint stereo
Mode extension : MS Stereo
Codec ID : 55
Codec ID/Hint : MP3
Duration : 25 min
Bit rate mode : Constant
Bit rate : 128 kb/s
Channel(s) : 2 channels
Sampling rate : 48.0 kHz
Compression mode : Lossy
Stream size : 23.6 MiB (7%)
Alignment : Aligned on interleaves
Interleave, duration : 80 ms (2.00 video frames)
Interleave, preload duration : 504 ms
Writing library : LAME3.98r
Encoding settings : -m j -V 4 -q 2 -lowpass 17 -b 128
Audio #2
ID : 2
Format : MPEG Audio
Format version : Version 1
Format profile : Layer 3
Mode : Joint stereo
Mode extension : MS Stereo
Codec ID : 55
Codec ID/Hint : MP3
Duration : 25 min
Bit rate mode : Constant
Bit rate : 128 kb/s
Channel(s) : 2 channels
Sampling rate : 48.0 kHz
Compression mode : Lossy
Stream size : 23.6 MiB (7%)
Alignment : Aligned on interleaves
Interleave, duration : 80 ms (2.00 video frames)
Interleave, preload duration : 504 ms
Writing library : LAME3.98r
Encoding settings : -m j -V 4 -q 2 -lowpass 17 -b 128

[HIDE-THANKS]
Kód:
https://data.hu/get/11668965/D3367a.part1.rar
https://data.hu/get/11668958/D3367a.part2.rar
[/HIDE-THANKS]
vagy free
[HIDE-THANKS]
Kód:
https://data.hu/get/11668967/D3367av.part1.rar
https://data.hu/get/11668961/D3367av.part2.rar
https://data.hu/get/11668963/D3367av.part3.rar
https://data.hu/get/11668966/D3367av.part4.rar
https://data.hu/get/11668959/D3367av.part5.rar
https://data.hu/get/11668950/D3367av.part6.rar
https://data.hu/get/11668948/D3367av.part7.rar
https://data.hu/get/11668960/D3367av.part8.rar
[/HIDE-THANKS]



Willy Fog újabb kalandjai - Utazás a Föld középpontjába
(Willy Fog 2 - Vigie al Centro de la Tierra / 20.000 Leguas de Vigie Submarino)
Spanyol rajzfilmsorozat (1993)
Rendezte: Olivia Borricon
Mirax, 2013. szeptember 27.
Hang: magyar, német
Felirat: nincs

DVD3:

9. Tévelygés a sötétségben
10. A földalatti tenger
11. A szörnyek csatája
12. A vihar
13. A visszaút

Média információ:

Video:
Kodek: MPEG-1/2 Video (mpgv)
Felbontás: 720x576
Képkockasebesség: 25
Képformátum: 1.33:1 (4:3)

Hang:
Kodek: A52 Audio (aka AC3) (a52)
Csatornák: Sztereó
Mintavételi frekvencia: 48000 Hz
Bitsebesség: 192 kb/mp

Formátum: iso
Méret: 7,28 GB
Műsoridő: 2:08:06

(prémium)
[HIDE-THANKS]
Kód:
https://data.hu/get/11669538/D3368i.part1.rar
https://data.hu/get/11669528/D3368i.part2.rar
https://data.hu/get/11669532/D3368i.part3.rar
https://data.hu/get/11669533/D3368i.part4.rar
https://data.hu/get/11669531/D3368i.part5.rar
https://data.hu/get/11669536/D3368i.part6.rar
https://data.hu/get/11669530/D3368i.part7.rar
[/HIDE-THANKS]



Formátum: dvdrip/avi
Méret: 1,70 GB
Felbontás: 720x544
Mintavételi frekvencia: 48000 Hz
Bitsebesség: 128 kbps
Műsoridő: 2:08:06

Részletes média információ:
I:\Video\Willy Fog - Utazás a Föld középpontjába 3\09 - Tévelygés a sötétségben.avi
General
Complete name : I:\Video\Willy Fog - Utazás a Föld középpontjába 3\09 - Tévelygés a sötétségben.avi
Format : AVI
Format/Info : Audio Video Interleave
File size : 348 MiB
Duration : 25 min
Overall bit rate : 1 892 kb/s
Writing application : VirtualDubMod 1.5.4.1 (build 2178/release)
Writing library : VirtualDubMod build 2178/release
Video #0
ID : 0
Format : MPEG-4 Visual
Format profile : Advanced [email protected]
Format settings, BVOP : 1
Format settings, QPel : No
Format settings, GMC : No warppoints
Format settings, Matrix : Custom
Codec ID : XVID
Codec ID/Hint : XviD
Duration : 25 min
Bit rate : 1 626 kb/s
Width : 720 pixels
Height : 544 pixels
Display aspect ratio : 4:3
Frame rate : 25.000 FPS
Color space : YUV
Chroma subsampling : 4:2:0
Bit depth : 8 bits
Scan type : Progressive
Compression mode : Lossy
Bits/(Pixel*Frame) : 0.166
Stream size : 299 MiB (86%)
Writing library : XviD 1.2.1 (UTC 2008-12-04)
Audio #1
ID : 1
Format : MPEG Audio
Format version : Version 1
Format profile : Layer 3
Mode : Joint stereo
Mode extension : MS Stereo
Codec ID : 55
Codec ID/Hint : MP3
Duration : 25 min
Bit rate mode : Constant
Bit rate : 128 kb/s
Channel(s) : 2 channels
Sampling rate : 48.0 kHz
Compression mode : Lossy
Stream size : 23.6 MiB (7%)
Alignment : Aligned on interleaves
Interleave, duration : 80 ms (2.00 video frames)
Interleave, preload duration : 504 ms
Writing library : LAME3.98r
Encoding settings : -m j -V 4 -q 2 -lowpass 17 -b 128
Audio #2
ID : 2
Format : MPEG Audio
Format version : Version 1
Format profile : Layer 3
Mode : Joint stereo
Mode extension : MS Stereo
Codec ID : 55
Codec ID/Hint : MP3
Duration : 25 min
Bit rate mode : Constant
Bit rate : 128 kb/s
Channel(s) : 2 channels
Sampling rate : 48.0 kHz
Compression mode : Lossy
Stream size : 23.6 MiB (7%)
Alignment : Aligned on interleaves
Interleave, duration : 80 ms (2.00 video frames)
Interleave, preload duration : 504 ms
Writing library : LAME3.98r
Encoding settings : -m j -V 4 -q 2 -lowpass 17 -b 128

[HIDE-THANKS]
Kód:
https://data.hu/get/11669115/D3368a.part1.rar
https://data.hu/get/11669119/D3368a.part2.rar
[/HIDE-THANKS]
vagy free
[HIDE-THANKS]
Kód:
https://data.hu/get/11669116/D3368av.part01.rar
https://data.hu/get/11669121/D3368av.part02.rar
https://data.hu/get/11669122/D3368av.part03.rar
https://data.hu/get/11669112/D3368av.part04.rar
https://data.hu/get/11669113/D3368av.part05.rar
https://data.hu/get/11669117/D3368av.part06.rar
https://data.hu/get/11669118/D3368av.part07.rar
https://data.hu/get/11669111/D3368av.part08.rar
https://data.hu/get/11669120/D3368av.part09.rar
https://data.hu/get/11669123/D3368av.part10.rar
[/HIDE-THANKS]
 

papadi

Állandó Tag


Willy Fog újabb kalandjai - 20000 mérföld a tenger mélyén
(Willy Fog 2 - Vigie al Centro de la Tierra / 20.000 Leguas de Vigie Submarino)
Spanyol rajzfilmsorozat (1993)
Rendezte: Olivia Borricon
Mirax, 2013. szeptember 27.
Hang: magyar
Felirat: nincs

DVD1:

1. (14.) A tengeri rejtély
2. (15.) Régi barátok
3. (16.) Ned Land, a szigonyhajító
4. (17.) A nyílt tengeren

Média információ:

Video:
Kodek: MPEG-1/2 Video (mpgv)
Felbontás: 720x576
Képkockasebesség: 25
Képformátum: 1.33:1 (4:3)

Hang:
Kodek: A52 Audio (aka AC3) (a52)
Csatornák: Sztereó
Mintavételi frekvencia: 48000 Hz
Bitsebesség: 192 kb/mp

Formátum: iso
Méret: 5,73 GB
Műsoridő: 1:42:32

(prémium)
[HIDE-THANKS]
Kód:
https://data.hu/get/11670168/D3369i.part1.rar
https://data.hu/get/11670156/D3369i.part2.rar
https://data.hu/get/11670159/D3369i.part3.rar
https://data.hu/get/11670170/D3369i.part4.rar
https://data.hu/get/11670173/D3369i.part5.rar
https://data.hu/get/11670163/D3369i.part6.rar
[/HIDE-THANKS]



Formátum: dvdrip/avi
Méret: 1,36 GB
Felbontás: 720x544
Mintavételi frekvencia: 48000 Hz
Bitsebesség: 128 kbps
Műsoridő: 1:42:32

Részletes média információ:
I:\Video\Willy Fog - 20000 mérföld a tenger mélyén 1\01 - A tengeri rejtély.avi
General
Complete name : I:\Video\Willy Fog - 20000 mérföld a tenger mélyén 1\01 - A tengeri rejtély.avi
Format : AVI
Format/Info : Audio Video Interleave
File size : 349 MiB
Duration : 25 min
Overall bit rate : 1 893 kb/s
Writing application : VirtualDubMod 1.5.4.1 (build 2178/release)
Writing library : VirtualDubMod build 2178/release
Video #0
ID : 0
Format : MPEG-4 Visual
Format profile : Advanced [email protected]
Format settings, BVOP : 1
Format settings, QPel : No
Format settings, GMC : No warppoints
Format settings, Matrix : Custom
Codec ID : XVID
Codec ID/Hint : XviD
Duration : 25 min
Bit rate : 1 758 kb/s
Width : 720 pixels
Height : 544 pixels
Display aspect ratio : 4:3
Frame rate : 25.000 FPS
Color space : YUV
Chroma subsampling : 4:2:0
Bit depth : 8 bits
Scan type : Progressive
Compression mode : Lossy
Bits/(Pixel*Frame) : 0.179
Stream size : 324 MiB (93%)
Writing library : XviD 1.2.1 (UTC 2008-12-04)
Audio #1
ID : 1
Format : MPEG Audio
Format version : Version 1
Format profile : Layer 3
Mode : Joint stereo
Mode extension : MS Stereo
Codec ID : 55
Codec ID/Hint : MP3
Duration : 25 min
Bit rate mode : Constant
Bit rate : 128 kb/s
Channel(s) : 2 channels
Sampling rate : 48.0 kHz
Compression mode : Lossy
Stream size : 23.6 MiB (7%)
Alignment : Aligned on interleaves
Interleave, duration : 80 ms (2.00 video frames)
Interleave, preload duration : 504 ms
Writing library : LAME3.98r
Encoding settings : -m j -V 4 -q 2 -lowpass 17 -b 128

[HIDE-THANKS]
Kód:
https://data.hu/get/11670160/D3369a.part1.rar
https://data.hu/get/11670172/D3369a.part2.rar
[/HIDE-THANKS]
vagy free
[HIDE-THANKS]
Kód:
https://data.hu/get/11670167/D3369av.part1.rar
https://data.hu/get/11670164/D3369av.part2.rar
https://data.hu/get/11670165/D3369av.part3.rar
https://data.hu/get/11670154/D3369av.part4.rar
https://data.hu/get/11670166/D3369av.part5.rar
https://data.hu/get/11670171/D3369av.part6.rar
https://data.hu/get/11670161/D3369av.part7.rar
https://data.hu/get/11670174/D3369av.part8.rar
[/HIDE-THANKS]



Willy Fog újabb kalandjai - 20000 mérföld a tenger mélyén
(Willy Fog 2 - Vigie al Centro de la Tierra / 20.000 Leguas de Vigie Submarino)
Spanyol rajzfilmsorozat (1993)
Rendezte: Olivia Borricon
Mirax, 2013. szeptember 27.
Hang: magyar
Felirat: nincs

DVD2:

5. (18.) A mélységek szörnyetege
6. (19.) A titokzatos kapitány
7. (20.) A Nautilus foglyai
8. (21.) A víz alatti séta

Média információ:

Video:
Kodek: MPEG-1/2 Video (mpgv)
Felbontás: 720x576
Képkockasebesség: 25
Képformátum: 1.33:1 (4:3)

Hang:
Kodek: A52 Audio (aka AC3) (a52)
Csatornák: Sztereó
Mintavételi frekvencia: 48000 Hz
Bitsebesség: 192 kb/mp

Formátum: iso
Méret: 5,67 GB
Műsoridő: 1:43:07

(prémium)
[HIDE-THANKS]
Kód:
https://data.hu/get/11670609/D3370i.part1.rar
https://data.hu/get/11670604/D3370i.part2.rar
https://data.hu/get/11670611/D3370i.part3.rar
https://data.hu/get/11670610/D3370i.part4.rar
https://data.hu/get/11670612/D3370i.part5.rar
https://data.hu/get/11670597/D3370i.part6.rar
[/HIDE-THANKS]



Formátum: dvdrip/avi
Méret: 1,36 GB
Felbontás: 720x544
Mintavételi frekvencia: 48000 Hz
Bitsebesség: 128 kbps
Műsoridő: 1:43:06

Részletes média információ:
I:\Video\Willy Fog - 20000 mérföld a tenger mélyén 2\05 - A mélységek szörnyetege.avi
General
Complete name : I:\Video\Willy Fog - 20000 mérföld a tenger mélyén 2\05 - A mélységek szörnyetege.avi
Format : AVI
Format/Info : Audio Video Interleave
File size : 349 MiB
Duration : 25 min
Overall bit rate : 1 883 kb/s
Writing application : VirtualDubMod 1.5.4.1 (build 2178/release)
Writing library : VirtualDubMod build 2178/release
Video #0
ID : 0
Format : MPEG-4 Visual
Format profile : Advanced [email protected]
Format settings, BVOP : 1
Format settings, QPel : No
Format settings, GMC : No warppoints
Format settings, Matrix : Custom
Codec ID : XVID
Codec ID/Hint : XviD
Duration : 25 min
Bit rate : 1 748 kb/s
Width : 720 pixels
Height : 544 pixels
Display aspect ratio : 4:3
Frame rate : 25.000 FPS
Color space : YUV
Chroma subsampling : 4:2:0
Bit depth : 8 bits
Scan type : Progressive
Compression mode : Lossy
Bits/(Pixel*Frame) : 0.179
Stream size : 324 MiB (93%)
Writing library : XviD 1.2.1 (UTC 2008-12-04)
Audio #1
ID : 1
Format : MPEG Audio
Format version : Version 1
Format profile : Layer 3
Mode : Joint stereo
Mode extension : MS Stereo
Codec ID : 55
Codec ID/Hint : MP3
Duration : 25 min
Bit rate mode : Constant
Bit rate : 128 kb/s
Channel(s) : 2 channels
Sampling rate : 48.0 kHz
Compression mode : Lossy
Stream size : 23.7 MiB (7%)
Alignment : Aligned on interleaves
Interleave, duration : 80 ms (2.00 video frames)
Interleave, preload duration : 504 ms
Writing library : LAME3.98r
Encoding settings : -m j -V 4 -q 2 -lowpass 17 -b 128

[HIDE-THANKS]
Kód:
https://data.hu/get/12644524/D3370a.part1.rar
https://data.hu/get/12644527/D3370a.part2.rar
[/HIDE-THANKS]
vagy free
[HIDE-THANKS]
Kód:
https://data.hu/get/11670600/D3370av.part1.rar
https://data.hu/get/11670602/D3370av.part2.rar
https://data.hu/get/11670605/D3370av.part3.rar
https://data.hu/get/11670598/D3370av.part4.rar
https://data.hu/get/11670606/D3370av.part5.rar
https://data.hu/get/11670603/D3370av.part6.rar
https://data.hu/get/11670601/D3370av.part7.rar
https://data.hu/get/11670607/D3370av.part8.rar
[/HIDE-THANKS]



Willy Fog újabb kalandjai - 20000 mérföld a tenger mélyén
(Willy Fog 2 - Vigie al Centro de la Tierra / 20.000 Leguas de Vigie Submarino)
Spanyol rajzfilmsorozat (1993)
Rendezte: Olivia Borricon
Mirax, 2013. szeptember 27.
Hang: magyar
Felirat: nincs

DVD3:

9. (22.) A szárazföldön
10. (23.) A gyöngyhalászok
11. (24.) A déli sarkon
12. (25.) Harc a polipokkal
13. (26.) Szökési tervek

Média információ:

Video:
Kodek: MPEG-1/2 Video (mpgv)
Felbontás: 720x576
Képkockasebesség: 25
Képformátum: 1.33:1 (4:3)

Hang:
Kodek: A52 Audio (aka AC3) (a52)
Csatornák: Sztereó
Mintavételi frekvencia: 48000 Hz
Bitsebesség: 192 kb/mp

Formátum: iso
Méret: 7,01 GB
Műsoridő: 2:08:04

(prémium)
[HIDE-THANKS]
Kód:
https://data.hu/get/11670788/D3371i.part1.rar
https://data.hu/get/11670787/D3371i.part2.rar
https://data.hu/get/11670791/D3371i.part3.rar
https://data.hu/get/11670789/D3371i.part4.rar
https://data.hu/get/11670790/D3371i.part5.rar
https://data.hu/get/11670792/D3371i.part6.rar
https://data.hu/get/11670785/D3371i.part7.rar
[/HIDE-THANKS]



Formátum: dvdrip/avi
Méret: 1,70 GB
Felbontás: 720x544
Mintavételi frekvencia: 48000 Hz
Bitsebesség: 128 kbps
Műsoridő: 2:08:04

Részletes média információ:
I:\Video\Willy Fog - 20000 mérföld a tenger mélyén 3\09 - A szárazföldön.avi
General
Complete name : I:\Video\Willy Fog - 20000 mérföld a tenger mélyén 3\09 - A szárazföldön.avi
Format : AVI
Format/Info : Audio Video Interleave
File size : 349 MiB
Duration : 25 min
Overall bit rate : 1 894 kb/s
Writing application : VirtualDubMod 1.5.4.1 (build 2178/release)
Writing library : VirtualDubMod build 2178/release
Video #0
ID : 0
Format : MPEG-4 Visual
Format profile : Advanced [email protected]
Format settings, BVOP : 1
Format settings, QPel : No
Format settings, GMC : No warppoints
Format settings, Matrix : Custom
Codec ID : XVID
Codec ID/Hint : XviD
Duration : 25 min
Bit rate : 1 759 kb/s
Width : 720 pixels
Height : 544 pixels
Display aspect ratio : 4:3
Frame rate : 25.000 FPS
Color space : YUV
Chroma subsampling : 4:2:0
Bit depth : 8 bits
Scan type : Progressive
Compression mode : Lossy
Bits/(Pixel*Frame) : 0.180
Stream size : 324 MiB (93%)
Writing library : XviD 1.2.1 (UTC 2008-12-04)
Audio #1
ID : 1
Format : MPEG Audio
Format version : Version 1
Format profile : Layer 3
Mode : Joint stereo
Mode extension : MS Stereo
Codec ID : 55
Codec ID/Hint : MP3
Duration : 25 min
Bit rate mode : Constant
Bit rate : 128 kb/s
Channel(s) : 2 channels
Sampling rate : 48.0 kHz
Compression mode : Lossy
Stream size : 23.6 MiB (7%)
Alignment : Aligned on interleaves
Interleave, duration : 80 ms (2.00 video frames)
Interleave, preload duration : 504 ms
Writing library : LAME3.98r
Encoding settings : -m j -V 4 -q 2 -lowpass 17 -b 128

[HIDE-THANKS]
Kód:
https://data.hu/get/11670690/D3371a.part1.rar
https://data.hu/get/11670700/D3371a.part2.rar
[/HIDE-THANKS]
vagy free
[HIDE-THANKS]
Kód:
https://data.hu/get/12644528/D3371av.part01.rar
https://data.hu/get/12644531/D3371av.part02.rar
https://data.hu/get/12644523/D3371av.part03.rar
https://data.hu/get/12644522/D3371av.part04.rar
https://data.hu/get/12644530/D3371av.part05.rar
https://data.hu/get/12644532/D3371av.part06.rar
https://data.hu/get/12644529/D3371av.part07.rar
https://data.hu/get/12644533/D3371av.part08.rar
https://data.hu/get/12644526/D3371av.part09.rar
https://data.hu/get/12644525/D3371av.part10.rar
[/HIDE-THANKS]

Halott linkek miatt újratöltve.
 
Oldal tetejére