MUSICAL, rockopera, operett és egyéb ZENÉS FILM 2012

papadi

Állandó Tag
John Lennon: Sweet Toronto

7d1067dce317b21ae972bf248c95d81c.jpg


John Lennon: Sweet Toronto
Varsity Stadium, Toronto, Kanada, Rock and Roll Revival Festival, 1969. szeptember 13.
Amerikai dokumentumfilm (1971)
Rendezte: Donn Alan Pennebaker
Közreműködök: John Lennon and The Plastic Ono Band with Eric Clapton, Bo Diddley, Jerry Lee Lewis, Chuck Berry, Little Richard
Hang: angol
Felirat: nincs

Az elhangzó dalok:
01 - Bo Diddley: Bo Diddley
02 - Jerry Lee Lewis: Hound Dog
03 - Chuck Berry: Johnny B.Goode
03a - Chuck Berry solo
04 - Little Richard: Lucille
PLASTIC ONO BAND:
05 - Blue Suede Shoes (John Lennon)
05a - Eric Clapton solo
06 - Money (John Lennon)
07 - You Make Me Dizzy Miss Lizzy (John Lennon)
07a - Eric Clapton solo
08 - Yer Blues (John Lennon)
08a - John Lennon solo
09 - Cold Turkey (John Lennon)
10 - Give Peace a Chance (John Lennon)
11 - Don't Worry Kyoto (Mummy's Only Looking For Her Hand In The Snow) (Yoko Ono)
12 - John, John (Let’s Hope For Peace) (Yoko Ono)

Média információ:

Video:
Kodek: MPEG-1/2 Video (mpgv)
Felbontás: 720x576
Képkockasebesség: 25
Képformátum: 1.33:1 (4:3)

Hang:
Kodek: A52 Audio (aka AC3) (a52)
Csatornák: Sztereó
Mintavételi frekvencia: 48000 Hz
Bitsebesség: 448 kb/mp

Formátum: dvd
Méret: 3,06 GB
Műsoridő: 52:53

(prémium)
[HIDE-THANKS]
Kód:
https://data.hu/get/11281920/D3241d.part1.rar
https://data.hu/get/11281928/D3241d.part2.rar
https://data.hu/get/11281916/D3241d.part3.rar
https://data.hu/get/11281924/D3241d.part4.rar
https://data.hu/get/11281923/D3241d.part5.rar
[/HIDE-THANKS]

81bb424588794bcad11a6a3eb7d7070b.jpg


Formátum: dvdrip/avi
Méret: 755 MB
Felbontás: 576x432
Mintavételi frekvencia: 48000 Hz
Bitsebesség: 192 kbps
Műsoridő: 52:52

Részletes média információ:
I:\0000\D3241a\D3241a\John Lennon - Sweet Toronto.avi
General
Complete name : I:\0000\D3241a\D3241a\John Lennon - Sweet Toronto.avi
Format : AVI
Format/Info : Audio Video Interleave
File size : 755 MiB
Duration : 52 min
Overall bit rate : 1 996 kb/s
Writing application : Lavf51.12.1
Video #0
ID : 0
Format : MPEG-4 Visual
Format profile : [email protected]
Format settings, BVOP : No
Format settings, QPel : No
Format settings, GMC : No warppoints
Format settings, Matrix : Default (H.263)
Codec ID : DX50
Codec ID/Hint : DivX 5
Duration : 52 min
Bit rate : 1 791 kb/s
Width : 576 pixels
Height : 432 pixels
Display aspect ratio : 4:3
Frame rate : 25.000 FPS
Color space : YUV
Chroma subsampling : 4:2:0
Bit depth : 8 bits
Scan type : Progressive
Compression mode : Lossy
Bits/(Pixel*Frame) : 0.288
Stream size : 677 MiB (90%)
Writing library : Lavc51.40.4
Audio #1
ID : 1
Format : MPEG Audio
Format version : Version 1
Format profile : Layer 3
Mode : Joint stereo
Mode extension : MS Stereo
Codec ID : 55
Codec ID/Hint : MP3
Duration : 52 min
Bit rate mode : Constant
Bit rate : 192 kb/s
Channel(s) : 2 channels
Sampling rate : 48.0 kHz
Compression mode : Lossy
Stream size : 72.6 MiB (10%)
Alignment : Aligned on interleaves
Interleave, duration : 24 ms (0.60 video frame)

prémium
[HIDE-THANKS]
Kód:
https://data.hu/get/11281922/D3241a.rar
[/HIDE-THANKS]
vagy free
[HIDE-THANKS]
Kód:
https://data.hu/get/11281926/D3241av.part1.rar
https://data.hu/get/11281915/D3241av.part2.rar
https://data.hu/get/11281914/D3241av.part3.rar
https://data.hu/get/11281925/D3241av.part4.rar
[/HIDE-THANKS]

Beletörlés miatt újratöltve.
 

papadi

Állandó Tag
John Lennon: Live in New York City

526c103ce0feb7e9e048dfb48fa48a8c.jpg


John Lennon: Live in New York City
Madison Square Garden, 1972. augusztus 30.
Hang: angol
Felirat: nincs

01 - Power To The People
02 - New York City
03 - It's So Hard
04 - Woman Is The Nigger Of The World
05 - Sisters O Sisters
06 - Well Well Well
07 - Instant Karma!
08 - Mother
09 - Born In A Prison
10 - Come Together
11 - Imagine
12 - Cold Turkey
13 - Hound Dog
14 - Give Peace A Chance

Média információ:

Video:
Kodek: MPEG-1/2 Video (mpgv)
Felbontás: 720x480
Képkockasebesség: 25
Képformátum: 1.33:1 (4:3)

Hang:
Kodek: DVD LPCM Audio (lpcm)
Csatornák: Sztereó
Mintavételi frekvencia: 48000 Hz
Bitek mintánként: 16

Formátum: dvd
Méret: 3,71 GB
Műsoridő: 54:46

(prémium)
[HIDE-THANKS]
Kód:
https://data.hu/get/11282646/D3242d.part1.rar
https://data.hu/get/11282640/D3242d.part2.rar
https://data.hu/get/11282649/D3242d.part3.rar
https://data.hu/get/11282648/D3242d.part4.rar
https://data.hu/get/11282650/D3242d.part5.rar
https://data.hu/get/11282639/D3242d.part6.rar
[/HIDE-THANKS]

7ec02735f9b2e0adc727af5faef25245.jpg


Formátum: dvdrip/avi
Méret: 992 MB
Felbontás: 640x472
Mintavételi frekvencia: 48000 Hz
Bitsebesség: 320 kbps
Műsoridő: 54:49

Részletes média információ:

I:\0000\D3242a\D3242a\John Lennon - Live in New York City.avi
General
Complete name : I:\0000\D3242a\D3242a\John Lennon - Live in New York City.avi
Format : AVI
Format/Info : Audio Video Interleave
File size : 992 MiB
Duration : 54 min
Overall bit rate : 2 530 kb/s
Writing application : VirtualDubMod 1.5.10.2 (build 2540/release)
Writing library : VirtualDubMod build 2540/release
Video #0
ID : 0
Format : MPEG-4 Visual
Format profile : Advanced [email protected]
Format settings, BVOP : 1
Format settings, QPel : No
Format settings, GMC : No warppoints
Format settings, Matrix : Default (MPEG)
Muxing mode : Packed bitstream
Codec ID : XVID
Codec ID/Hint : XviD
Duration : 54 min
Bit rate : 2 198 kb/s
Width : 640 pixels
Height : 472 pixels
Display aspect ratio : 4:3
Frame rate : 29.970 (29970/1000) FPS
Color space : YUV
Chroma subsampling : 4:2:0
Bit depth : 8 bits
Scan type : Progressive
Compression mode : Lossy
Bits/(Pixel*Frame) : 0.243
Stream size : 862 MiB (87%)
Writing library : XviD 1.2.1 (UTC 2008-12-04)
Audio #1
ID : 1
Format : MPEG Audio
Format version : Version 1
Format profile : Layer 3
Codec ID : 55
Codec ID/Hint : MP3
Duration : 54 min
Bit rate mode : Constant
Bit rate : 320 kb/s
Channel(s) : 2 channels
Sampling rate : 48.0 kHz
Compression mode : Lossy
Stream size : 125 MiB (13%)
Alignment : Aligned on interleaves
Interleave, duration : 33 ms (1.00 video frame)
Interleave, preload duration : 504 ms
Writing library : LAME3.92
Encoding settings : -m s -V 4 -q 2 -lowpass 21.4

prémium
[HIDE-THANKS]
Kód:
https://data.hu/get/11282641/D3242a.rar
[/HIDE-THANKS]
vagy
[HIDE-THANKS]
Kód:
https://data.hu/get/11393314/D3242av.part1.rar
https://data.hu/get/11393316/D3242av.part2.rar
https://data.hu/get/11393317/D3242av.part3.rar
https://data.hu/get/11393313/D3242av.part4.rar
https://data.hu/get/11393318/D3242av.part5.rar
https://data.hu/get/11393315/D3242av.part6.rar
[/HIDE-THANKS]

Beletörlés miatt újratöltve.
 

papadi

Állandó Tag
Imagine: John Lennon

72952c5831b2a8ecf0c8ccedfcc5ace6.jpg


Imagine: John Lennon
(Imagine: John Lennon)
Amerikai dokumentumfilm (1988)
Rendezte: Andrew Solt
Hang: angol
Felirat: magyar + 22 nyelven

David L. Wolper és Andrew Solt producerek (az Ez Elvis készítői) a legendás zenész 240 órás, korábban szinte ismeretlen film- és videogyűjteményéből válogatva készítettek portrét John Lennonról. A "klasszikussá vált filmes életrajz" (Roy Leonard, WGN-TV/Chicago) nem kevesebb mint 36 dalt tartalmaz, és narrátorként John Lennon hangját hallhatjuk viszont. (a borítóról)

Extrák:

1. lemez:
John Lennon-triviasáv - szöveges információk John Lennonról (eredeti nyelven)
2: lemez (csak dvd):
Tisztelgés John Lennon előtt (A Tribute to John Lennon: The Man, The Music, The Memories) (14:52)
John Lennon: Az igazat megvallva (John Lennon: Truth Be Told) (5:41)
John Lennon az Imagine-t játssza akusztikus gitárján (Acoustic Imagine) (3:37)
John Lennon és Yoko Ono tóparti háza a tittenhursti birtokon (Island House) (8:24)
Interjú William Ernest Pobjoyjal, John Lennon gimnáziumi igazgatójával (The Headmaster Looks Back) (9:55)
Ajánló (a borító szerint eredeti előzetes) (James Dean Trailer) (1:48)

Média információ:

Video:
Kodek: MPEG-1/2 Video (mpgv)
Felbontás: 720x576
Képkockasebesség: 25
Képformátum: 1.85:1 (16:9)

Hang:
Kodek: A52 Audio (aka AC3) (a52)
Csatornák: Sztereó
Mintavételi frekvencia: 48000 Hz
Bitsebesség: 192 kb/mp

Formátum: iso
Méret: 5,35+2,14 GB
Műsoridő: 1:41:43 + 44:17

(prémium)
[HIDE-THANKS]
Kód:
https://data.hu/get/12370665/D1776i2.part1.rar
https://data.hu/get/12370657/D1776i2.part2.rar
https://data.hu/get/12370662/D1776i2.part3.rar
https://data.hu/get/12370653/D1776i2.part4.rar
https://data.hu/get/12370663/D1776i2.part5.rar
https://data.hu/get/12370659/D1776i2.part6.rar

https://data.hu/get/12370658/D1777i2.part1.rar
https://data.hu/get/12370666/D1777i2.part2.rar
https://data.hu/get/12370651/D1777i2.part3.rar
[/HIDE-THANKS]

ef23babec92e024aa7b2262c4d64ce42.jpg


Formátum: dvdrip/avi
Méret: 1,32 GB
Felbontás: 720x416
Mintavételi frekvencia: 48000 Hz
Bitsebesség: 177 kbps
Műsoridő: 1:41:43

Részletes média információ:
I:\0000\D1776a\D1776a\Imagine - John Lennon.avi
General
Complete name : I:\0000\D1776a\D1776a\Imagine - John Lennon.avi
Format : AVI
Format/Info : Audio Video Interleave
File size : 1.32 GiB
Duration : 1 h 41 min
Overall bit rate mode : Variable
Overall bit rate : 1 859 kb/s
Writing application : VirtualDubMod 1.5.4.1 (build 2178/release)
Writing library : VirtualDubMod build 2178/release
Video #0
ID : 0
Format : MPEG-4 Visual
Format profile : Advanced [email protected]
Format settings, BVOP : 1
Format settings, QPel : No
Format settings, GMC : No warppoints
Format settings, Matrix : Custom
Codec ID : XVID
Codec ID/Hint : XviD
Duration : 1 h 41 min
Bit rate : 1 669 kb/s
Width : 720 pixels
Height : 416 pixels
Display aspect ratio : 1.731
Frame rate : 25.000 FPS
Color space : YUV
Chroma subsampling : 4:2:0
Bit depth : 8 bits
Scan type : Progressive
Compression mode : Lossy
Bits/(Pixel*Frame) : 0.223
Stream size : 1.19 GiB (90%)
Writing library : XviD 1.2.1 (UTC 2008-12-04)
Audio #1
ID : 1
Format : MPEG Audio
Format version : Version 1
Format profile : Layer 3
Mode : Joint stereo
Mode extension : MS Stereo
Codec ID : 55
Codec ID/Hint : MP3
Duration : 1 h 41 min
Bit rate mode : Variable
Bit rate : 177 kb/s
Nominal bit rate : 192 kb/s
Channel(s) : 2 channels
Sampling rate : 48.0 kHz
Compression mode : Lossy
Stream size : 129 MiB (10%)
Alignment : Aligned on interleaves
Interleave, duration : 24 ms (0.60 video frame)
Interleave, preload duration : 104 ms
Writing library : LAME3.98r
Encoding settings : -m j -V 4 -q 2 -lowpass 18.6 --abr 192

prémium
[HIDE-THANKS]
Kód:
https://data.hu/get/11283705/D1776a.rar
[/HIDE-THANKS]
vagy
[HIDE-THANKS]
Kód:
https://data.hu/get/12370652/D1776av2.part1.rar
https://data.hu/get/12370656/D1776av2.part2.rar
https://data.hu/get/12370661/D1776av2.part3.rar
https://data.hu/get/12370655/D1776av2.part4.rar
https://data.hu/get/12370660/D1776av2.part5.rar
https://data.hu/get/12370654/D1776av2.part6.rar
https://data.hu/get/12370650/D1776av2.part7.rar
https://data.hu/get/12370664/D1776av2.part8.rar
[/HIDE-THANKS]

Beletörlés miatt újratöltve.
 

papadi

Állandó Tag
John Lennon: Power To the People: The Hits

a3e320b9508500f8419dc81cf1e2595b.jpg


John Lennon: Power To The People: The Hits
EMI 50999 909 5502 0 (2010) UK

01 - Power To The People
02 - Gimme Some Truth
03 - Woman
04 - Instant Karma
05 - Whatever Gets You Thru The Night
06 - Cold Turkey
07 - Jealous Guy
08 - #9 Dream
09 - (Just Like) Starting Over
10 - Mind Games
11 - Watching The Wheels
12 - Stand By Me
13 - Imagine
14 - Happy Xmas War Is Over
15 - Give Peace A Chance

Média információ:

Video:
Kodek: MPEG-1/2 Video (mpgv)
Felbontás: 720x480
Képkockasebesség: 29,970030
Képformátum: 1.33:1 (4:3)

Hang:
Kodek: DVD LPCM Audio (lpcm)
Csatornák: Sztereó
Mintavételi frekvencia: 48000 Hz
Bitek mintánként: 16

Formátum: dvd
Méret: 3,71 GB
Műsoridő: 59:42

(prémium)
[HIDE-THANKS]
Kód:
https://data.hu/get/11284056/D3243d.part1.rar
https://data.hu/get/11284051/D3243d.part2.rar
https://data.hu/get/11284044/D3243d.part3.rar
https://data.hu/get/11284047/D3243d.part4.rar
https://data.hu/get/11284049/D3243d.part5.rar
[/HIDE-THANKS]

1027d25c71fb4d37d1fe71ced42bef6a.jpg


Formátum: dvdrip/avi
Méret: 731 MB
Felbontás: 512x384
Mintavételi frekvencia: 48000 Hz
Bitsebesség: 192 kbps
Műsoridő: 59:42

Részletes média információ:
I:\0000\D3243a\D3243a\John Lennon - Power To The People - The Hits.avi
General
Complete name : I:\0000\D3243a\D3243a\John Lennon - Power To The People - The Hits.avi
Format : AVI
Format/Info : Audio Video Interleave
File size : 729 MiB
Duration : 59 min
Overall bit rate : 1 706 kb/s
Writing application : Lavf51.12.1
Video #0
ID : 0
Format : MPEG-4 Visual
Format profile : [email protected]
Format settings, BVOP : No
Format settings, QPel : No
Format settings, GMC : No warppoints
Format settings, Matrix : Default (H.263)
Codec ID : DX50
Codec ID/Hint : DivX 5
Duration : 59 min
Bit rate : 1 500 kb/s
Width : 512 pixels
Height : 384 pixels
Display aspect ratio : 4:3
Frame rate : 29.000 FPS
Color space : YUV
Chroma subsampling : 4:2:0
Bit depth : 8 bits
Scan type : Progressive
Compression mode : Lossy
Bits/(Pixel*Frame) : 0.263
Stream size : 641 MiB (88%)
Writing library : Lavc51.40.4
Audio #1
ID : 1
Format : MPEG Audio
Format version : Version 1
Format profile : Layer 3
Mode : Joint stereo
Mode extension : MS Stereo
Codec ID : 55
Codec ID/Hint : MP3
Duration : 59 min
Bit rate mode : Constant
Bit rate : 192 kb/s
Channel(s) : 2 channels
Sampling rate : 48.0 kHz
Compression mode : Lossy
Stream size : 82.0 MiB (11%)
Alignment : Aligned on interleaves
Interleave, duration : 24 ms (0.70 video frame)

prémium
[HIDE-THANKS]
Kód:
https://data.hu/get/11284053/D3243a.rar
[/HIDE-THANKS]
vagy
[HIDE-THANKS]
Kód:
https://data.hu/get/12370745/D3243av2.part1.rar
https://data.hu/get/12370750/D3243av2.part2.rar
https://data.hu/get/12370749/D3243av2.part3.rar
https://data.hu/get/12370746/D3243av2.part4.rar
[/HIDE-THANKS]

Beletörlés miatt újratöltve.
 

papadi

Állandó Tag
Small Faces

c13e2ed5b480d4fb269ed3fc2a29f0f7.jpg


Small Faces: Ogdens' Nut Gone Flake (3CD+DVD)
IMEB012 Charly, 1968/2018

DVD:
BBC Late Line-Up Presents Colour Me Pop: Small Faces
Originally broadcast 21 June 1968

00 - Lazy Sunday (Marriott - Lane) (Intro)
01 - Song Of A Baker (Marriott - Lane)
02 - Lazy Sunday (Marriott - Lane) (Immediate Records original promo, filmed by Peter Whitehead)
03 - Happiness Stan (Marriott - Lane)
04 - Rollin’ Over (Marriott - Lane)
05 - The Fly /The Hungry Intruder/ (Marriott - Lane - McLagan)
06 - The Journey (Marriott - Lane - McLagan - Jones)
07 - Mad John (Marriott - Lane)
08 - HappyDaysToyTown (Marriott - Lane - McLagan - Jones)

Média információ:

Video:
Kodek: MPEG-1/2 Video (mpgv)
Felbontás: 720x480
Képkockasebesség: 29,970030
Képformátum: 1.33:1 (4:3)

Hang:
Kodek: DVD LPCM Audio (lpcm)
Csatornák: Sztereó
Mintavételi frekvencia: 48000 Hz
Bitek mintánként: 16

Formátum: iso
Méret: 1,51 GB
Műsoridő: 26:39

Ez egy összeállítás negyedik korongja, a CD-ket lásd flac és mp3 formátumban a helyén.

(prémium)
[HIDE-THANKS]
Kód:
https://data.hu/get/12385366/D3378i.part1.rar
https://data.hu/get/12385370/D3378i.part2.rar
[/HIDE-THANKS]

a695cc49fea1a919ee003f560cbc77a8.jpg


Formátum: dvdrip/avi
Méret: 549 MB
Felbontás: 720x544
Mintavételi frekvencia: 48000 Hz
Bitsebesség: 192 kbps
Műsoridő: 26:40

Részletes média információ:
F:\SMALL_FACES_BBC_LATE_LINE\VIDEO_TS\VTS_02_1.avi
General
Complete name : F:\SMALL_FACES_BBC_LATE_LINE\VIDEO_TS\VTS_02_1.avi
Format : AVI
Format/Info : Audio Video Interleave
File size : 533 MiB
Duration : 26 min
Overall bit rate mode : Variable
Overall bit rate : 2 793 kb/s
Writing application : VirtualDubMod 1.5.4.1 (build 2178/release)
Writing library : VirtualDubMod build 2178/release
Video #0
ID : 0
Format : MPEG-4 Visual
Format profile : Advanced [email protected]
Format settings, BVOP : 1
Format settings, QPel : No
Format settings, GMC : No warppoints
Format settings, Matrix : Custom
Codec ID : XVID
Codec ID/Hint : XviD
Duration : 26 min
Bit rate : 2 616 kb/s
Width : 720 pixels
Height : 544 pixels
Display aspect ratio : 4:3
Frame rate : 23.976 (23976/1000) FPS
Color space : YUV
Chroma subsampling : 4:2:0
Bit depth : 8 bits
Scan type : Progressive
Compression mode : Lossy
Bits/(Pixel*Frame) : 0.279
Stream size : 499 MiB (94%)
Writing library : XviD 1.2.1 (UTC 2008-12-04)
Audio #1
ID : 1
Format : MPEG Audio
Format version : Version 1
Format profile : Layer 3
Mode : Joint stereo
Codec ID : 55
Codec ID/Hint : MP3
Duration : 26 min
Bit rate mode : Variable
Bit rate : 165 kb/s
Nominal bit rate : 192 kb/s
Channel(s) : 2 channels
Sampling rate : 48.0 kHz
Compression mode : Lossy
Stream size : 31.4 MiB (6%)
Alignment : Aligned on interleaves
Interleave, duration : 24 ms (0.58 video frame)
Interleave, preload duration : 527 ms
Writing library : LAME3.98r
Encoding settings : -m j -V 4 -q 2 -lowpass 18.6 --abr 192

Ez egy összeállítás negyedik korongja, a CD-ket lásd flac és mp3 formátumban a helyén.

prémium
[HIDE-THANKS]
Kód:
https://data.hu/get/12385364/D3378a.rar
[/HIDE-THANKS]
vagy free
[HIDE-THANKS]
Kód:
https://data.hu/get/12385373/D3378av.part1.rar
https://data.hu/get/12385367/D3378av.part2.rar
https://data.hu/get/12385362/D3378av.part3.rar
[/HIDE-THANKS]

fc2cd4e84545148874b530d80783b86a.jpg


Small Faces: All Or Nothing
EVDVD160 / 3711532003 RV / Reelin’ In The Years, 2010

01 - Whatcha Gonna Do About It
02 - I've Got Mine
03 - Sha La La La Lee
04 - Plum Nellie / You Need Loving / Baby Please Don't Go
05 - Hey Girl
06 - All Or Nothing
07 - I Can't Make It
08 - Tell Me (Have You Ever Seen Me)
09 - My Way Of Giving
10 - Talk To You
11 - Here Come The Nice
12 - Green Circles
13 - Itchycoo Park
14 - I'm Only Dreaming
15 - Tin Soldier
16 - Lazy Sunday
17 - Ogden's Nut Gone Flake
18 - Song Of A Baker
19 - Happiness Stan
20 - Rollin' Over
21 - The Hungry Intruder
22 - The Journey
23 - Mad John
24 - Happy Days Toy Town
25 - The Universal
26 - Credits

Bonus (csak a dvd-n):

The Complete Performances
01 - Hey Girl (Beat Beat Beat 1996)
02 - Whatcha Gonna Do About It (Beat Beat Beat 1996)
03 - Sha La La La Lee (Beat Beat Beat 1996)
04 - All Or Nothing / Interview / My Generation (Popside 1966)
05 - Hey Girl (Popside 1966)
06 - All Or Nothing (Popside 1966)
07 - I Can't Make It (The Morcambe And Wise Show 1967)
08 - All Or Nothing (The Morcambe And Wise Show 1967)
09 - Tin SOldier (Popside 1968)
10 - Interview (Popside 1968)
11 - Itchycoo Park (Popside 1968)
12 - My Way Of Giving (Popside 1968)
13 - Talk To You (Popside 1968)
14 - Rollin' Over (Popside 1968)
15 - Ogden's Nut Gone Flake (Surprise Partie 1968)
16 - Lazy Sunday (Beat Club 1968)
17 - Song Of Baker (Colour Me Pop 1968)
18 - Happiness Stan (Colour Me Pop 1968)
19 - Rollin' Over (Colour Me Pop 1968)
20 - The Hungry Intruder (Colour Me Pop 1968)
21 - The Journey (Colour Me Pop 1968)
22 - Mad John (Colour Me Pop 1968)
23 - HappyDaysToyTown (Colour Me Pop 1968)

The Last Filmed Interview with Ronnie Lane (March 5,1988)
Photo Gallery Olympic Studios, London 1967 by Eddie Kramer

SMALL FACES:
Steve Marriott - Guitar, Vocals
Ian McLagan - Keyboards, Vocals
Ronnie Lane - Bass, Vocals
Kenney Jones - Drums

with the exception of
I've Got Mine
Steve Marriott - Guitar, Vocals
Jimmy Winston - Guitar, Vocals
Ronnie Lane - Bass, Vocals
Kenney Jones - Drums

Média információ:

Video:
Kodek: MPEG-1/2 Video (mpgv)
Felbontás: 720x480
Képkockasebesség: 29,970030
Képformátum: 1.33:1 (4:3)

Hang:
Kodek: A52 Audio (aka AC3) (a52)
Csatornák: Sztereó
Mintavételi frekvencia: 48000 Hz
Bitsebesség: 192 kb/mp

Formátum: dvd
Méret: 7,50 GB
Műsoridő: 1:41:16 + 1:03:34 + 9:53

(prémium)
[HIDE-THANKS]
Kód:
https://data.hu/get/12385875/D3379d.part1.rar
https://data.hu/get/12385876/D3379d.part2.rar
https://data.hu/get/12385874/D3379d.part3.rar
https://data.hu/get/12385872/D3379d.part4.rar
https://data.hu/get/12385870/D3379d.part5.rar
https://data.hu/get/12385877/D3379d.part6.rar
https://data.hu/get/12385871/D3379d.part7.rar
https://data.hu/get/12385873/D3379d.part8.rar
[/HIDE-THANKS]

7854130b51aab2914abc571c00d377dd.jpg


Formátum: dvdrip/avi
Méret: 1,13 GB
Felbontás: 776x448
Mintavételi frekvencia: 48000 Hz
Bitsebesség: 192 kbps
Műsoridő: 1:41:21

Részletes média információ:
C:\Users\user\Music\Small Faces - All Or Nothing.avi
General
Complete name : C:\Users\user\Music\Small Faces - All Or Nothing.avi
Format : AVI
Format/Info : Audio Video Interleave
Format profile : OpenDML
File size : 1.14 GiB
Duration : 1 h 41 min
Overall bit rate : 1 607 kb/s
Writing application : Lavf51.12.1
Video #0
ID : 0
Format : MPEG-4 Visual
Format profile : [email protected]
Format settings, BVOP : No
Format settings, QPel : No
Format settings, GMC : No warppoints
Format settings, Matrix : Default (H.263)
Codec ID : DX50
Codec ID/Hint : DivX 5
Duration : 1 h 41 min
Bit rate : 1 399 kb/s
Width : 576 pixels
Height : 432 pixels
Display aspect ratio : 4:3
Frame rate : 25.000 FPS
Color space : YUV
Chroma subsampling : 4:2:0
Bit depth : 8 bits
Scan type : Progressive
Compression mode : Lossy
Bits/(Pixel*Frame) : 0.225
Stream size : 1 014 MiB (87%)
Writing library : Lavc51.40.4
Audio #1
ID : 1
Format : MPEG Audio
Format version : Version 1
Format profile : Layer 3
Mode : Joint stereo
Codec ID : 55
Codec ID/Hint : MP3
Duration : 1 h 41 min
Bit rate mode : Constant
Bit rate : 192 kb/s
Channel(s) : 2 channels
Sampling rate : 48.0 kHz
Compression mode : Lossy
Stream size : 139 MiB (12%)
Alignment : Aligned on interleaves
Interleave, duration : 24 ms (0.60 video frame)
Writing library : LAME3.97

prémium
[HIDE-THANKS]
Kód:
https://data.hu/get/12385371/D3379a.part1.rar
https://data.hu/get/12385372/D3379a.part2.rar
[/HIDE-THANKS]
vagy free
[HIDE-THANKS]
Kód:
https://data.hu/get/12385369/D3379av.part1.rar
https://data.hu/get/12385374/D3379av.part2.rar
https://data.hu/get/12385375/D3379av.part3.rar
https://data.hu/get/12385376/D3379av.part4.rar
https://data.hu/get/12385368/D3379av.part5.rar
https://data.hu/get/12385363/D3379av.part6.rar
https://data.hu/get/12385365/D3379av.part7.rar
[/HIDE-THANKS]
 

papadi

Állandó Tag
Bravissimo 2002

91ebf286cbf0120a83ff6aad8beb868e.jpg


Bravissimo 2002 - Az év legnagyobb hazai skágerei
5046620032 Magneoton, 2002

01 - TNT: Kicsi gesztenye
02 - Király Linda: Szerelem utolsó vérig
03 - Romantic: Vágyom rád
04 - All 4 Love: Ölelj át, szeress addig!
05 - Crystal: Álom
06 - V-Tech: Búcsúzz el!
07 - Zsédenyi Adrienn: Valahol egy férfi vár
08 - Fiesta: Hasta Manana
09 - Krisz Rudi: Törd át a csendet
10 - Bon-Bon: Valami Amerika
11 - Unique: Csillagtenger
12 - Náksi vs. Brunner feat. Myrtill: Szállj!
13 - Zanzibár: Szólj már!
14 - Roy & Adám: Túl forró
15 - Ágnes Vanilla: Valaki más (Ugyanaz a szív)
16 - United: Keserü méz
17 - Neo Tones: Holnap hajnalig
18 - Sterbinszky feat. -Jewls: Gates Of Mind

Extra:
COMET Díjátadó Gála (részletek)

Média információ:

Video:
Kodek: MPEG-1/2 Video (mpgv)
Felbontás: 720x576
Képkockasebesség: 25
Képformátum: 1.33:1 (4:3)

Hang:
Kodek: DVD LPCM Audio (lpcm)
Csatornák: Sztereó
Mintavételi frekvencia: 48000 Hz
Bitek mintánként: 16

Formátum: iso
Méret: 4,33 GB
Műsoridő: 1:07:43+47:08

(prémium)
iso
[HIDE-THANKS]
Kód:
https://data.hu/get/12418169/D2579i.part1.rar
https://data.hu/get/12418172/D2579i.part2.rar
https://data.hu/get/12418166/D2579i.part3.rar
https://data.hu/get/12418167/D2579i.part4.rar
https://data.hu/get/12418165/D2579i.part5.rar
[/HIDE-THANKS]

Formátum: vob (csak a klippek)
Méret: 3,63 GB
Műsoridő: 1:07:48

(prémium)
[HIDE-THANKS]
Kód:
https://data.hu/get/12418173/D2579d.part1.rar
https://data.hu/get/12418168/D2579d.part2.rar
https://data.hu/get/12418171/D2579d.part3.rar
https://data.hu/get/12418164/D2579d.part4.rar
[/HIDE-THANKS]


df760a67267b23bcc957db1c3b051cde.jpg


Formátum: dvdrip/avi
Méret: 1,55 GB
Felbontás: 720x336-544
Mintavételi frekvencia: 44100 Hz
Bitsebesség: 294-304 kbps
Műsoridő: 1:07:43+47:08

prémium
[HIDE-THANKS]
Kód:
https://data.hu/get/12417933/D2579a.part1.rar
https://data.hu/get/12417926/D2579a.part2.rar
[/HIDE-THANKS]
vagy free
[HIDE-THANKS]
Kód:
https://data.hu/get/12417930/D2579av.part01.rar
https://data.hu/get/12417928/D2579av.part02.rar
https://data.hu/get/12417934/D2579av.part03.rar
https://data.hu/get/12417937/D2579av.part04.rar
https://data.hu/get/12417936/D2579av.part05.rar
https://data.hu/get/12417929/D2579av.part06.rar
https://data.hu/get/12417935/D2579av.part07.rar
https://data.hu/get/12417932/D2579av.part08.rar
https://data.hu/get/12417927/D2579av.part09.rar
[/HIDE-THANKS]
 

papadi

Állandó Tag
Led Zeppelin: A dal ugyanaz marad (The Song Remains The Same) 1976/2004


133035aa64525a450adb4f58a69b6b43.jpg


Led Zeppelin: A dal ugyanaz marad (The Song Remains The Same)
Z16 91100 11389 Warner Bros / Forum Home, 1976/2004 (HU)
Hang: angol
Felirat: nincs

01 - Mob Rubout
02 - Mob Town Credits
03 - Country Life (Autumn Lake)
04 - Bron-Yr-Aur
05 - Rock and Roll
06 - Black Dog
07 - Since I’ve Been Loving You
08 - No Quarter
09 - Who's Responsible?
10 - The Song Remains the Same
11 - The Rain Song
12 - Fire and Sword
13 - Capturing the Castle
14 - Not Quite Backstage Pass
15 - Dazed and Confused
16 - Strung Out
17 - Magic in the Night
18 - Gate Crasher
19 - No Comment
20 - Stairway to Heaven
21 - Moby Dick
22 - Country Squire Bonham
23 - Heartbreaker
24 - Grand Theft
25 - Whole Lotta Love
26 - End Credits (Stairway to Heaven)

LED ZEPPELIN:
Robert Plant - Vocals and Harmonica
Jimmi Page - Electric and Acoustic Guitars
John Paul Jones - Bass Guitar, Keyboards and Mandolin,
John Bonham - Drums and Percussion

Média információ:

Video:
Kodek: MPEG-1/2 Video (mpgv)
Felbontás: 720x576
Képkockasebesség: 25
Képformátum: 1.85:1 (16:9)

Hang:
Kodek: A52 Audio (aka AC3) (a52)
Csatornák: Sztereó
Mintavételi frekvencia: 48000 Hz
Bitsebesség: 192 kb/mp

Formátum: iso
Méret: 5,53 GB
Műsoridő: 2:12:04

(prémium)
[HIDE-THANKS]
Kód:
https://data.hu/get/12447112/D1209i.part1.rar
https://data.hu/get/12447106/D1209i.part2.rar
https://data.hu/get/12447111/D1209i.part3.rar
https://data.hu/get/12447098/D1209i.part4.rar
https://data.hu/get/12447095/D1209i.part5.rar
https://data.hu/get/12447100/D1209i.part6.rar
[/HIDE-THANKS]

9e04f7be7d95c3bdefdb9dfaa97fe459.jpg


Formátum: dvdrip/avi
Méret: 2,18 GB
Felbontás: 720x400
Mintavételi frekvencia: 48000 Hz
Bitsebesség: 448 kbps
Műsoridő: 2:17:42

Részletes média információ:
I:\0001\DVD-1209 - Led Zeppelin - A dal ugyanaz marad (The Song Remains The Same) 1976\avi\Led Zeppelin - A dal ugyanaz marad (The Song Remains the Same) 1976.avi
General
Complete name : I:\0001\DVD-1209 - Led Zeppelin - A dal ugyanaz marad (The Song Remains The Same) 1976\avi\Led Zeppelin - A dal ugyanaz marad (The Song Remains the Same) 1976.avi
Format : AVI
Format/Info : Audio Video Interleave
Format profile : OpenDML
File size : 2.18 GiB
Duration : 2 h 17 min
Overall bit rate : 2 267 kb/s
Movie name : Led Zeppelin - The Song Remains the Same (1976)
Director : kotjack (HD DVDRip 720p)
Genre : Music Video
Writing application : VirtualDubMod 1.5.10.2 (build 2540/release)
Original source form/Name : Home Video
Copyright : HQ-ViDEO (www.hq-video.ru)
Comment : 27.05.2009
Video #0
ID : 0
Format : MPEG-4 Visual
Format profile : Advanced [email protected]
Format settings, BVOP : 1
Format settings, QPel : No
Format settings, GMC : No warppoints
Format settings, Matrix : Custom
Codec ID : XVID
Codec ID/Hint : XviD
Duration : 2 h 17 min
Bit rate : 1 808 kb/s
Width : 720 pixels
Height : 400 pixels
Display aspect ratio : 16:9
Frame rate : 23.976 (23976/1000) FPS
Color space : YUV
Chroma subsampling : 4:2:0
Bit depth : 8 bits
Scan type : Progressive
Compression mode : Lossy
Bits/(Pixel*Frame) : 0.262
Stream size : 1.74 GiB (80%)
Writing library : XviD 1.2.0.dev47 (UTC 2006-11-01)
Audio #1
ID : 1
Format : AC-3
Format/Info : Audio Coding 3
Mode extension : CM (complete main)
Format settings, Endianness : Big
Codec ID : 2000
Duration : 2 h 17 min
Bit rate mode : Constant
Bit rate : 448 kb/s
Channel(s) : 6 channels
Channel positions : Front: L C R, Side: L R, LFE
Sampling rate : 48.0 kHz
Frame rate : 31.250 FPS (1536 spf)
Compression mode : Lossy
Stream size : 441 MiB (20%)
Alignment : Split accross interleaves
Interleave, duration : 42 ms (1.00 video frame)
Interleave, preload duration : 500 ms

prémium
[HIDE-THANKS]
Kód:
https://data.hu/get/12447359/D1209a.part1.rar
https://data.hu/get/12447366/D1209a.part2.rar
https://data.hu/get/12447362/D1209a.part3.rar
[/HIDE-THANKS]
vagy free
[HIDE-THANKS]
Kód:
https://data.hu/get/12447371/D1209av.part01.rar
https://data.hu/get/12447373/D1209av.part02.rar
https://data.hu/get/12447369/D1209av.part03.rar
https://data.hu/get/12447355/D1209av.part04.rar
https://data.hu/get/12447372/D1209av.part05.rar
https://data.hu/get/12447370/D1209av.part06.rar
https://data.hu/get/12447367/D1209av.part07.rar
https://data.hu/get/12447357/D1209av.part08.rar
https://data.hu/get/12447358/D1209av.part09.rar
https://data.hu/get/12447360/D1209av.part10.rar
https://data.hu/get/12447368/D1209av.part11.rar
https://data.hu/get/12447363/D1209av.part12.rar
[/HIDE-THANKS]
 

papadi

Állandó Tag
The Moody Blues: Live At The Isle Of Wight Festival 1970

d3e1a446cd6db863d1012bcad94ef389.jpg


The Moody Blues: Live At The Isle Of Wight Festival 1970
EV 30272-9 Eagle Vision, 2009 (US)

01 - Threshold Of A Dream
02 - Return To The Island
03 - Isle Of Wight Pop Festival 1970
04 - Tear Down The Fences
05 - Early Beginnings: Bo Diddley
06 - The Mellotron
07 - Psychedelia And Change
08 - Introduction To The Concert
09 - Gypsy
10 - Tuesday Afternoon
11 - Never Comes The Day
12 - Tortoise And The Hare
13 - Questions
14 - The Sunset
15 - Melancholy Man
16 - Nights In White Satin
17 - Legend Of A Mind
18 - Encore: Ride Me See Saw
19 - Reflections
20 - Late Lament

THE MOODY BLUES:
Graeme Edge - Drums
Mike Pinder - Mellotron
Justin Hayward - Guitar, Vocals
John Lodge - Bass
Ray Thomas - Flute, Vocals

Média információ:

Video:
Kodek: MPEG-1/2 Video (mpgv)
Felbontás: 720x480
Képkockasebesség: 29,970030
Képformátum: 16:9

Hang:
Kodek: A52 Audio (aka AC3) (a52)
Csatornák: Sztereó
Mintavételi frekvencia: 48000 Hz
Bitsebesség: 192 kb/mp

Formátum: iso
Méret: 5,60 GB
Műsoridő: 1:18:50

(prémium)
[HIDE-THANKS]
Kód:
https://data.hu/get/12476932/D3377i.part1.rar
https://data.hu/get/12476921/D3377i.part2.rar
https://data.hu/get/12476922/D3377i.part3.rar
https://data.hu/get/12476923/D3377i.part4.rar
https://data.hu/get/12476929/D3377i.part5.rar
https://data.hu/get/12476924/D3377i.part6.rar
[/HIDE-THANKS]

14e8e26d816c12f8ad880ac7248f8f86.jpg


Formátum: dvdrip/avi
Méret: 685 MB
Felbontás: 640x360
Mintavételi frekvencia: 48000 Hz
Bitsebesség: 128 kbps
Műsoridő: 1:18:54

Részletes média információ:
I:\0001\DVD-3377 - The Moody Blues - Live At The Isle Of Wight Festival 1970\Moody Blues ~ Live at the Isle Of Wight Festival ~ 1970 [2009] ~ DVD Rip.avi
General
Complete name : I:\0001\DVD-3377 - The Moody Blues - Live At The Isle Of Wight Festival 1970\Moody Blues ~ Live at the Isle Of Wight Festival ~ 1970 [2009] ~ DVD Rip.avi
Format : AVI
Format/Info : Audio Video Interleave
File size : 682 MiB
Duration : 1 h 18 min
Overall bit rate : 1 208 kb/s
Writing library : VirtualDub build 32559/release
Video #0
ID : 0
Format : MPEG-4 Visual
Format profile : Advanced [email protected]
Format settings, BVOP : 2
Format settings, QPel : No
Format settings, GMC : No warppoints
Format settings, Matrix : Default (H.263)
Muxing mode : Packed bitstream
Codec ID : XVID
Codec ID/Hint : XviD
Duration : 1 h 18 min
Bit rate : 1 066 kb/s
Width : 640 pixels
Height : 360 pixels
Display aspect ratio : 16:9
Frame rate : 29.970 (30000/1001) FPS
Color space : YUV
Chroma subsampling : 4:2:0
Bit depth : 8 bits
Scan type : Progressive
Compression mode : Lossy
Bits/(Pixel*Frame) : 0.154
Stream size : 602 MiB (88%)
Writing library : XviD 1.2.1 (UTC 2008-12-04)
Audio #1
ID : 1
Format : MPEG Audio
Format version : Version 1
Format profile : Layer 3
Mode : Joint stereo
Mode extension : MS Stereo
Codec ID : 55
Codec ID/Hint : MP3
Duration : 1 h 18 min
Bit rate mode : Constant
Bit rate : 128 kb/s
Channel(s) : 2 channels
Sampling rate : 44.1 kHz
Compression mode : Lossy
Stream size : 72.2 MiB (11%)
Alignment : Aligned on interleaves
Interleave, duration : 26 ms (0.78 video frame)
Interleave, preload duration : 992 ms
Writing library : LAME3.97

prémium
[HIDE-THANKS]
Kód:
https://data.hu/get/12476931/D3377a.rar
[/HIDE-THANKS]
vagy free
[HIDE-THANKS]
Kód:
https://data.hu/get/12476925/D3377av.part1.rar
https://data.hu/get/12476926/D3377av.part2.rar
https://data.hu/get/12476927/D3377av.part3.rar
https://data.hu/get/12476930/D3377av.part4.rar
[/HIDE-THANKS]
 

papadi

Állandó Tag
Fonográf - koncert, 2004 + TV-show, 1979

071b16c6e78deccf8b24a87960493357.jpg


Fonográf: Koncert 2004
Kisstadion, 2004. június 4.
magyar kocertfilm, 2004

A koncert rendezője: Bozsogi János
Vezető operatőr: Scheibner Károly
Rendezte: Antók Tamás

A koncert:
01 - Utazás
02 - Mondd, hogy nem haragszol rám
03 - Bánatvirág
04 - Ne vágj ki minden fát
05 - Vén vagyok, akár a föld
06 - Társasjáték
07 - Zazi
08 - Edison Magyarországon
09 - Sajnálom, hogy így esett
10 - Köszönöm, Doktor úr
11 - Hét évig tart
12 - Hol az a lány
13 - Visszatérés
14 - Rám vár az élet
15 - Az első sorban ült
16 - A széllel szemben
17 - Vidéki kislány
18 - A szombat esti lány
19 - Mosolyod vígasztal
20 - Gondolj néha rám
21 - Hunyd le a szemed
22 - Útközben
23 - Wágner úr
24 - Dal az ártatlanságról
25 - Levél a távolból
26 - Jöjj, kedvesem
27 - Az első villamos
28 - Ha felépül végül a házunk
29 - Lökd ide a sört !

FONOGRÁF:
Bródy János - steel gitár
Móricz Mihály - ének, gitár
Németh Oszkár - dob, ütőhangszerek
Szörényi Levente - ének, gitár, hegedű
Szörényi Szabolcs - ének, basszusgitár
Tolcsvay László - ének, billentzyűs hangszerek, gitár, szájharmonika
+
Szörényi Örs - dob, ütőhangszerek
Extrák:
Interjú
Fotóalbum

Média információ:

Video:
Kodek: MPEG-1/2 Video (mpgv)
Felbontás: 720x576
Képkockasebesség: 25
Képformátum: 1.33:1 (4:3)

Hang:
Kodek: A52 Audio (aka AC3) (a52)
Csatornák: Sztereó
Mintavételi frekvencia: 48000 Hz
Bitsebesség: 192 kb/mp

Formátum: iso
Méret: 6,70 GB
Műsoridő: 2:14:12+4:31+5:00

(prémium)
[HIDE-THANKS]
Kód:
https://data.hu/get/12478303/D0824i.part1.rar
https://data.hu/get/12478306/D0824i.part2.rar
https://data.hu/get/12478302/D0824i.part3.rar
https://data.hu/get/12478301/D0824i.part4.rar
https://data.hu/get/12478307/D0824i.part5.rar
https://data.hu/get/12478304/D0824i.part6.rar
https://data.hu/get/12478305/D0824i.part7.rar
[/HIDE-THANKS]

cc209a5773c0765392b34c063559ed2e.jpg


Formátum: dvdrip/avi
Méret: 1,35 GB
Felbontás: 720x544
Mintavételi frekvencia: 48000 Hz
Bitsebesség: 192 kbps
Műsoridő: 2:14:12+4:31

Részletes média információ:
I:\0001\0824 - Fonográf koncert 2004\Fonográf koncert 2004.avi
General
Complete name : I:\0001\0824 - Fonográf koncert 2004\Fonográf koncert 2004.avi
Format : AVI
Format/Info : Audio Video Interleave
File size : 1.31 GiB
Duration : 2 h 14 min
Overall bit rate : 1 395 kb/s
Writing application : VirtualDubMod 1.5.4.1 (build 2178/release)
Writing library : VirtualDubMod build 2178/release
Video #0
ID : 0
Format : MPEG-4 Visual
Format profile : Advanced [email protected]
Format settings, BVOP : 1
Format settings, QPel : No
Format settings, GMC : No warppoints
Format settings, Matrix : Custom
Codec ID : XVID
Codec ID/Hint : XviD
Duration : 2 h 14 min
Bit rate : 1 001 kb/s
Width : 720 pixels
Height : 544 pixels
Display aspect ratio : 4:3
Frame rate : 25.000 FPS
Color space : YUV
Chroma subsampling : 4:2:0
Bit depth : 8 bits
Scan type : Progressive
Compression mode : Lossy
Bits/(Pixel*Frame) : 0.102
Stream size : 961 MiB (72%)
Writing library : XviD 1.2.1 (UTC 2008-12-04)
Audio #1
ID : 1
Format : MPEG Audio
Format version : Version 1
Format profile : Layer 3
Mode : Joint stereo
Codec ID : 55
Codec ID/Hint : MP3
Duration : 2 h 14 min
Bit rate mode : Constant
Bit rate : 192 kb/s
Channel(s) : 2 channels
Sampling rate : 48.0 kHz
Compression mode : Lossy
Stream size : 184 MiB (14%)
Alignment : Aligned on interleaves
Interleave, duration : 80 ms (2.00 video frames)
Interleave, preload duration : 504 ms
Writing library : LAME3.98r
Encoding settings : -m j -V 4 -q 2 -lowpass 18.6 -b 192
Audio #2
ID : 2
Format : MPEG Audio
Format version : Version 1
Format profile : Layer 3
Mode : Joint stereo
Codec ID : 55
Codec ID/Hint : MP3
Duration : 2 h 14 min
Bit rate mode : Constant
Bit rate : 192 kb/s
Channel(s) : 2 channels
Sampling rate : 48.0 kHz
Compression mode : Lossy
Stream size : 184 MiB (14%)
Alignment : Aligned on interleaves
Interleave, duration : 80 ms (2.00 video frames)
Interleave, preload duration : 504 ms
Writing library : LAME3.98r
Encoding settings : -m j -V 4 -q 2 -lowpass 18.6 -b 192

prémium
[HIDE-THANKS]
Kód:
https://data.hu/get/12478381/D0824a.part1.rar
https://data.hu/get/12478382/D0824a.part2.rar
[/HIDE-THANKS]
vagy free
[HIDE-THANKS]
Kód:
https://data.hu/get/12478386/D0824av.part1.rar
https://data.hu/get/12478385/D0824av.part2.rar
https://data.hu/get/12478379/D0824av.part3.rar
https://data.hu/get/12478384/D0824av.part4.rar
https://data.hu/get/12478387/D0824av.part5.rar
https://data.hu/get/12478388/D0824av.part6.rar
https://data.hu/get/12478383/D0824av.part7.rar
https://data.hu/get/12478380/D0824av.part8.rar
[/HIDE-THANKS]

d2692dd13ebc2e111328f34a5b66367f.jpg


Távolból írok kedvesem
Nyári képeslap a Balatonról - A Fonográf együttes műsora
magyar zenés film, 1979 (M3)

Operatőr: Zentay László
Szerkesztő: Tánczos Gábor
Rendezte: Bodnár István

Az elhangzó dalok:

Levél a távolból
Az első villamos
Mondd, hogy nem haragszol rám
Élsz valahol
Bánatvirág
Az első sorban ült
Ne vágj ki minden fát
Vén vagyok akár a Föld
Utazás
Jöjj kedvesem
A széllel szemben
Lökd ide a sört
Levél a távolból

a463060819be66c0cd1a07a0330cbd34.jpg


Formátum: tvrip/mkv
Méret: 825 MB
Felbontás: 710x566
Mintavételi frekvencia: 48000 Hz
Műsoridő: 44:02

Részletes média információ:
C:\Users\user\Music\111\Fonográf - Távolból írok kedvesem - Nyári képeslap a Balatonról (1979).mkv
General
Unique ID : 162732803857338481075562110783574292676 (0x7A6D32AF5C60F319A01B2852DA48B8C4)
Complete name : C:\Users\user\Music\111\Fonográf - Távolból írok kedvesem - Nyári képeslap a Balatonról (1979).mkv
Format : Matroska
Format version : Version 4 / Version 2
File size : 825 MiB
Duration : 44 min
Overall bit rate : 2 620 kb/s
Writing application : Lavf57.25.100
Writing library : Lavf57.25.100 / Lavf57.25.100
Video #1
ID : 1
Format : AVC
Format/Info : Advanced Video Codec
Format profile : [email protected]
Format settings, CABAC : No
Format settings, ReFrames : 4 frames
Codec ID : V_MPEG4/ISO/AVC
Duration : 44 min
Width : 710 pixels
Height : 566 pixels
Display aspect ratio : 5:4
Frame rate mode : Constant
Frame rate : 50.000 FPS
Color space : YUV
Chroma subsampling : 4:2:0
Bit depth : 8 bits
Scan type : Progressive
Default : Yes
Forced : No
DURATION : 00:44:02.552000000
Audio #2
ID : 2
Format : AAC
Format/Info : Advanced Audio Codec
Format profile : LC
Codec ID : A_AAC
Duration : 44 min
Channel(s) : 2 channels
Channel positions : Front: L R
Sampling rate : 48.0 kHz
Frame rate : 46.875 FPS (1024 spf)
Compression mode : Lossy
Delay relative to video : 19 ms
Default : Yes
Forced : No
DURATION : 00:44:02.027000000

Nem saját munka, pár éve szedtem le egy társoldalról, ahol már nem elérhető. Itt sem találtam ezért ráadásként ide teszem, hátha valakinek hiányzik.
Ismételten köszönet érte az eredeti feltöltőnek.


prémium
[HIDE-THANKS]
Kód:
https://data.hu/get/12478403/D2901m.rar
[/HIDE-THANKS]
vagy free
[HIDE-THANKS]
Kód:
https://data.hu/get/12478402/D2901mv.part1.rar
https://data.hu/get/12478398/D2901mv.part2.rar
https://data.hu/get/12478400/D2901mv.part3.rar
https://data.hu/get/12478399/D2901mv.part4.rar
https://data.hu/get/12478401/D2901mv.part5.rar
[/HIDE-THANKS]
 

papadi

Állandó Tag
Dés László: Mi vagyunk a grund! - Aréna koncert 2018

aa2fb223f68bf111baea9d22408793db.jpg


Dés László: Mi vagyunk a grund!
Aréna koncert 2018. december 29.
TTDVD325 - Tom-Tom Records, 2019

Dés László 2018. december 29-én a Budapest Sportaréna színpadán csodálatos hangulatú koncertet adott. A nagyszabású koncerten az elmaradhatatlan slágerek mellett bemutatásra került az Éjféli járat című album, mely Dés László első olyan dallemeze, melyet önmagának, mint énekes előadónak írt, valamint zeneszerzői munkásságából ez alkalommal a színpadi darabok kerültek előtérbe. Az est folyamán felidézték a Valahol Európábant, a Dzsungel könyvét, A Pál utcai fiúkat és természetesen a legfrissebb színpadi művet, a Vágy villamosa balettet is!
A darabok felidézésében minden esetben a futó színházi produkció résztvevői voltak Dés László segítségére, a Valahol Európában gyerekkórusát a Pesti Magyar Színház gyerekkórusának előadásában hallhattuk, míg Hosszú szerepében Medveczky Balázst láthattuk, aki a Szegedi Nemzeti Színház társulatában alakítja a szerepet. A Dzsungel könyve táncosai a Pesti Színház táncosai, míg A Pál utcai fiúk szereplői a Vígszínház színészei voltak.Az Operaház táncművészei, Balaban Cristina és Majoros Balázs a Vágy villamosa-t idézték meg Winand Gábor énekes segítségével.
(Rockdiszkont termékajánló)

01 - Hóesés - impromptu (Dés László - Dés András)
02 - Hóesés (Dés László - Bereményi Géza)
03 - Minden más (Dés László - Bereményi Géza)
04 - Szentiment (Dés László - Parti Nagy Lajos)
05 - Van még idő (Dés László - Nemes István)
06 - Hosszú menet (Dés László - Bereményi Géza)
07 - A szél sodorta el (Dés László - Bródy János)
08 - Szép mesék, rossz mesék (Dés László - Grecsó Krisztián)
09 - Végtelen út (Dés László - Nemes István)
10 - Vándorlás dal (Dés László - Nemes István)
11 - A zene (Dés László - Nemes István)
12 - Zuhanni veled (Dés László - Kemény Zsófi)
13 - Botladozva (Dés László - Bereményi Géza)
14 - Nagy utazás (Dés László - Bereményi Géza)
15 - Dzsungel fantázia három ütősre (Dés László - Dés András)
16 - Csak egy út van (Dés László - Geszti Péter)
17 - A vágy villamosa - Szerelmi Pas de Deux (Dés László)
18 - Add át (Dés László - Geszti Péter)
19 - Éljen a Grund (Dés László - Geszti Péter)
20 - Olyan szépek voltunk (Dés László - Nemes István)
21 - Az éjféli járat (Dés László - Müller Péter Sziámi)
22 - Túlélem (Dés László - Geszti Péter)
23 - Mi vagyunk a Grund! (Dés László - Geszti Péter)

Extra:
Werkfilm

Média információ:

Video:
Kodek: MPEG-1/2 Video (mpgv)
Felbontás: 720x576
Képkockasebesség: 25
Képformátum: 1.33:1 (16:9)

Hang:
Kodek: A52 Audio (aka AC3) (a52)
Csatornák: Sztereó
Mintavételi frekvencia: 48000 Hz
Bitsebesség: 224 kb/mp

Formátum: iso
Méret: 7,52 GB
Műsoridő: 0:08+1:52:59+21:38

(prémium)
[HIDE-THANKS]
Kód:
https://data.hu/get/12510829/D3991i.part1.rar
https://data.hu/get/12510835/D3991i.part2.rar
https://data.hu/get/12510831/D3991i.part3.rar
https://data.hu/get/12510833/D3991i.part4.rar
https://data.hu/get/12510830/D3991i.part5.rar
https://data.hu/get/12510834/D3991i.part6.rar
https://data.hu/get/12510836/D3991i.part7.rar
https://data.hu/get/12510832/D3991i.part8.rar
[/HIDE-THANKS]

829125e6b4f698de1ff41e3c6bfce947.jpg


Formátum: dvdrip/avi
Méret: 2,59 GB
Felbontás: 720x416
Mintavételi frekvencia: 48000 Hz
Bitsebesség: 192 kbps
Műsoridő: 1:52:59+21:38

Részletes média információ:
J:\Dés László - Mi vagyunk a Grund!.avi
General
Complete name : J:\Dés László - Mi vagyunk a Grund!.avi
Format : AVI
Format/Info : Audio Video Interleave
Format profile : OpenDML
File size : 2.21 GiB
Duration : 1 h 52 min
Overall bit rate mode : Variable
Overall bit rate : 2 802 kb/s
Writing application : VirtualDubMod 1.5.4.1 (build 2178/release)
Writing library : VirtualDubMod build 2178/release
Video #0
ID : 0
Format : MPEG-4 Visual
Format profile : Advanced [email protected]
Format settings, BVOP : 1
Format settings, QPel : No
Format settings, GMC : No warppoints
Format settings, Matrix : Custom
Codec ID : XVID
Codec ID/Hint : XviD
Duration : 1 h 52 min
Bit rate : 2 417 kb/s
Width : 720 pixels
Height : 416 pixels
Display aspect ratio : 1.731
Frame rate : 25.000 FPS
Color space : YUV
Chroma subsampling : 4:2:0
Bit depth : 8 bits
Scan type : Progressive
Compression mode : Lossy
Bits/(Pixel*Frame) : 0.323
Stream size : 1.91 GiB (86%)
Writing library : XviD 1.2.1 (UTC 2008-12-04)
Audio #1
ID : 1
Format : MPEG Audio
Format version : Version 1
Format profile : Layer 3
Mode : Joint stereo
Mode extension : MS Stereo
Codec ID : 55
Codec ID/Hint : MP3
Duration : 1 h 52 min
Bit rate mode : Variable
Bit rate : 179 kb/s
Nominal bit rate : 192 kb/s
Channel(s) : 2 channels
Sampling rate : 48.0 kHz
Compression mode : Lossy
Stream size : 144 MiB (6%)
Alignment : Aligned on interleaves
Interleave, duration : 24 ms (0.60 video frame)
Interleave, preload duration : 378 ms
Writing library : LAME3.98r
Encoding settings : -m j -V 4 -q 2 -lowpass 18.6 --abr 192
Audio #2
ID : 2
Format : MPEG Audio
Format version : Version 1
Format profile : Layer 3
Mode : Joint stereo
Mode extension : MS Stereo
Codec ID : 55
Codec ID/Hint : MP3
Duration : 1 h 52 min
Bit rate mode : Variable
Bit rate : 179 kb/s
Nominal bit rate : 192 kb/s
Channel(s) : 2 channels
Sampling rate : 48.0 kHz
Compression mode : Lossy
Stream size : 145 MiB (6%)
Alignment : Aligned on interleaves
Interleave, duration : 24 ms (0.60 video frame)
Interleave, preload duration : 217 ms
Writing library : LAME3.98r
Encoding settings : -m j -V 4 -q 2 -lowpass 18.6 --abr 192

prémium
[HIDE-THANKS]
Kód:
https://data.hu/get/12510838/D3991a.part1.rar
https://data.hu/get/12510851/D3991a.part2.rar
https://data.hu/get/12510843/D3991a.part3.rar
[/HIDE-THANKS]
vagy free
[HIDE-THANKS]
Kód:
https://data.hu/get/12510841/D3991av.part01.rar
https://data.hu/get/12510842/D3991av.part02.rar
https://data.hu/get/12510845/D3991av.part03.rar
https://data.hu/get/12510854/D3991av.part04.rar
https://data.hu/get/12510846/D3991av.part05.rar
https://data.hu/get/12510840/D3991av.part06.rar
https://data.hu/get/12510837/D3991av.part07.rar
https://data.hu/get/12510849/D3991av.part08.rar
https://data.hu/get/12510848/D3991av.part09.rar
https://data.hu/get/12510847/D3991av.part10.rar
https://data.hu/get/12510852/D3991av.part11.rar
https://data.hu/get/12510853/D3991av.part12.rar
https://data.hu/get/12510839/D3991av.part13.rar
https://data.hu/get/12510844/D3991av.part14.rar
[/HIDE-THANKS]
 

papadi

Állandó Tag
Leonard Cohen: Live At The Isle Of Wight 1970

204f69faa788a0a69d509b93e66f3cab.jpg


Leonard Cohen: Live At The Isle Of Wight 1970 (CD+DVD)
88697 57916 2 Columbia / Legacy, 2009 (EU)

01 - Intro: Diamonds In The Mine
02 - Famous Blue Raincoat
03 - “It’s A Large Nation”
04 - Bird On The Wire
05 - One Of Us Cannot Be Wrong
06 - The Stranger Song
07 - Tonight Will Be Fine
08 - “They’ve Surrounded The Island”
09 - Hey, That’s No Way To Say Goodbye
10 - Sing Another Song Boys
11 - Judy Collins Introduces Suzanne
12 - Suzanne
13 - Joan Baez - Confronting Festival Violence
14 - The Partisan
15 - Seems So Long Ago, Nancy
16 - Credits: So Long, Marianne

Média információ:

Video:
Kodek: MPEG-1/2 Video (mpgv)
Felbontás: 720x480
Képkockasebesség: 29,970030
Dekódolt formátum: Planar 4:2:0 YUV

Hang:
Kodek: DVD LPCM Audio (lpcm)
Csatornák: Sztereó
Mintavételi frekvencia: 48000 Hz
Bitek mintánként: 32
Formátum: dvd
Méret: 3,72 GB
Műsoridő: 1:04:41

(prémium)
[HIDE-THANKS]
Kód:
https://data.hu/get/12525920/D3376d.part1.rar
https://data.hu/get/12525918/D3376d.part2.rar
https://data.hu/get/12525923/D3376d.part3.rar
https://data.hu/get/12525922/D3376d.part4.rar
[/HIDE-THANKS]

e6bf84a01ef0210f16acde98756d52b0.jpg


Formátum: dvdrip/avi
Méret: 1,43 GB
Felbontás: 720x400
Mintavételi frekvencia: 48000 Hz
Bitsebesség: 448 kbps
Műsoridő: 1:04:45

Részletes média információ:
I:\0001\DVD-3376 - Leonard Cohen - Live at the Isle of Wight 1970 (2009)\avi\Leonard Cohen - Live at the Isle of Wight 1970 (2009).avi
General
Complete name : I:\0001\DVD-3376 - Leonard Cohen - Live at the Isle of Wight 1970 (2009)\avi\Leonard Cohen - Live at the Isle of Wight 1970 (2009).avi
Format : AVI
Format/Info : Audio Video Interleave
File size : 1.43 GiB
Duration : 1 h 4 min
Overall bit rate : 3 166 kb/s
Writing application : VirtualDubMod 1.5.10.2 (build 2540/release)
Writing library : VirtualDubMod build 2540/release
Video #0
ID : 0
Format : MPEG-4 Visual
Format profile : Advanced [email protected]
Format settings, BVOP : 1
Format settings, QPel : No
Format settings, GMC : No warppoints
Format settings, Matrix : Default (H.263)
Codec ID : XVID
Codec ID/Hint : XviD
Duration : 1 h 4 min
Bit rate : 2 713 kb/s
Width : 720 pixels
Height : 400 pixels
Display aspect ratio : 16:9
Frame rate : 23.976 (23976/1000) FPS
Color space : YUV
Chroma subsampling : 4:2:0
Bit depth : 8 bits
Scan type : Progressive
Compression mode : Lossy
Bits/(Pixel*Frame) : 0.393
Stream size : 1.23 GiB (86%)
Writing library : XviD 1.2.1 (UTC 2008-12-04)
Audio #1
ID : 1
Format : AC-3
Format/Info : Audio Coding 3
Mode extension : CM (complete main)
Format settings, Endianness : Big
Codec ID : 2000
Duration : 1 h 4 min
Bit rate mode : Constant
Bit rate : 448 kb/s
Channel(s) : 6 channels
Channel positions : Front: L C R, Side: L R, LFE
Sampling rate : 48.0 kHz
Frame rate : 31.250 FPS (1536 spf)
Compression mode : Lossy
Stream size : 206 MiB (14%)
Alignment : Aligned on interleaves
Interleave, duration : 42 ms (1.01 video frame)
Interleave, preload duration : 512 ms

prémium
[HIDE-THANKS]
Kód:
https://data.hu/get/12525913/D3376a.part1.rar
https://data.hu/get/12525910/D3376a.part2.rar
[/HIDE-THANKS]

free
[HIDE-THANKS]
Kód:
https://data.hu/get/12525921/D3376av.part1.rar
https://data.hu/get/12525911/D3376av.part2.rar
https://data.hu/get/12525915/D3376av.part3.rar
https://data.hu/get/12525916/D3376av.part4.rar
https://data.hu/get/12525912/D3376av.part5.rar
https://data.hu/get/12525919/D3376av.part6.rar
https://data.hu/get/12525909/D3376av.part7.rar
https://data.hu/get/12525917/D3376av.part8.rar
[/HIDE-THANKS]

Halott linkek miatt újratöltve.
 

papadi

Állandó Tag
Live At Knebworth - The Best British Rock Concert Of All Time 1990

72115cb5469f7a5864972c11224af5ff.jpg


Live At Knebworth - The Best British Rock Concert Of All Time
EVBRD99067 - Eagle Vision, 1990/2002/2015

TEARS FOR FEARS
01. Change
02. Badman's Song
03. Everybody Wants to Rule the World
CLIFF RICHARD & THE SHADOWS
04. On the Beach
05. Good Golly Miss Molly
06. We Don't Talk Anymore
PHIL COLLINS & THE SERIOUS BAND
07. In the Air Tonight
08. Sussudio
PAUL MCCARTNEY
09. Coming Up
10. Birthday
11. Hey Jude
12. Can't Buy Me Love
STATUS QUO
13. Whatever You Want
14. Rockin' All Over the World
15. Dirty Water
16. In the Army Now
ERIC CLAPTON
17. Before You Accuse Me
18. Tearin' Us Apart
DIRE STRAITS
19. Solid Rock
20. Think I Love You Too Much
21. Money For Nothing
ELTON JOHN
22. Sacrifice
23. Sad Songs (Say So Much)
ROBERT PLANT
24. Hurting Kind
25. Tall Cool One
26. Wearing & Tearing (with Jimmy Page)
27. Rock and Roll (with Jimmy Page)
GENESIS
28. Mama
29. Throwing It All Away
30. Turn It On Again Medley: Turn It On Again/ Everybody Needs Somebody to Love/ Reach Out, I'll Be There/ Pinball Wizard/ In the Midnight Hour/ Turn It On Again (Reprise)
PINK FLOYD
31. Shine On You Crazy Diamond
32. Run Like Hell

2ca5457c21ece12b50d1575a333c5787.jpg


Formátum: bdrip/mkv
Méret: 7,95 GB
Felbontás: 936x720
Mintavételi frekvencia: 48000 Hz
Bitsebesség: 384 kbps
Műsoridő: 3:06:52

Részletes média információ:
I:\0001\VA - Live At Knebworth (1990)[BDrip 720p].mkv
General
Unique ID : 246947677154190600040514627383655925740 (0xB9C8648245F6B2D89B012F8F372007EC)
Complete name : I:\0001\VA - Live At Knebworth (1990)[BDrip 720p].mkv
Format : Matroska
Format version : Version 4 / Version 2
File size : 7.96 GiB
Duration : 3 h 6 min
Overall bit rate mode : Variable
Overall bit rate : 6 095 kb/s
Encoded date : UTC 2015-04-08 11:28:00
Writing application : mkvmerge v7.3.0 ('Nouages') 64bit built on Oct 22 2014 18:53:34
Writing library : libebml v1.3.0 + libmatroska v1.4.1
Cover : Yes
Attachments : cover.jpg
Video #1
ID : 1
Format : AVC
Format/Info : Advanced Video Codec
Format profile : [email protected]
Format settings, CABAC : Yes
Format settings, ReFrames : 8 frames
Codec ID : V_MPEG4/ISO/AVC
Duration : 3 h 6 min
Nominal bit rate : 3 590 kb/s
Width : 936 pixels
Height : 720 pixels
Display aspect ratio : 4:3
Frame rate mode : Constant
Frame rate : 29.970 (30000/1001) FPS
Color space : YUV
Chroma subsampling : 4:2:0
Bit depth : 8 bits
Scan type : Progressive
Bits/(Pixel*Frame) : 0.178
Writing library : x264 core 142 r2431 ac76440
Encoding settings : cabac=1 / ref=8 / deblock=1:0:0 / analyse=0x3:0x133 / me=umh / subme=9 / psy=1 / psy_rd=1.00:0.00 / mixed_ref=1 / me_range=16 / chroma_me=1 / trellis=2 / 8x8dct=1 / cqm=0 / deadzone=21,11 / fast_pskip=1 / chroma_qp_offset=-2 / threads=9 / lookahead_threads=1 / sliced_threads=0 / nr=0 / decimate=1 / interlaced=0 / bluray_compat=0 / constrained_intra=0 / bframes=3 / b_pyramid=2 / b_adapt=2 / b_bias=0 / direct=3 / weightb=1 / open_gop=0 / weightp=2 / keyint=300 / keyint_min=29 / scenecut=40 / intra_refresh=0 / rc_lookahead=60 / rc=2pass / mbtree=1 / bitrate=3590 / ratetol=1.0 / qcomp=0.60 / qpmin=0 / qpmax=69 / qpstep=4 / cplxblur=20.0 / qblur=0.5 / vbv_maxrate=62500 / vbv_bufsize=78125 / nal_hrd=none / filler=0 / ip_ratio=1.40 / aq=1:1.00
Language : English
Default : Yes
Forced : No
Audio #2
ID : 2
Format : DTS
Format/Info : Digital Theater Systems
Mode : 16
Format settings, Endianness : Big
Codec ID : A_DTS
Duration : 3 h 6 min
Bit rate mode : Constant
Bit rate : 1 509 kb/s
Channel(s) : 6 channels
Channel positions : Front: L C R, Side: L R, LFE
Sampling rate : 48.0 kHz
Frame rate : 93.750 FPS (512 spf)
Bit depth : 24 bits
Compression mode : Lossy
Stream size : 1.97 GiB (25%)
Title : DTS 6ch
Language : English
Default : Yes
Forced : No
Audio #3
ID : 3
Format : FLAC
Format/Info : Free Lossless Audio Codec
Codec ID : A_FLAC
Duration : 3 h 6 min
Bit rate mode : Variable
Channel(s) : 2 channels
Channel positions : Front: L R
Sampling rate : 48.0 kHz
Bit depth : 24 bits
Title : FLAC 2ch
Writing library : libFLAC 1.2.1 (UTC 2007-09-17)
Language : English
Default : No
Forced : No

prémium
[HIDE-THANKS]
Kód:
https://data.hu/get/12536492/D3395m1.part01.rar
https://data.hu/get/12536500/D3395m1.part02.rar
https://data.hu/get/12536497/D3395m1.part03.rar
https://data.hu/get/12536503/D3395m1.part04.rar
https://data.hu/get/12536502/D3395m1.part05.rar
https://data.hu/get/12536496/D3395m1.part06.rar
https://data.hu/get/12536499/D3395m1.part07.rar
https://data.hu/get/12536495/D3395m1.part08.rar
https://data.hu/get/12536504/D3395m1.part09.rar
[/HIDE-THANKS]

Ha ez túl nagy, van egy kisebb is:

e92ae4545104861637670387027c4656.jpg


Formátum: bdrip/mkv
Méret: 2,90 GB
Felbontás: 648x500
Mintavételi frekvencia: 48000 Hz
Bitsebesség: 384 kbps
Műsoridő: 3:06:52

Részletes média információ:
I:\0001\DVD-xxxx - Live At Knebworth\Live At Knebworth 1990.mkv
General
Unique ID : 189091070053168468424764779475265330341 (0x8E419D8B0FC75C6E80E73422E4D31CA5)
Complete name : I:\0001\DVD-xxxx - Live At Knebworth\Live At Knebworth 1990.mkv
Format : Matroska
Format version : Version 4 / Version 2
File size : 2.91 GiB
Duration : 3 h 6 min
Overall bit rate : 2 227 kb/s
Encoded date : UTC 2015-04-08 19:53:12
Writing application : mkvmerge v7.8.0 ('River Man') 64bit built on Mar 27 2015 16:31:37
Writing library : libebml v1.3.1 + libmatroska v1.4.2
Video #1
ID : 1
Format : AVC
Format/Info : Advanced Video Codec
Format profile : [email protected]
Format settings, CABAC : Yes
Format settings, ReFrames : 14 frames
Codec ID : V_MPEG4/ISO/AVC
Duration : 3 h 6 min
Bit rate : 1 841 kb/s
Width : 648 pixels
Height : 500 pixels
Display aspect ratio : 1.296
Frame rate mode : Constant
Frame rate : 29.970 (30000/1001) FPS
Color space : YUV
Chroma subsampling : 4:2:0
Bit depth : 8 bits
Scan type : Progressive
Bits/(Pixel*Frame) : 0.190
Stream size : 2.40 GiB (83%)
Writing library : x264 core 146 r2538 121396c
Encoding settings : cabac=1 / ref=14 / deblock=1:-2:-2 / analyse=0x3:0x113 / me=umh / subme=9 / psy=1 / psy_rd=1.00:0.05 / mixed_ref=1 / me_range=24 / chroma_me=1 / trellis=2 / 8x8dct=1 / cqm=0 / deadzone=21,11 / fast_pskip=0 / chroma_qp_offset=-3 / threads=12 / lookahead_threads=2 / sliced_threads=0 / nr=0 / decimate=1 / interlaced=0 / bluray_compat=0 / constrained_intra=0 / bframes=8 / b_pyramid=2 / b_adapt=2 / b_bias=0 / direct=3 / weightb=1 / open_gop=0 / weightp=2 / keyint=250 / keyint_min=25 / scenecut=40 / intra_refresh=0 / rc_lookahead=50 / rc=2pass / mbtree=0 / bitrate=1841 / ratetol=1.0 / qcomp=0.60 / qpmin=0 / qpmax=69 / qpstep=4 / cplxblur=20.0 / qblur=0.5 / vbv_maxrate=20000 / vbv_bufsize=20000 / nal_hrd=none / filler=0 / ip_ratio=1.40 / pb_ratio=1.30 / aq=2:1.00
Language : English
Default : Yes
Forced : No
Audio #2
ID : 2
Format : AC-3
Format/Info : Audio Coding 3
Mode extension : CM (complete main)
Format settings, Endianness : Big
Codec ID : A_AC3
Duration : 3 h 6 min
Bit rate mode : Constant
Bit rate : 384 kb/s
Channel(s) : 6 channels
Channel positions : Front: L C R, Side: L R, LFE
Sampling rate : 48.0 kHz
Frame rate : 31.250 FPS (1536 spf)
Compression mode : Lossy
Stream size : 513 MiB (17%)
Language : English
Default : Yes
Forced : No

prémium
[HIDE-THANKS]
Kód:
https://data.hu/get/12536670/D3395m2.part1.rar
https://data.hu/get/12536672/D3395m2.part2.rar
https://data.hu/get/12536671/D3395m2.part3.rar
https://data.hu/get/12536673/D3395m2.part4.rar
[/HIDE-THANKS]
vagy free
[HIDE-THANKS]
Kód:
https://data.hu/get/12536833/D3395m2.part01.rar
https://data.hu/get/12536858/D3395m2.part02.rar
https://data.hu/get/12536856/D3395m2.part03.rar
https://data.hu/get/12536835/D3395m2.part04.rar
https://data.hu/get/12536852/D3395m2.part05.rar
https://data.hu/get/12536838/D3395m2.part06.rar
https://data.hu/get/12536848/D3395m2.part07.rar
https://data.hu/get/12536853/D3395m2.part08.rar
https://data.hu/get/12536836/D3395m2.part09.rar
https://data.hu/get/12536846/D3395m2.part10.rar
https://data.hu/get/12536844/D3395m2.part11.rar
https://data.hu/get/12536837/D3395m2.part12.rar
https://data.hu/get/12536842/D3395m2.part13.rar
https://data.hu/get/12536840/D3395m2.part14.rar
https://data.hu/get/12536850/D3395m2.part15.rar
https://data.hu/get/12536834/D3395m2.part16.rar
[/HIDE-THANKS]
 

papadi

Állandó Tag
96387b46fa6dfc5c698340dc1100cf2b.jpg


A New Musical Express két díjkiosztója (1964-65)

74a43c651c39f6f66f5a2b73289acf8b.jpg


Big Beat '64 - NME Poll Winners Concert 1964
April 26, 1964 at Wembley Stadium
VHSRip, 2007

01 - Introduction
02 - The Joe Loss Orchestra
03 - Derek Johnson / Jimmy Saville Intro
04 - The Hollies - Rockin' Robin
05 - The Hollies - Just One Look
06 - The Rolling Stones - Not Fade Away
07 - The Rolling Stones - I Just Wanna Make Love To You
08 - The Rolling Stones - I'm Alright
09 - The Joe Loss Orchestra
10 - The Swinging Blue Jeans - Shake Rattle And Roll
11 - The Swinging Blue Jeans - Good Golly Miss Molly
12 - The Searchers - Farmer John
13 - The Searchers - Don't Throw Your Love Away
14 - The Searchers - What'd I Say
15 - Freddie And The Dreamers - Kansas City
16 - Freddie And The Dreamers - Send Me Some Loving
17 - Freddie And The Dreamers - Short Shorts
18 - Brian Poole & The Tremeloes - Candy Man
19 - Brian Poole & The Tremeloes - Do You Love Me
20 - End Of Part I/Intro Part II
21 - Manfred Mann - Sticks And Stones
22 - Manfred Mann - Hubble Bubble (Toils And Trouble)
23 - Jet Harris & The Innocents - Diamonds
24 - Jet Harris & The Innocents - Big Bad Bass
25 - Kathy Kirby - You're The One
26 - Kathy Kirby - Acapulco 22
27 - Billy J. Kramer & The Dakotas - I'll Keep You Satisfied
28 - Billy J. Kramer & The Dakotas - They Remind Me Of You
29 - The Merseybeats - I Think Of You
30 - The Merseybeats - Don't Turn Around
31 - The Merseybeats - I'm Gonna Sit Right Down And Cry Over You
32 - Big Dee Irwin & The Diamonds - Happy Being Fat
33 - Joe Brown & The Bruvvers - I'm Henry The VIII, I Am
34 - Joe Brown & The Bruvvers - The Sequilidas
35 - Joe Brown & The Bruvvers - What A Crazy World We're Living In
36 - Roy Orbison Presents Award To Joe Brown
37 - Gerry And The Pacemakers - I Like It
38 - Gerry And The Pacemakers - I'm The One
39 - Gerry And The Pacemakers - Don't Let The Sun Catch You Crying
40 - Award Presentations With Roger Moore
41 - Murray The K Introduces The Beatles
42 - The Beatles - She Loves You
43 - The Beatles - You Can't Do That
44 - The Beatles - Twist And Shout
45 - The Beatles - Long Tall Sally
46 - The Beatles - Can't Buy Me Love

Média információ:

Video:
Kodek: MPEG-1/2 Video (mpgv)
Felbontás: 720x480
Képkockasebesség: 29,970030
Képformátum: 1.33:1 (4:3)

Hang:
Kodek: A52 Audio (aka AC3) (a52)
Csatornák: Sztereó
Mintavételi frekvencia: 48000 Hz
Bitsebesség: 256 kb/mp

Formátum: dvd
Méret: 4,62 GB
Műsoridő: 2:01:03

(prémium)
[HIDE-THANKS]
Kód:
https://data.hu/get/12596233/D3405d.part1.rar
https://data.hu/get/12596228/D3405d.part2.rar
https://data.hu/get/12596241/D3405d.part3.rar
https://data.hu/get/12596234/D3405d.part4.rar
https://data.hu/get/12596237/D3405d.part5.rar
[/HIDE-THANKS]

8b500ab7234a5321562fccbee9d90b0a.jpg


Formátum: dvdrip/avi
Méret: 1,85 GB
Felbontás: 720x544
Mintavételi frekvencia: 48000 Hz
Bitsebesség: 192 kbps
Műsoridő: 2:01:03

Részletes média információ:
C:\Users\user\Videos\NME Poll Winners Concert 1964.avi
General
Complete name : C:\Users\user\Videos\NME Poll Winners Concert 1964.avi
Format : AVI
Format/Info : Audio Video Interleave
File size : 1.85 GiB
Duration : 2 h 1 min
Overall bit rate : 2 194 kb/s
Writing application : VirtualDubMod 1.5.4.1 (build 2178/release)
Writing library : VirtualDubMod build 2178/release
Video #0
ID : 0
Format : MPEG-4 Visual
Format profile : Advanced [email protected]
Format settings, BVOP : 1
Format settings, QPel : No
Format settings, GMC : No warppoints
Format settings, Matrix : Custom
Codec ID : XVID
Codec ID/Hint : XviD
Duration : 2 h 1 min
Bit rate : 1 993 kb/s
Width : 720 pixels
Height : 544 pixels
Display aspect ratio : 4:3
Frame rate : 29.970 (29970/1000) FPS
Color space : YUV
Chroma subsampling : 4:2:0
Bit depth : 8 bits
Scan type : Progressive
Compression mode : Lossy
Bits/(Pixel*Frame) : 0.170
Stream size : 1.69 GiB (91%)
Writing library : XviD 1.2.1 (UTC 2008-12-04)
Audio #1
ID : 1
Format : MPEG Audio
Format version : Version 1
Format profile : Layer 3
Mode : Joint stereo
Mode extension : MS Stereo
Codec ID : 55
Codec ID/Hint : MP3
Duration : 2 h 1 min
Bit rate mode : Constant
Bit rate : 192 kb/s
Channel(s) : 2 channels
Sampling rate : 48.0 kHz
Compression mode : Lossy
Stream size : 166 MiB (9%)
Alignment : Aligned on interleaves
Interleave, duration : 67 ms (2.00 video frames)
Interleave, preload duration : 504 ms
Writing library : LAME3.98r
Encoding settings : -m j -V 4 -q 2 -lowpass 18.6 -b 192

prémium
[HIDE-THANKS]
Kód:
https://data.hu/get/12596230/D3405a.part1.rar
https://data.hu/get/12596243/D3405a.part2.rar
[/HIDE-THANKS]
vagy free
[HIDE-THANKS]
Kód:
https://data.hu/get/12596236/D3405av.part01.rar
https://data.hu/get/12596238/D3405av.part02.rar
https://data.hu/get/12596240/D3405av.part03.rar
https://data.hu/get/12596232/D3405av.part04.rar
https://data.hu/get/12596227/D3405av.part05.rar
https://data.hu/get/12596244/D3405av.part06.rar
https://data.hu/get/12596229/D3405av.part07.rar
https://data.hu/get/12596239/D3405av.part08.rar
https://data.hu/get/12596245/D3405av.part09.rar
https://data.hu/get/12596231/D3405av.part10.rar
[/HIDE-THANKS]

19f0eed9c2efa2ad0b5817ddac8a3573.jpg


NME Poll Winners Concert 1965
April 21, 1965 at Wembley Stadium
VHSRip, 2005

DVD1
01 - Introduction
02 - The Moody Blues - Bo Diddley
03 - The Moody Blues - Go Now
04 - Freddie And The Dreamers - Little Bitty Pretty One
05 - Freddie And The Dreamers - A Little You
06 - Georgie Fame And The Blue Flames - Walking The Dog
07 - The Seekers - I'll Never Find Another You
08 - The Seekers - A World Of Our Own
09 - Herman's Hermits - Wonderful World
10 - Herman's Hermits - Mrs. Brown You've Got A Lovely Daughter
11 - The Ivy League And Division Two - Funny How Love Can Be
12 - Sounds Incorporated - Time For You
13 - Wayne Fontana And The Mindbenders - Game Of Love
14 - Wayne Fontana And The Mindbenders - Just A Little Bit Too Late
15 - The Rolling Stones - Everybody Needs Somebody To Love/Pain In My Heart
16 - The Rolling Stones - Around And Around
17 - The Rolling Stones - The Last Time
18 - Cilla Black With Sounds Incorporated - Zip-A-Dee-Doo-Dah

DVD2
01 - Donovan - You're Gonna Need Somebody On Your Bond
02 - Donovan - Catch The Wind
03 - Them - Here Comes The Night
04 - Them - Turn On Your Love Light
05 - The Searchers - Let The Good Times Roll
06 - Dusty Springfield With The Echoes - Mockingbird
07 - The Animals - Boom Boom
08 - The Animals - Don't Let Me Be Misunderstood
09 - The Animals - Talkin' Bout You
10 - The Beatles - I Feel Fine
11 - The Beatles - She's A Woman
12 - The Beatles - Baby's In Black
13 - The Beatles - Ticket To Ride
14 - The Beatles - Long Tall Sally
15 - Awards Presentation - The Beatles
16 - The Kinks - You Really Got Me
17 - The Kinks - Tired Of Waiting For You
18 - Awards Presentation - The Kinks

Média információ:

Video:
Kodek: MPEG-1/2 Video (mpgv)
Felbontás: 720x480
Képkockasebesség: 29,970030
Képformátum: 1.33:1 (4:3)

Hang:
Kodek: DVD LPCM Audio (lpcm)
Csatornák: Sztereó
Mintavételi frekvencia: 48000 Hz
Bitek mintánként: 16

Formátum: dvd
Méret: 7,54 GB
Műsoridő: 1:02:04+1:02:16

(prémium)
[HIDE-THANKS]
Kód:
https://data.hu/get/12596505/D3406d.part1.rar
https://data.hu/get/12596504/D3406d.part2.rar
https://data.hu/get/12596508/D3406d.part3.rar
https://data.hu/get/12596501/D3406d.part4.rar
https://data.hu/get/12596509/D3406d.part5.rar
https://data.hu/get/12596507/D3406d.part6.rar
https://data.hu/get/12596500/D3406d.part7.rar
https://data.hu/get/12596510/D3406d.part8.rar
[/HIDE-THANKS]

888d5c3ca939e1881680db9b6a68b8ee.jpg


Formátum: dvdrip/avi
Méret: 1,85 GB
Felbontás: 720x544
Mintavételi frekvencia: 48000 Hz
Bitsebesség: 192 kbps
Műsoridő: 2:04:31

Részletes média információ:
C:\Users\user\Videos\NME Poll WInners Concert 1965.avi
General
Complete name : C:\Users\user\Videos\NME Poll WInners Concert 1965.avi
Format : AVI
Format/Info : Audio Video Interleave
File size : 1.85 GiB
Duration : 2 h 4 min
Overall bit rate : 2 132 kb/s
Writing application : VirtualDubMod 1.5.4.1 (build 2178/release)
Writing library : VirtualDubMod build 2178/release
Video #0
ID : 0
Format : MPEG-4 Visual
Format profile : Advanced [email protected]
Format settings, BVOP : 1
Format settings, QPel : No
Format settings, GMC : No warppoints
Format settings, Matrix : Custom
Codec ID : XVID
Codec ID/Hint : XviD
Duration : 2 h 4 min
Bit rate : 1 931 kb/s
Width : 720 pixels
Height : 544 pixels
Display aspect ratio : 4:3
Frame rate : 29.970 (29970/1000) FPS
Color space : YUV
Chroma subsampling : 4:2:0
Bit depth : 8 bits
Scan type : Progressive
Compression mode : Lossy
Bits/(Pixel*Frame) : 0.165
Stream size : 1.68 GiB (91%)
Writing library : XviD 1.2.1 (UTC 2008-12-04)
Audio #1
ID : 1
Format : MPEG Audio
Format version : Version 1
Format profile : Layer 3
Mode : Joint stereo
Mode extension : MS Stereo
Codec ID : 55
Codec ID/Hint : MP3
Duration : 2 h 4 min
Bit rate mode : Constant
Bit rate : 192 kb/s
Channel(s) : 2 channels
Sampling rate : 48.0 kHz
Compression mode : Lossy
Stream size : 171 MiB (9%)
Alignment : Aligned on interleaves
Interleave, duration : 67 ms (2.00 video frames)
Interleave, preload duration : 504 ms
Writing library : LAME3.98r
Encoding settings : -m j -V 4 -q 2 -lowpass 18.6 -b 192

prémium
[HIDE-THANKS]
Kód:
https://data.hu/get/12596617/D3406a.part1.rar
https://data.hu/get/12596625/D3406a.part2.rar
[/HIDE-THANKS]
vagy free
[HIDE-THANKS]
Kód:
https://data.hu/get/12596618/D3406av.part01.rar
https://data.hu/get/12596622/D3406av.part02.rar
https://data.hu/get/12596626/D3406av.part03.rar
https://data.hu/get/12596621/D3406av.part04.rar
https://data.hu/get/12596620/D3406av.part05.rar
https://data.hu/get/12596623/D3406av.part06.rar
https://data.hu/get/12596615/D3406av.part07.rar
https://data.hu/get/12596619/D3406av.part08.rar
https://data.hu/get/12596624/D3406av.part09.rar
https://data.hu/get/12596616/D3406av.part10.rar
[/HIDE-THANKS]
 

papadi

Állandó Tag
Canfy Dulfer három koncertje

e6b44aa7b9213a39cbfa27175b5a53ca.jpg


Candy Dulfer: Ohne Filter Musik Pur - Candy Dulfer in Concert '93
SWR, 1993 (SATRip) (DE)

1 - Starting Too Slow
2 - So What
3 - Mr. Marvin
4 - Jamming
5 - Pick Up The Pieces
6 - Man In The Desert
7 - Sax-A-Go-Go
8 - Got To Get Ya

Média információ:

Video:
Kodek: MPEG-1/2 Video (mpgv)
Felbontás: 720x576
Képkockasebesség: 25
Képformátum: 1.33:1 (4:3)

Hang:
Kodek: A52 Audio (aka AC3) (a52)
Csatornák: Sztereó
Mintavételi frekvencia: 48000 Hz
Bitsebesség: 384 kb/mp

Formátum: dvd
Méret: 3,70 GB
Műsoridő: 59:50

(prémium)
Kód:
https://data.hu/get/12712395/D3413d.part1.rar
https://data.hu/get/12712393/D3413d.part2.rar
https://data.hu/get/12712397/D3413d.part3.rar
https://data.hu/get/12712394/D3413d.part4.rar

ef7862bb2175df4ce841ab1f3a22fefc.jpg


Candy Dulfer & Funky Stuff: Ohne Filter Musik Pur - Candy Dulfer & Funky Stuff in Concert '97
SWR, 1997 (SATRip) (DE)

1 - Saxy Mood
2 - For The Love Of You
3 - Sunday Cool
4 - Alright
5 - Rock Me Again And Again
6 - I'm A Woman
7 - Can't Fight The Feeling
8 - Pick Up The Pieces
9 - Pass The Peas

Média információ:

Video:
Kodek: MPEG-1/2 Video (mpgv)
Felbontás: 720x576
Képkockasebesség: 25
Képformátum: 1.33:1 (4:3)

Hang:
Kodek: A52 Audio (aka AC3) (a52)
Csatornák: Sztereó
Mintavételi frekvencia: 48000 Hz
Bitsebesség: 384 kb/mp

Formátum: dvd
Méret: 3,68 GB
Műsoridő: 59:20

(prémium)
Kód:
https://data.hu/get/12712402/D3414d.part1.rar
https://data.hu/get/12712399/D3414d.part2.rar
https://data.hu/get/12712401/D3414d.part3.rar
https://data.hu/get/12712396/D3414d.part4.rar

b374cb296ed874cf9b47f580e319148c.jpg


Candy Dulfer: Live In Amsterdam
74321 826089 - Ariola, 2001 (EU)

Concert - 1:05:57
01 - Introvert
02 - Bob's Jazz
03 - Omara's Dance
04 - For The Love Of You
05 - Sax-A-Go-Go
06 - Lily Was Here
07 - Synchrodestiny
08 - Nikki's Dream
09 - Pick Up The Pieces
10 - Dance 'till You Bop Revisited

CANDY DULFER - Altosax and Vocals
Ulco Bed - Guitar
Thomas Bank - Hammond Orga and Keyboards
Roger Happel - Vocals, Rhodes and Keyboards
Peter Lieberom - Tenor Sax and Vocals
Jan van Duikeren - Trumpet and Vocals
Oscar Kraal - Drums and Vocals
Manuel Hugas - Bass

Special Guests:
Dave Stewart - Guitar and Electric Sitar (06-07)
Angie Stone - Lead Vocals (04)
Hans Dulfer - Tenor Sax (10)

Extra:
Slide Show - 12:00
Behind The Scenes - 10:21
Original Video Clips:
01 - Lily Was Here - 4:23
02 - Saxuality - 3:49
03 - Sax-A-Go-Go - 4:00
04 - For The Love Of You - 4:04
05 - Cookie's Fortune - 4:04

Média információ:

Video:
Kodek: MPEG-1/2 Video (mpgv)
Felbontás: 720x576
Képkockasebesség: 25
Képformátum: 1.33:1 (4:3)

Hang:
Kodek: A52 Audio (aka AC3) (a52)
Csatornák: Sztereó
Mintavételi frekvencia: 48000 Hz
Bitsebesség: 448 kb/mp

Formátum: dvd
Méret: 4,20 GB
Műsoridő: 1:44:38

(prémium)
Kód:
https://data.hu/get/12712429/D3415d.part1.rar
https://data.hu/get/12712432/D3415d.part2.rar
https://data.hu/get/12712431/D3415d.part3.rar
https://data.hu/get/12712435/D3415d.part4.rar
https://data.hu/get/12712430/D3415d.part5.rar
 

zife

Állandó Tag
Búcsúztassuk együtt 2020-at! - A Budapesti Operettszínház Operett- és Musical-gálaműsora

BÚÉK 2021!.jpg
  • A legnépszerűbb operett- és musical-részletek
  • Olyan szerzők művei, mint Webber, Bernstein, Strauss és Kálmán - és még sokan mások
  • Több, mint negyven szólista mellett közreműködik a Budapesti Operettszínház zenekara, énekkara, musical-együttese és balett-együttese
  • Lenyűgöző színpadkép, látványos jelmezek
A gálán fellépő művészek:
Bálint Ádám, Bojtos Luca, Bordás Barbara, Cseh Dávid Péter, Dancs Annamari, Dénes Viktor, Dolhai Attila, Erdős Attila, Fischl Mónika, Földes Tamás, Frankó Tünde, Füredi Nikolett, Gubik Petra, György-Rózsa Sándor, Homonnay Zsolt, Janza Kata, Kalocsai Zsuzsa, Kardffy Aisha, Kékkovács Mara, Kerényi Miklós Máté, Kiss Diána, Kiss Zoltán, Kocsis Dénes, Laki Péter, Langer Soma, Lévai Enikő, Lukács Anita, Mészáros Árpád Zsolt, Nádasi Veronika, Németh Attila, Oszvald Marika, Pálfalvy Attila, Peller Anna, Peller Károly, Pete Ádám, Polyák Lilla, Sándor Péter, Siménfalvy Ágota, Süle Dalma, Szabó P. Szilveszter, Széles Flóra, Szendi Szilvi, Vadász Zsolt, Vágó Zsuzsi

Koreográfus: Lénárt Gábor
Karmester: Pfeiffer Gyula
Rendező: Somogyi Szilárd

Médiainformációk:
Formátum : MPEG-4
Formátum profil : Base Media
Kódek azonosító : isom (isom/iso2/avc1/mp41)
Fájlméret : 2,24 GiB
Időtartam : 2 óra 21 perc 18 mp
Teljes adatsebesség : változó
Teljes adatsebesség : 2 269 kb/s

Kép
Sáv száma : 1
Formátum : AVC
Formátum/adatok : Advanced Video Codec
Formátum profil : [email protected]
Formátum beállítások : CABAC / 3 Ref Frames
Formátum beállítások, CABAC : igen
Formátum beállítások, RefFrames : 3 képkocka
Format settings, GOP : M=4, N=125
Kódek azonosító : avc1
Kódek azonosító/adatok : Advanced Video Coding
Időtartam : 2 óra 21 perc 18 mp
Source duration : 2 óra 21 perc 18 mp
Adatsebesség : 2 132 kb/s
Szélesség : 1 280 képpont
Magasság : 720 képpont
Képarány : 16:9
Képkockasebességi mód : változó
Képkockasebesség : 25,000 FPS
Legkisebb képkockasebesség : 5,000 FPS
Legnagyobb képkockasebesség : 111,111 FPS
Color space : YUV
Chroma subsampling : 4:2:0
Bit depth : 8 bit
Sorváltás típusa : folytonos
Bit/(képpont*képkocka) : 0.093
Adatfolyam mérete : 2,10 GiB (94%)
Source stream size : 2,10 GiB (94%)
mdhd_Duration : 8478916
Codec configuration box : avcC

Hang
Sáv száma : 2
Formátum : AAC LC
Formátum/adatok : Advanced Audio Codec Low Complexity
Kódek azonosító : mp4a-40-2
Időtartam : 2 óra 21 perc 18 mp
Source duration : 2 óra 21 perc 18 mp
Adatsebesség mód : változó
Adatsebesség : 128 kb/s
Legnagyobb adatsebesség : 197 kb/s
Csatornák száma : 2 csatorna
Channel layout : L R
Mintavételezési gyakoriság : 48,0 kHz
Képkockasebesség : 46,875 FPS (1024 SPF)
Compression mode : Lossy
Adatfolyam mérete : 129 MiB (6%)
Source stream size : 129 MiB (6%)
mdhd_Duration : 8478912

Link: https://mega.nz/file/GttxVSjY#T5OZcNkNaDrze_nUoFvgTAsGNqPe453cD7H-e8z1H54
 
Utoljára módosítva:

zife

Állandó Tag
Trianon - Zenés történelmi játék (Budapest, Hősök tere, 2018. június 22-23.)

Trianon.jpg

Szimfonikus hangszerelésű rockopera.

Zeneszerző: Koltay Gergely

Közreműködő színészek, énekesek:
Varga Miklós, Vadkerti Imre, Kalapács József, Rudán Joe, Sipos Imre, Benkő Péter, Laklóth Aladár, Ruttkay Laura, Palcsó Tamás, Fehér Nóra, Bodnár Vivien, Kuczmann Ágnes, Varga Vivien, Varga Szabolcs és Szentgyörgyváry Laura, valamint több száz táncos, statiszta, lovas, artista

Médiainformációk
Formátum profil : Base Media
Kódek azonosító : isom (isom/iso2/avc1/mp41)
Fájlméret : 445 MiB
Időtartam : 1 óra 59 perc 39 mp
Teljes adatsebesség : 520 kb/s
Film : TRIANON - Zenés Történelmi Játék (Budapest, Hősök tere, 2018. június 22-23.)
Előadó : Kormorán
Rögzítés dátuma : 2018
Kódoló szoftver : Lavf58.18.104

Kép
Sáv száma : 1
Formátum : AVC
Formátum/adatok : Advanced Video Codec
Formátum profil : [email protected]
Formátum beállítások : CABAC / 3 Ref Frames
Formátum beállítások, CABAC : igen
Formátum beállítások, RefFrames : 3 képkocka
Kódek azonosító : avc1
Kódek azonosító/adatok : Advanced Video Coding
Időtartam : 1 óra 59 perc 39 mp
Adatsebesség : 385 kb/s
Szélesség : 640 képpont
Magasság : 356 képpont
Képarány : 16:9
Képkockasebességi mód : állandó
Képkockasebesség : 25,000 FPS
Color space : YUV
Chroma subsampling : 4:2:0
Bit depth : 8 bit
Sorváltás típusa : folytonos
Bit/(képpont*képkocka) : 0.068
Adatfolyam mérete : 330 MiB (74%)
Color range : Limited
Matrix coefficients : BT.709
Codec configuration box : avcC

Hang
Sáv száma : 2
Formátum : AAC LC
Formátum/adatok : Advanced Audio Codec Low Complexity
Kódek azonosító : mp4a-40-2
Időtartam : 1 óra
Adatsebesség mód : állandó
Adatsebesség : 128 kb/s
Csatornák száma : 2 csatorna
Channel layout : L R
Mintavételezési gyakoriság : 44,1 kHz
Képkockasebesség : 43,066 FPS (1024 SPF)
Compression mode : Lossy
Adatfolyam mérete : 110 MiB (25%)
Default : igen
Alternate group : 1

Link: https://mega.nz/file/qwEVjYgL#dRSCbjWDit-kB-cTvE7EHLCptK4gtkE8eBA7tiahxhY
 
Utoljára módosítva:

zife

Állandó Tag
István, a király (1984) - Rockopera

Iak.jpg

Szereplők:
Pelsőczy László, Varga Miklós, Sára Bernadett, Vikidál Gyula, Berek Kati, Victor Máté, Juhász Jácint, Körtvélyessy Zsolt, Deák Bill Gyula, Nagy Feró, Halmágyi Sándor, Kovács Ottilia, Sebestyén Márta, Balázs Péter, Szakácsi Sándor

Rendező: Koltay Gábor
Író: Boldizsár Miklós
Forgatókönyvíró: Bródy János, Koltay Gábor, Szörényi Levente
Zeneszerző: Szörényi Levente, Szörényi Szabolcs

Médiainformációk
Formátum: MPEG-4
Formátum profil: Base Media
Kódek azonosító: isom (isom/iso2/avc1/mp41)
Fájlméret: 377 MiB
Időtartam: 1 óra
Teljes adatsebesség: 561 kb/s
Film: István, a király (1984)
Kódoló szoftver: Lavf58.18.104

Kép
Sáv száma: 1
Formátum: AVC
Formátum/adatok: Advanced Video Codec
Formátum profil: [email protected]
Formátum beállítások: CABAC / 3 Ref Frames
Formátum beállítások, CABAC: igen
Formátum beállítások, RefFrames: 3 képkocka
Kódek azonosító: avc1
Kódek azonosító/adatok: Advanced Video Coding
Időtartam: 1 óra 33 perc 59 mp
Adatsebesség: 429 kb/s
Szélesség: 646 képpont
Magasság: 480 képpont
Képarány: 4:3
Képkockasebességi mód: állandó
Képkockasebesség: 25,000 FPS
Color space: YUV
Chroma subsampling: 4:2:0
Bit depth : 8 bit
Sorváltás típusa: folytonos
Bit/(képpont*képkocka): 0.055
Adatfolyam mérete: 289 MiB (76%)
Codec configuration box: avcC

Hang
Sáv száma: 2
Formátum: AAC LC
Formátum/adatok: Advanced Audio Codec Low Complexity
Kódek azonosító: mp4a-40-2
Időtartam: 1 óra 33 perc 59 mp
Adatsebesség mód: állandó
Adatsebesség: 126 kb/s
Csatornák száma: 2 csatorna
Channel layout: L R
Mintavételezési gyakoriság: 44,1 kHz
Képkockasebesség: 43,066 FPS (1024 SPF)
Compression mode: Lossy
Adatfolyam mérete: 84,4 MiB (22%)
Default: igen
Alternate group: 1

Link: https://mega.nz/file/qwEVjYgL#dRSCbjWDit-kB-cTvE7EHLCptK4gtkE8eBA7tiahxhY
 

papadi

Állandó Tag
Best of Első Emelet

f70de8e441772bb3ae9469cf5fcec9f3.jpg


Az együttes 1982-ben alakult. A Solarisból kilépő Bogdán Csaba (ex-Beatrice, gitár), Kisszabó Gábor (basszusgitár), Raus (Rauschenberger) Ferenc (dob), Tereh István (konga) mellé csatlakozott Berkes Gábor (billentyűs hangszerek) a Lobogóból és Cser György énekes a SoHo-ból (az utóbbi ötlete volt a meglehetősen fura zenekarnév). A bemutatkozó fellépésre 1982. november 18-án az FMH-ban került sor. Elkészült két rádiófelvételük (Töröm a fejem és a Hol kapható?), majd decemberben már szerepeltek a tv Pulzus című műsorában is. 1983-ban a megszűnt Hungária koncertkörútját az R-Go vette át, előzenekarnak az Első Emeletet választották. Az együttes sikere olyan nagy volt, hogy Szikora a "közönség kímélése" érdekében a 35 perces játékidejüket 25 percre csökkentette. Augusztusban, a Budai ifjúsági parkban már ők a fő műsorszám, és hamarosan a boltokban az első kislemez (Amerika / Noteszember) Közben a megromlott kapcsolat miatt Cser György távozott az együttesből. Helyére Patkó Béla került az Óceánból, aki a többiek kérésére vette fel a Kiki művészevet és decemberben már ő énekelt az Almássy téri klubban. Ezzel még nem értek véget a tagcserék, ugyanis Raus Ferencet behívták katonának, helyére - segítségként - rövid időre a szintén volt Solarisos Tóth Vilmos ugrott be. de ő nem akart az együttesben maradni, így tavasszal más Szentmihályi Gábor játszott elektromos dobján. A sikereken felbátorodva, és mert a zenekar már sokat enyhített a hanglemezgyár képviselőinek korábban nem tetsző, Bogdán Csaba által képviselt, Beatrice-hagyományokat folytató punkos irányzaton, 1984. áprilisában ismét meghívták őket egy KEK-bulira. Ha a zenéjük még nem is, de a hatalmas közönségsiker meggyőzte őket, így nyáron már stúdióban a csapat és elkészülhetett az első nagylemez. Ezt követően négy éven át ők az év zenekara, amit az sem akadályozott meg, hogy 1987-ben Kisszabó és Tereh István kiszállt a csapatból. A sikerekben nem kis része volt a "szövegmondó kisiparos" Geszti Péternek is. Utolsó albumuk 1990-ben jelent meg. Ezen Szentmihályi Gábor helyett Szörényi Örs dobolt. 1997-ben jelent meg A film forog tovább… Best of albumuk és ehhez kapcsolódóan egy koncert erejéig ismét összeállt a csapat. 2010-ben kiadtak egy maxi CD-t is. 2013. december 28-án tartottak egy búcsúkoncertet, de 2017-től Emelet néven Berkes Gábor és Kiki ismét rendszeresen koncertezik.

Itt az együttes pályafutását bemutató két dvd-t találjátok, a lemezeket lásd a megfelelő témánál.


44586eaed26ecc00ff5d96c650d7a396.jpg
495a127f727437a59ce1011ba5c0aa69.jpg


Első Emelet: Best of … 1.
460409 2 - EMI / PMR, 2007

1984
01 - Amerika (Petőfi Csarnok, 1985)
02 - Középkori házibuli (Budapest Sportcsarnok, 1997)
03 - Nézelődünk (Petőfi Csarnok, 1985)
1985
04 - Édes évek (MTV-Pulzus, 1985)
05 - A film forog tovább (MTV-Popmeccs, 1986)
06 - Benő. a hős (MTV-Mitiők, 1984)
07 - Táncosnő (MTV Turnéfilm, 1987)
08 - A kenguru jobbhorga (MTV, 1984)
1986
09 - Madame Pompadour (Budapest Sportcsarnok, 1997)
10 - Állj vagy lövök (MTV Turnéfilm, 1988)
11 - Szépek szépe ballandája (MTV Roxinpad, 1987)
12 - Angyali vallomás (Budapest Sportcsarnok, 1997)
1987
13 - Csakazértis szerelem (klip, 1987)
14 - Nem férek a bőrömbe (MTV Roxinpad, 1987)
15 - Menekülés az éjszakába (klip, 1987)
1988
16 - A'la carte (klip, 1987)
17 - Boldog névnapot (Budapest Sportcsarnok, 1997)
18 - Drakula táncol (klip, 1989)
19 - Európában hallgatnak a fegyverek (klip, 1988)
1989
20 - Subiduma (klip, 1989)
1990
21 - Lány a villamoson (klip, 1990)
22 - Szerelem angyala (MTV Ász, 1990)
23 - Kis generáció (klip, 1990)

Bónusz:
24 - Töröm a fejem (MTV Pulzus, 1983)
25 - Állj vagy lövök (klip - angol verzió, 1986)
26 - Turnéfilm előzetes (MTV, 1987(
27 - Turnéfilm (MTV, 1987)
28 - Drakula táncol (MTV Verkfilm, 1990)

Média információ:

Video:
Kodek: MPEG-1/2 Video (mpgv)
Felbontás: 720x576
Képkockasebesség: 25
Képformátum: 1.33:1 (4:3)

Hang:
Kodek: A52 Audio (aka AC3) (a52)
Csatornák: Sztereó
Mintavételi frekvencia: 48000 Hz
Bitsebesség: 192 kb/mp

Formátum: iso
Méret: 7,24 GB
Műsoridő: 2:20:00

(prémium)
Kód:
https://data.hu/get/12738269/D3385i.part1.rar
https://data.hu/get/12738272/D3385i.part2.rar
https://data.hu/get/12738268/D3385i.part3.rar
https://data.hu/get/12738266/D3385i.part4.rar
https://data.hu/get/12738271/D3385i.part5.rar
https://data.hu/get/12738270/D3385i.part6.rar
https://data.hu/get/12738267/D3385i.part7.rar
https://data.hu/get/12738265/D3385i.part8.rar

Formátum: vob (számonként)
Méret: 7,01 GB
Műsoridő: 2:20:00

(prémium)
Kód:
https://data.hu/get/12738318/D3385v.part1.rar
https://data.hu/get/12738313/D3385v.part2.rar
https://data.hu/get/12738317/D3385v.part3.rar
https://data.hu/get/12738314/D3385v.part4.rar
https://data.hu/get/12738320/D3385v.part5.rar
https://data.hu/get/12738316/D3385v.part6.rar
https://data.hu/get/12738319/D3385v.part7.rar
https://data.hu/get/12738315/D3385v.part8.rar

a460b637cf15278dffcb579957821dc8.jpg


Formátum: dvdrip/avi (számonként)
Méret: 2,25 GB
Felbontás: 720x576
Mintavételi frekvencia: 48000 Hz
Bitsebesség: 128 kbps
Műsoridő: 2:03:55

Részletes média információ:
K:\Best Of Elsö Emelet 1\avi\01 - Amerika.avi
General
Complete name : K:\Best Of Elsö Emelet 1\avi\01 - Amerika.avi
Format : AVI
Format/Info : Audio Video Interleave
File size : 47.6 MiB
Duration : 3 min
Overall bit rate : 2 100 kb/s
Writing application : Lavf58.17.100
Video #0
ID : 0
Format : MPEG-4 Visual
Format profile : Advanced [email protected]
Format settings, BVOP : 3
Format settings, QPel : No
Format settings, GMC : No warppoints
Format settings, Matrix : Default (H.263)
Codec ID : DIVX
Codec ID/Info : Project Mayo
Codec ID/Hint : DivX 4
Duration : 3 min
Bit rate : 1 959 kb/s
Width : 720 pixels
Height : 576 pixels
Display aspect ratio : 4:3
Frame rate : 25.000 FPS
Standard : PAL
Color space : YUV
Chroma subsampling : 4:2:0
Bit depth : 8 bits
Scan type : Interlaced
Original scan type : Progressive
Scan order : Bottom Field First
Compression mode : Lossy
Bits/(Pixel*Frame) : 0.189
Stream size : 44.4 MiB (93%)
Writing library : Lavc58.19.104
Audio #1
ID : 1
Format : MPEG Audio
Format version : Version 1
Format profile : Layer 3
Codec ID : 55
Codec ID/Hint : MP3
Duration : 3 min
Bit rate mode : Constant
Bit rate : 128 kb/s
Channel(s) : 2 channels
Sampling rate : 48.0 kHz
Compression mode : Lossy
Stream size : 2.90 MiB (6%)
Alignment : Aligned on interleaves
Interleave, duration : 24 ms (0.60 video frame)

prémium
Kód:
https://data.hu/get/12738213/D3385a.part1.rar
https://data.hu/get/12738215/D3385a.part2.rar
https://data.hu/get/12738214/D3385a.part3.rar

1caedc08ecd917c7c32c80e1f69f0a9a.jpg


Első Emelet: Best of … 2. - live
460179 9 - Private Moon (PMR), 2009

I. MOM (1984) - vhs felvétel - 19:35
01 - Középkori házibuli
02 - Sivatag
03 - Benő
04 - Lehúzott redőnyök
05 - Európában hallgatnak a fegyverek

II. Petőfi Csarnok (1985) - 35:19
01 - Amerika
02 - Álmatlanul
03 - A dolgok közepében
04 - Rémálom
05 - Óvatosan lépkedj
06 - Tilalomfák
07 - Dadogós break
08 - Idegenek a városban
09 - Nézelődünk
10 - A film forog tovább

III. KEK (1987) - 39:48
01 - Új harci dal
02 - Angyali vallomás
03 - Szakíts, ha bírsz!
04 - Szívedben élnék
05 - Nem férek a bőrömbe
06 - Szívkalapács
07 - Szépek szépe balladája
08 - Baba jaga
09 - Menekülés az éjszakába
10 - Csakazértis szerelem

IV. Budapest Sportcsarnok (1997) - 1:10:31
01 - Nézelődünk
02 - Új harci dal
03 - Madame Pompadour
04 - Dadogós break
05 - Bújtass el
06 - Drakula táncol
07 - Szépek szépe balladája
08 - Édes évek
09 - Középkori házibuli
10 - Angyali vallomás
11 - Táncosnő
12 - Boldog névnapot
13 - Állj vagy lövök
14 - Csakazértis szerelem
15 - Kis generáció
16 - A La Carte

Bónusz:
1 - Állj vagy lövök (SYMA, 2008) amatőr felvétel a színpadról - 3:17
2 - Légiradó (SYMA, 2008) hangos képeslap a koncertről - 3:33
3 - XXI. százdad (2007) Az RTL Klub sorozata - 29:54

Média információ:

Video:
Kodek: MPEG-1/2 Video (mpgv)
Felbontás: 720x576
Képkockasebesség: 25
Képformátum: 1.33:1 (4:3)

Hang:
Kodek: A52 Audio (aka AC3) (a52)
Csatornák: Sztereó
Mintavételi frekvencia: 48000 Hz
Bitsebesség: 192 kb/mp

Formátum: iso
Méret: 6,35 GB
Műsoridő: 3:22:41

(prémium)
Kód:
https://data.hu/get/12739369/D3386i.part1.rar
https://data.hu/get/12739358/D3386i.part2.rar
https://data.hu/get/12739350/D3386i.part3.rar
https://data.hu/get/12739366/D3386i.part4.rar
https://data.hu/get/12739368/D3386i.part5.rar
https://data.hu/get/12739352/D3386i.part6.rar
https://data.hu/get/12739359/D3386i.part7.rar

63b597a2bdcbce81da5285c3f67b0ce2.jpg


Formátum: dvdrip/avi
Méret: 2,96 MB
Felbontás: 720x544
Mintavételi frekvencia: 48000 Hz
Bitsebesség: 181 kbps
Műsoridő: 2:45:14+36:45

Részletes média információ:
L:\4 - BS (1997).avi
General
Complete name : L:\4 - BS (1997).avi
Format : AVI
Format/Info : Audio Video Interleave
File size : 1.03 GiB
Duration : 1 h 10 min
Overall bit rate mode : Variable
Overall bit rate : 2 095 kb/s
Writing application : VirtualDubMod 1.5.4.1 (build 2178/release)
Writing library : VirtualDubMod build 2178/release
Video #0
ID : 0
Format : MPEG-4 Visual
Format profile : Advanced [email protected]
Format settings, BVOP : 1
Format settings, QPel : No
Format settings, GMC : No warppoints
Format settings, Matrix : Custom
Codec ID : XVID
Codec ID/Hint : XviD
Duration : 1 h 10 min
Bit rate : 1 899 kb/s
Width : 720 pixels
Height : 544 pixels
Display aspect ratio : 4:3
Frame rate : 25.000 FPS
Color space : YUV
Chroma subsampling : 4:2:0
Bit depth : 8 bits
Scan type : Progressive
Compression mode : Lossy
Bits/(Pixel*Frame) : 0.194
Stream size : 958 MiB (91%)
Writing library : XviD 1.2.1 (UTC 2008-12-04)
Audio #1
ID : 1
Format : MPEG Audio
Format version : Version 1
Format profile : Layer 3
Mode : Joint stereo
Mode extension : MS Stereo
Codec ID : 55
Codec ID/Hint : MP3
Duration : 1 h 10 min
Bit rate mode : Variable
Bit rate : 192 kb/s
Channel(s) : 2 channels
Sampling rate : 48.0 kHz
Compression mode : Lossy
Stream size : 92.5 MiB (9%)
Alignment : Aligned on interleaves
Interleave, duration : 24 ms (0.60 video frame)
Interleave, preload duration : 100 ms
Writing library : LAME3.98r
Encoding settings : -m j -V 4 -q 2 -lowpass 18.6 --abr 192

prémium
Kód:
https://data.hu/get/12739174/D3386a.part1.rar
https://data.hu/get/12739179/D3386a.part2.rar
https://data.hu/get/12739176/D3386a.part3.rar
https://data.hu/get/12739178/D3386a.part4.rar

Ráadásként a 2020. szeptember 3-án felvett Raktárkoncert

f03a3468ec2baffffdbbf3dd819d2d1c.jpg


Emelet: Raktárkoncert
2020. szeptember 3.

01 - Időgép (Berkes, Első Emelet - Geszti)
02 - Amerika (Berkes - Hajas)
03 - Új Harci dal (Berkes, Első Emelet - Geszti)
04 - A la carte (Berkes, Első Emelet - Geszti)
05 - Menekülés az éjszakába (Bogdán, Első Emelet - Geszti)
06 - Angyali vallomás (Berkes, Első Emelet - Geszti)
07 - Kutyavilág (Berkes, Első Emelet - Geszti)
08 - Szépek szépe balladája (Berkes, Első Emelet - Geszti)
09 - Európában hallgatnak a fegyverek (Berkes - Joó)
10 - Madame Pompadour (Berkes, Első Emelet - Geszti)
11 - Ma van a Te napod (Első Emelet - Geszti)
12 - Szerelem angyala (Bogdán, Első Emelet - Geszti)
13 - Édes évek (Berkes, Első Emelet - Geszti)
14 - Medley (Berkes, Első Emelet - Geszti)
15 - Nézelődünk (Berkes, Első Emelet - Geszti)
16 - Csakazértis szerelem (Berkes, Első Emelet - Geszti)

EMELET:
Patkó Béla - ének
Berkes Gábor - billentyűs hangszerek, vokál
Kelemen Tamás - gitár, vokál
Hastó Zsolt - dob, vokál

41a8af49d6e61b627424e2846c873012.jpg


Formátum: mkv
Méret: 1,65 GB
Felbontás: 1920x1080
Mintavételi frekvencia: 48000 Hz
Bitsebesség: 320 kbps
Műsoridő: 49:19

Részletes média információ:
C:\Users\user\Videos\Emelet - Raktárkoncert 1080p.mkv
General
Unique ID : 74077141381940899809329208049052535887 (0x37BABD0CE86B1BC76C02EA6A6FDDCC4F)
Complete name : C:\Users\user\Videos\Emelet - Raktárkoncert 1080p.mkv
Format : Matroska
Format version : Version 4 / Version 2
File size : 1.65 GiB
Duration : 49 min
Overall bit rate : 4 797 kb/s
Encoded date : UTC 2020-09-25 00:07:58
Writing application : mkvmerge v50.0.0 ('Awakenings') 64-bit
Writing library : libebml v1.4.0 + libmatroska v1.6.2
Video #1
ID : 1
Format : AVC
Format/Info : Advanced Video Codec
Format profile : [email protected]
Format settings, CABAC : Yes
Format settings, ReFrames : 4 frames
Codec ID : V_MPEG4/ISO/AVC
Duration : 49 min
Bit rate : 4 500 kb/s
Width : 1 920 pixels
Height : 1 080 pixels
Display aspect ratio : 16:9
Frame rate mode : Constant
Frame rate : 25.000 FPS
Color space : YUV
Chroma subsampling : 4:2:0
Bit depth : 8 bits
Scan type : Progressive
Bits/(Pixel*Frame) : 0.087
Stream size : 1.54 GiB (93%)
Writing library : x264 core 148
Encoding settings : cabac=1 / ref=3 / deblock=1:0:0 / analyse=0x1:0x1 / me=dia / subme=1 / psy=0 / mixed_ref=0 / me_range=16 / chroma_me=1 / trellis=0 / 8x8dct=0 / cqm=0 / deadzone=21,11 / fast_pskip=1 / chroma_qp_offset=0 / threads=8 / lookahead_threads=1 / sliced_threads=0 / nr=0 / decimate=1 / interlaced=0 / paff=0 / bluray_compat=0 / constrained_intra=0 / bframes=3 / b_pyramid=2 / b_adapt=1 / b_bias=0 / direct=1 / weightb=1 / open_gop=0 / weightp=1 / keyint=50 / keyint_min=5 / scenecut=0 / intra_refresh=0 / rc_lookahead=40 / rc=cbr / mbtree=0 / bitrate=4500 / ratetol=1.0 / qcomp=0.60 / qpmin=0 / qpmax=69 / qpstep=4 / vbv_maxrate=4500 / vbv_bufsize=4500 / nal_hrd=none / filler=0 / ip_ratio=1.40 / pb_ratio=1.30 / aq=0
Language : Hungarian
Default : Yes
Forced : No
Color range : Limited
Color primaries : BT.709
Transfer characteristics : BT.709
Matrix coefficients : BT.709
Audio #2
ID : 2
Format : AAC
Format/Info : Advanced Audio Codec
Format profile : LC
Codec ID : A_AAC
Duration : 49 min
Bit rate : 320 kb/s
Channel(s) : 2 channels
Channel positions : Front: L R
Sampling rate : 48.0 kHz
Frame rate : 46.875 FPS (1024 spf)
Compression mode : Lossy
Stream size : 113 MiB (7%)
Language : Hungarian
Default : Yes
Forced : No

Nem saját munka, ismét köszönet érte!

prémium
Kód:
https://data.hu/get/12739446/D3417m.part1.rar
https://data.hu/get/12739445/D3417m.part2.rar
 
Utoljára módosítva:

papadi

Állandó Tag
Babatunde Olatunji: Drums of Passion Live '85

9da2f22f77692e5e97a8a4b09dabd138.jpg


Babatunde Olatunji: Drums of Passion Live '85
IMM 940971 - Immortal, 2007
Oakland Coliseum, December 31 , 1985

01 - Ajaja
02 - Akiwowo
03 - Odun De! Odun De!
04 - Ade O To
05 - Yembela
06 - Jin-Go-Lo-Ba

Média információ:

Video:
Kodek: MPEG-1/2 Video (mpgv)
Felbontás: 720x480
Képkockasebesség: 29,970030
Képformátum: 1.33:1 (4:3)

Hang:
Kodek: A52 Audio (aka AC3) (a52)
Csatornák: Sztereó
Mintavételi frekvencia: 48000 Hz
Bitek mintánként: 32

Formátum: dvd
Méret: 3,79 GB
Műsoridő: 50:57

(prémium)
Kód:
https://data.hu/get/12748495/D3407d.part1.rar
https://data.hu/get/12748497/D3407d.part2.rar
https://data.hu/get/12748493/D3407d.part3.rar
https://data.hu/get/12748498/D3407d.part4.rar

3e0d7a8b5a64ca0563c7be4bff20257e.jpg


Formátum: dvdrip/avi
Méret: 1,17 GB
Felbontás: 720x544
Mintavételi frekvencia: 48000 Hz
Bitsebesség: 192 kbps
Műsoridő: 51:00

Részletes média információ:
D:\0\V\Babatunde Olatunji - Drums of Passion Live '85\VIDEO_TS\Babatunde Olatunji - Drums of Passion Live '85.avi
General
Complete name : D:\0\V\Babatunde Olatunji - Drums of Passion Live '85\VIDEO_TS\Babatunde Olatunji - Drums of Passion Live '85.avi
Format : AVI
Format/Info : Audio Video Interleave
File size : 1.17 GiB
Duration : 51 min
Overall bit rate : 3 289 kb/s
Writing application : VirtualDubMod 1.5.4.1 (build 2178/release)
Writing library : VirtualDubMod build 2178/release
Video #0
ID : 0
Format : MPEG-4 Visual
Format profile : Advanced [email protected]
Format settings, BVOP : 1
Format settings, QPel : No
Format settings, GMC : No warppoints
Format settings, Matrix : Custom
Codec ID : XVID
Codec ID/Hint : XviD
Duration : 51 min
Bit rate : 2 896 kb/s
Width : 720 pixels
Height : 544 pixels
Display aspect ratio : 4:3
Frame rate : 23.976 (23976/1000) FPS
Color space : YUV
Chroma subsampling : 4:2:0
Bit depth : 8 bits
Scan type : Progressive
Compression mode : Lossy
Bits/(Pixel*Frame) : 0.308
Stream size : 1.03 GiB (88%)
Writing library : XviD 1.2.1 (UTC 2008-12-04)
Audio #1
ID : 1
Format : MPEG Audio
Format version : Version 1
Format profile : Layer 3
Mode : Joint stereo
Codec ID : 55
Codec ID/Hint : MP3
Duration : 51 min
Bit rate mode : Constant
Bit rate : 192 kb/s
Channel(s) : 2 channels
Sampling rate : 48.0 kHz
Compression mode : Lossy
Stream size : 70.0 MiB (6%)
Alignment : Aligned on interleaves
Interleave, duration : 83 ms (2.00 video frames)
Interleave, preload duration : 504 ms
Writing library : LAME3.98r
Encoding settings : -m j -V 4 -q 2 -lowpass 18.6 -b 192
Audio #2
ID : 2
Format : MPEG Audio
Format version : Version 1
Format profile : Layer 3
Mode : Joint stereo
Mode extension : MS Stereo
Codec ID : 55
Codec ID/Hint : MP3
Duration : 51 min
Bit rate mode : Constant
Bit rate : 192 kb/s
Channel(s) : 2 channels
Sampling rate : 48.0 kHz
Compression mode : Lossy
Stream size : 70.0 MiB (6%)
Alignment : Aligned on interleaves
Interleave, duration : 83 ms (2.00 video frames)
Interleave, preload duration : 504 ms
Writing library : LAME3.98r
Encoding settings : -m j -V 4 -q 2 -lowpass 18.6 -b 192

prémium
Kód:
https://data.hu/get/12748496/D3407a.part1.rar
https://data.hu/get/12748494/D3407a.part2.rar
 

zife

Állandó Tag
István, a király (1984) - Rockopera

Csatolás megtekintése 1769361

Szereplők:
Pelsőczy László, Varga Miklós, Sára Bernadett, Vikidál Gyula, Berek Kati, Victor Máté, Juhász Jácint, Körtvélyessy Zsolt, Deák Bill Gyula, Nagy Feró, Halmágyi Sándor, Kovács Ottilia, Sebestyén Márta, Balázs Péter, Szakácsi Sándor

Rendező: Koltay Gábor
Író: Boldizsár Miklós
Forgatókönyvíró: Bródy János, Koltay Gábor, Szörényi Levente
Zeneszerző: Szörényi Levente, Szörényi Szabolcs

Médiainformációk
Formátum: MPEG-4
Formátum profil: Base Media
Kódek azonosító: isom (isom/iso2/avc1/mp41)
Fájlméret: 377 MiB
Időtartam: 1 óra
Teljes adatsebesség: 561 kb/s
Film: István, a király (1984)
Kódoló szoftver: Lavf58.18.104

Kép
Sáv száma: 1
Formátum: AVC
Formátum/adatok: Advanced Video Codec
Formátum profil: [email protected]
Formátum beállítások: CABAC / 3 Ref Frames
Formátum beállítások, CABAC: igen
Formátum beállítások, RefFrames: 3 képkocka
Kódek azonosító: avc1
Kódek azonosító/adatok: Advanced Video Coding
Időtartam: 1 óra 33 perc 59 mp
Adatsebesség: 429 kb/s
Szélesség: 646 képpont
Magasság: 480 képpont
Képarány: 4:3
Képkockasebességi mód: állandó
Képkockasebesség: 25,000 FPS
Color space: YUV
Chroma subsampling: 4:2:0
Bit depth : 8 bit
Sorváltás típusa: folytonos
Bit/(képpont*képkocka): 0.055
Adatfolyam mérete: 289 MiB (76%)
Codec configuration box: avcC

Hang
Sáv száma: 2
Formátum: AAC LC
Formátum/adatok: Advanced Audio Codec Low Complexity
Kódek azonosító: mp4a-40-2
Időtartam: 1 óra 33 perc 59 mp
Adatsebesség mód: állandó
Adatsebesség: 126 kb/s
Csatornák száma: 2 csatorna
Channel layout: L R
Mintavételezési gyakoriság: 44,1 kHz
Képkockasebesség: 43,066 FPS (1024 SPF)
Compression mode: Lossy
Adatfolyam mérete: 84,4 MiB (22%)
Default: igen
Alternate group: 1

Link: https://mega.nz/file/qwEVjYgL#dRSCbjWDit-kB-cTvE7EHLCptK4gtkE8eBA7tiahxhY

István, a király (1984) - Rockopera

Csatolás megtekintése 1769361

Szereplők:
Pelsőczy László, Varga Miklós, Sára Bernadett, Vikidál Gyula, Berek Kati, Victor Máté, Juhász Jácint, Körtvélyessy Zsolt, Deák Bill Gyula, Nagy Feró, Halmágyi Sándor, Kovács Ottilia, Sebestyén Márta, Balázs Péter, Szakácsi Sándor

Rendező: Koltay Gábor
Író: Boldizsár Miklós
Forgatókönyvíró: Bródy János, Koltay Gábor, Szörényi Levente
Zeneszerző: Szörényi Levente, Szörényi Szabolcs

Médiainformációk
Formátum: MPEG-4
Formátum profil: Base Media
Kódek azonosító: isom (isom/iso2/avc1/mp41)
Fájlméret: 377 MiB
Időtartam: 1 óra
Teljes adatsebesség: 561 kb/s
Film: István, a király (1984)
Kódoló szoftver: Lavf58.18.104

Kép
Sáv száma: 1
Formátum: AVC
Formátum/adatok: Advanced Video Codec
Formátum profil: [email protected]
Formátum beállítások: CABAC / 3 Ref Frames
Formátum beállítások, CABAC: igen
Formátum beállítások, RefFrames: 3 képkocka
Kódek azonosító: avc1
Kódek azonosító/adatok: Advanced Video Coding
Időtartam: 1 óra 33 perc 59 mp
Adatsebesség: 429 kb/s
Szélesség: 646 képpont
Magasság: 480 képpont
Képarány: 4:3
Képkockasebességi mód: állandó
Képkockasebesség: 25,000 FPS
Color space: YUV
Chroma subsampling: 4:2:0
Bit depth : 8 bit
Sorváltás típusa: folytonos
Bit/(képpont*képkocka): 0.055
Adatfolyam mérete: 289 MiB (76%)
Codec configuration box: avcC

Hang
Sáv száma: 2
Formátum: AAC LC
Formátum/adatok: Advanced Audio Codec Low Complexity
Kódek azonosító: mp4a-40-2
Időtartam: 1 óra 33 perc 59 mp
Adatsebesség mód: állandó
Adatsebesség: 126 kb/s
Csatornák száma: 2 csatorna
Channel layout: L R
Mintavételezési gyakoriság: 44,1 kHz
Képkockasebesség: 43,066 FPS (1024 SPF)
Compression mode: Lossy
Adatfolyam mérete: 84,4 MiB (22%)
Default: igen
Alternate group: 1

Link: https://mega.nz/file/qwEVjYgL#dRSCbjWDit-kB-cTvE7EHLCptK4gtkE8eBA7tiahxhY
A helyes link:
 
Oldal tetejére