Magyar filmek III itt nincs kérés

FLAMINGO témája a 'Film, színház, tánc' fórumban , 2018 Február 3.

  1. papadi

    papadi Állandó Tag

    [​IMG]

    HOFI TÜKRE No.1

    1. Sztárparádé - Armstrong paródia (1968) (5:09)
    2. Szilveszter - Rózsa Sándor paródia (1971) (24:17)
    3. Koncert - Pia nista (1985) (44:29)
    4. Hofi szilveszter - Egy kiöregedett vadászkutya (1991) (4:41)

    2002 - iso - 4,17 GB - 720x576px - 32/48 - 1:18:37
    Rejtett tartalom:
    **Rejtett tartalom: A tartalom megjelenítéséhez kattints a 'Tetszik' gombra.**
    [​IMG]

    HOFI TÜKRE No.2

    1. Temetném a munkát (Ha én gazdag lennék - részlet a „Hegedűs a háztetőn” c. műből) (1984) (4:52)
    2. Mi a helyzet a gyalogosokkal? (1974) (7:59)
    3. Menczel János - Mariska néni (1984) (5:30)
    4. Építem a csatornámat (Akácos út) (1975) (50:56)
    5. Extrák:
    a.) Emlékezés Hofi Gézára
    b.) Kulissza-titkok
    c.) Aranylemezátadás
    d.) A könyv

    2003 - iso - 3,71 GB - 720x576px - 32/48 - 1:09:33 (1:20:07)
    Rejtett tartalom:
    **Rejtett tartalom: A tartalom megjelenítéséhez kattints a 'Tetszik' gombra.**
    [​IMG]

    HOFI TÜKRE No.3

    1. Hófehérke (Felmegyek hozzád) (1979) (2:27)
    2. Tiszta őrültek háza (1980) (42:30)
    3. Meggyúrtuk Hofi Gézát (Odavagyok magáért) (1981) (1:46)
    4. Hofi szilveszter (1991) (36:27)
    5. Extrák:
    a.) Hofi ismét a Madách-ban (Stúdió ’91)
    b.) Visszaemlékezés Hofi Gézára
    c.) A könyv

    2004 - iso - 4,25 GB - 720x576px - 32/48 - 1:23:59 (1:35:11)
    Rejtett tartalom:
    **Rejtett tartalom: A tartalom megjelenítéséhez kattints a 'Tetszik' gombra.**
    [​IMG]

    HOFI TÜKRE No.4

    1. Odüsszeusz (Hofisszeusz) (1972) (25:00)
    2. Rhoda Scott paródia (1973) (3:47)
    3. A luk (1973) (0:30)
    4. Újságárus (1976) (37:56)
    5. Hofi-Koós show (1969) (13:46)
    6. Extrák:
    a.) Szoboravatás. Részletek az ATV Szemle és az MTV Napi mozaik c. műsoraiból
    b.) A könyv

    2005 - iso - 4,20 GB - 720x576px - 32/48 - 1:21:40 (1:34:40)
    Rejtett tartalom:
    **Rejtett tartalom: A tartalom megjelenítéséhez kattints a 'Tetszik' gombra.**
    [​IMG]

    HOFI TÜKRE No.5

    1. Nevezz csak Cucinak (1982) (47:57)
    2. Iván Kozirev öntőmunkás elbeszélése arról, hogy hogyan költözött új lakásba (1975) (9:42)
    3. Frédi és Béni (1971) (10:37)
    4. Extra: A könyv

    2006 - iso - 3,11 GB - 720x576px - 32/48 - 1:08:59 (1:11:17)
    Rejtett tartalom:
    **Rejtett tartalom: A tartalom megjelenítéséhez kattints a 'Tetszik' gombra.**
    [​IMG]

    HOFI TÜKRE No.6

    1. Gondolj apádra (1984) (22:15)
    2. Ki fog gólt lőni? (részlet a Hofi-Koós showból) (1978) (13:50)
    3. Élelem bére (részletek a Madách Kamara előadásából) (1988) (33:05)
    4. Bicska Maxi (1966) (2:55)
    5. Extra
    a.) Sztárparádé - Armstrong paródia (1969)
    b.) Hofi Géza élete és pályafutása - könyvbemutató

    2007 - iso - 4,20 GB - 720x576px - 32/48 - 1:12:27 (1:19:54)
    Rejtett tartalom:
    **Rejtett tartalom: A tartalom megjelenítéséhez kattints a 'Tetszik' gombra.**
    [​IMG]

    HOFI TÜKRE No.7

    1. Hofélia (a Madách Kamara műsora) (1987) (1:12:00)
    2. Extrák:
    a.) Részlet Stúdió ’83 műsorából
    b.) Az 500. Hofélia előadás után… (amatőr felvétel)
    c.) Hofi Géza élete és pályafutása - könyvbemutató

    2008 - iso - 3,97 GB - 720x576px - 32/48 - 1:11:50 (1:25:23)
    Rejtett tartalom:
    **Rejtett tartalom: A tartalom megjelenítéséhez kattints a 'Tetszik' gombra.**
    [​IMG]

    HOFI TÜKRE No.8

    1. TV paródia „A rádió hullámhosszán érkezett” (1968) (15:52)
    2. Elég az hozzá… Történetek a színházról (1971) (32:05)
    3. Slágerkutató Részlet (1967) (1:00)
    4. 1996 (1996) (12:41)
    5. Extrák:
    a.) Szubjektív objektív. c. műsor Hofi Gézáról (2003)
    b.) Hofi Géza élete és pályafutása - könyvbemutató

    2009 - iso - 4,20 GB - 720x576px - 32/48 - 1:02:17 (1:34:27)
    Rejtett tartalom:
    **Rejtett tartalom: A tartalom megjelenítéséhez kattints a 'Tetszik' gombra.**
    [​IMG]

    HOFI TÜKRE No.9

    1. Szilveszter 1977 részletek (43:45)
    2. „Null - nulla” Szilveszter 1970 - részlet (7:31)
    3. Keresztrejtvény - Hofi - Koós duett (1969) (3:15)
    4. Minden asszony életében - részlet a Sláger TV adásából (1982) (3:14)
    5. Hofi - Vitray részlet a „Kétmilliomodik” c. vetélkedő műsorból (17:20)
    6. Oda vagyok magáért (1982) (1:49)

    2011 - iso - 3,97 GB - 720x576px - 32/48 - 1:17:26
    Rejtett tartalom:
    **Rejtett tartalom: A tartalom megjelenítéséhez kattints a 'Tetszik' gombra.**
    Néhány link törlődése miatt újratöltve.
     
  2. deciso

    deciso Őstag Ezüst támogató

    #54

    [​IMG]

    A Noszty fiú esete Tóth Marival egy 1960-ban készült magyar filmdráma.

    – Malinka Bodrogi Gyula
    – Noszty Pál Uray Tivadar
    – Noszty Feri Mécs Károly
    – Noszty Vilma Krencsey Marianne
    Tóth Mihály Páger Antal
    Tóth Mihályné Fónay Márta
    Tóth Mari Petényi Ilona
    Kopereczky – György László
    Homlódyné – Mezey Mária
    Pázmár doktor Pécsi Sándor
    Rozál Csűrös Karola
    Palojtay – Kovács Károly
    Stromm ezredes – Szakáts Miklós
    Kozsehuba Kaló – Flórián

    Mikszáth A Noszty fiú-ban már egyenesen hatalmas persziflázsát adja a vármegyei dzsentrinek. A családi politika, mely egy család zsákmányává vagy néhány család vetélkedésének harcterévé teszi a vármegyeházát, a határtalan léhaság, amelyben feloldódik minden erkölcsi ellenállás, a pénzvágy, amely becstelenségtől sem riad vissza, a komoly közdolgoknak léha játékká süllyesztése, a közhatalomnak magáncélokra való felhasználása - ezek azok a vonások, amelyek a Noszty fiú-ban mint a vármegyei élet jellemző tulajdonságai tűnnek elénk. Az a hajsza, amellyel az egész vármegye nemessége, mint a kopófalka veti utána magát a Tóth Mari hozományának - tükröt tart a vármegye urai elé. Torzító tükör-e? Mikszáth nem annak szánta. Szatirikus nem élhet meg bizonyos mértékű torzítás nélkül, Mikszáth ezen a mértéken nem megy túl, az egész regényben érezteti, hogy az ő szeme csakugyan ilyennek látja a vármegyei urakat, hogy típust akart rajzolni, nem torzképet. S a kép csak annál élesebb, mert odaállítja melléje ellentétül mint az okosság, becsületesség, jellemszilárdság megszemélyesítőjét, a meggazdagodott iparost."

    Noszty család egy szépreményű sarja, Feri is hozományvadászatra indul. Ez a "vidám, könnyelmű, eleven, pompás lovas és nagy kártyás” ifjú ember előbb nyalka huszár hadnagyként egy dúsgazdag felvidéki polgárlány kezét akarja elnyerni, ám egy váltóhamisítás miatt el kell tűnnie a színről. Másodjára az Amerikából multimilliomosként hazatért Tóth Mihály leányára veti ki a horgot. A dologba be van avatva a Noszty család összes öregasszonya, akik szövik-fonják a szálakat: minden részletében kimunkált haditervet készítenek, különös tekintettel arra, hogy Tóth Mari gyanakvó természetű, s az a rögeszméje, hogy mindenki csak vagyonáért akarja feleségül venni. Már majdnem sikerül nyélbe ütni a dolgot, amikor a véletlen – amely eddig mindig segítségükre volt – közbeszól: Feri egykori ezredparancsnoka leleplezi a könnyelmű, sőt a becstelenségtől sem visszariadó fiatalember múltját. S most, hogy a család praktikái csődöt mondtak, Feri is a „kompromittálás” bevált módszeréhez nyúl. A dzsentrivilág íratlan törvényei szerint immár szabad az út a milliókhoz. Tóth Mihály, a kemény gerincű polgár azonban közbelép, úgy véli, itt az ideje, hogy szakítson „ezzel a korhadt elvi tétellel…”

    Rejtett tartalom:
    **Rejtett tartalom: A tartalom megjelenítéséhez kattints a 'Tetszik' gombra.**
    [/HIDE]
     
    Utoljára módosítva: 2020 Január 15
  3. papadi

    papadi Állandó Tag

    Az aranyember - 3x (dvd/iso)

    [​IMG] [​IMG]

    Ajánló a 2010-es kiadás borítójáról:
    Az aranyember Jókai legkedvesebb regénye, amelynek témáját, alakjait gyermekkori komáromi élményeiből merítette. A regényben található romantikus motívumok: a két ellentétes nőalak között vergődő férfi s a lakatlan sziget vonzóvá tették a filmesek számára Jókai művét, amelynek három filmváltozata is készült, 1918-ban Korda Sándor, 1936-ban Gaál Béla, 1962-ben Gertler Viktor rendezésében.

    I. Az aranyember (1:23:44)
    Fekete-fehér magyar némafilm (1918)
    Főszereplők: Beregi Oszkár, Rajnay (Rajnai) Gábor, Makay Margit, Lenkeffy Ica, Berky Lili
    Zongorán kíséri: Darvas Ferenc
    Rendezte: Korda Sándor
    Felirat: magyar, angol

    Extrák
    1 - Vetítéses képgaléria - A három "Aranyember" azonos jelenetei (12:42)
    2 - A kincs megtalálása - Jelenet a három filmben (2:04)
    3 - Yamata (1:37)
    Fekete-fehér magyar némafilm (1918) - töredék
    Szereplők: Rajnay Gábor, Lóth Ila, Fenyvesi Emil
    Rendezte: Korda Sándor

    II. Az aranyember (1:37:52)
    Fekete-fehér magyar film (1936)
    Főszereplők: Kiss Ferenc, Uray Tivadar, Egry Mária, Füzess Anna, Csortos Gyula, Sziklay Szeréna, Mezey Mária, Petheö Attila, Kormos Márta, Rózsahegyi Kálmán, Básti (Básthy) Lajos
    Rendezte: Gaál Béla
    Felirat: angol

    Extrák:
    1 - Vetítéses képgaléria - A három "Aranyember" azonos jelenetei (12:42)
    2 - A kincs megtalálása - Jelenet a három filmben (2:04)
    3 - Az 1936-os változat hiányos képnegatívjának digitális restaurálása (5:14)

    1918/2010 - dvd/iso - 7,72 GB - 720x576 - 32/48 - 1:23:44 + 16:23 + 1:37:52 + 5:14
    Rejtett tartalom:
    **Rejtett tartalom: A tartalom megjelenítéséhez kattints a 'Tetszik' gombra.**
    [​IMG]

    Az aranyember
    Magyar film (1962)
    Főszereplők: Csorba András, Béres Ilona, Szabó Ernő, Krencsey Marianne, Greguss Zoltán, Gobbi Hilda, Bárány Frigyes, Pécsi Ildikó, Komlós Juci, Latinovits Zoltán, Kovács Károly
    Rendezte: Gertler Viktor
    Felirat: angol

    Extrák:
    1 - Vetítéses képgaléria - A három "Aranyember" azonos jelenetei (12:42)
    2 - A kincs megtalálása - Jelenet a három filmben (2:04)

    1936/2010 - dvd/iso - 5,72 GB - 720x576 - 32/48 - 1:46:40 + 14:46
    Rejtett tartalom:
    **Rejtett tartalom: A tartalom megjelenítéséhez kattints a 'Tetszik' gombra.**
    [​IMG]

    Az aranyember
    Magyar film (1962)
    Főszereplők: Csorba András, Béres Ilona, Szabó Ernő, Krencsey Marianne, Greguss Zoltán, Gobbi Hilda, Bárány Frigyes, Pécsi Ildikó, Komlós Juci, Latinovits Zoltán, Kovács Károly
    Rendezte: Gertler Viktor
    Felirat: angol

    Extrák:
    1 - Sztárok a filmről - Nagy Feró (Beatrice) és Balanyi Szilárd (Quimby) (96 MB - 9:35)
    2 - Részletek a „Hajóval két világ határán” című filmből:
    a - A Vaskapu (109 MB - 11:07)
    b - A "Senki szigete" (9 MB - 1:53)
    3 - Diafilm (1953) - részletek
    4 - Filmográfiák
    Gertler Viktor - rendező
    Pécsi Ildikó - Noémi
    Szabó Ernő - Ali Csorbadzsi
    Bére Ilona - Tímea
    Latinovits Zoltán - Kristyán Tódor

    1936/2010 - dvd/iso - 7,48 GB - 720x576 - 32/48 - 1:46:40 + 14:46
    Rejtett tartalom:
    **Rejtett tartalom: A tartalom megjelenítéséhez kattints a 'Tetszik' gombra.**
    Törlések miatt újratöltve.
     
    Utoljára módosítva: 2020 Március 26
  4. papadi

    papadi Állandó Tag

    Az aranyember - 3x (avi)

    Ajánló a 2010-es kiadás borítójáról:
    Az aranyember Jókai legkedvesebb regénye, amelynek témáját, alakjait gyermekkori komáromi élményeiből merítette. A regényben található romantikus motívumok: a két ellentétes nőalak között vergődő férfi s a lakatlan sziget vonzóvá tették a filmesek számára Jókai művét, amelynek három filmváltozata is készült, 1918-ban Korda Sándor, 1936-ban Gaál Béla, 1962-ben Gertler Viktor rendezésében.

    [​IMG]

    Az aranyember
    Fekete-fehér magyar némafilm (1918)
    Főszereplők: Beregi Oszkár, Rajnay (Rajnai) Gábor, Makay Margit, Lenkeffy Ica, Berky Lili
    Zongorán kíséri: Darvas Ferenc
    Rendezte: Korda Sándor

    A dvdrip az MNFA Magyar filmtörténeti sorozatában a film 1936-os és 1962-es változatának extrájaként jelent meg.

    Az extra extrája:
    Yamata
    Fekete-fehér magyar némafilm (1918) - töredék
    Szereplők: Rajnay Gábor, Lóth Ila, Fenyvesi Emil
    Rendezte: Korda Sándor

    Médiainformáció:
    Show Spoiler

    G:\0\DVD+\2215 - Az aranyember (1918, 1936)\1918\Az aranyember (1918).avi
    General
    Complete name : G:\0\DVD+\2215 - Az aranyember (1918, 1936)\1918\Az aranyember (1918).avi
    Format : AVI
    Format/Info : Audio Video Interleave
    File size : 837 MiB
    Duration : 1 h 23 min
    Overall bit rate : 1 398 kb/s
    Writing application : VirtualDubMod 1.5.4.1 (build 2178/release)
    Writing library : VirtualDubMod build 2178/release
    Video #0
    ID : 0
    Format : MPEG-4 Visual
    Format profile : Advanced [email protected]
    Format settings : BVOP1 / Custom Matrix
    Format settings, BVOP : 1
    Format settings, QPel : No
    Format settings, GMC : No warppoints
    Format settings, Matrix : Custom
    Codec ID : XVID
    Codec ID/Hint : XviD
    Duration : 1 h 23 min
    Bit rate : 1 263 kb/s
    Width : 720 pixels
    Height : 544 pixels
    Display aspect ratio : 4:3
    Frame rate : 25.000 FPS
    Color space : YUV
    Chroma subsampling : 4:2:0
    Bit depth : 8 bits
    Scan type : Progressive
    Compression mode : Lossy
    Bits/(Pixel*Frame) : 0.129
    Stream size : 756 MiB (90%)
    Writing library : XviD 1.2.1 (UTC 2008-12-04)
    Audio #1
    ID : 1
    Format : MPEG Audio
    Format version : Version 1
    Format profile : Layer 3
    Format settings : Joint stereo / MS Stereo
    Codec ID : 55
    Codec ID/Hint : MP3
    Duration : 1 h 23 min
    Bit rate mode : Constant
    Bit rate : 128 kb/s
    Channel(s) : 2 channels
    Sampling rate : 48.0 kHz
    Frame rate : 41.667 FPS (1152 SPF)
    Compression mode : Lossy
    Stream size : 76.7 MiB (9%)
    Alignment : Aligned on interleaves
    Interleave, duration : 80 ms (2.00 video frames)
    Interleave, preload duration : 504 ms
    Writing library : LAME3.98r
    Encoding settings : -m j -V 4 -q 2 -lowpass 17 -b 128


    [​IMG]

    1918/2010 - dvdrip - avi - 858 MB - 720x544 px - 128 kbps - 1:23:44 + 1:37
    Rejtett tartalom:
    **Rejtett tartalom: A tartalom megjelenítéséhez kattints a 'Tetszik' gombra.**
    [​IMG]

    A filmet pár évvel korábban már felújították, a tévé is leadta.. Az ott alkalmazott technika, nevezetesen, hogy a német szöveg-táblákat színben és betűtípusban azonos magyar nyelvűre cserélték, nekem jobban tetszett a mostani "feliratos" megoldásnál.

    Az aranyember
    Fekete-fehér magyar némafilm (1918)
    Főszereplők: Beregi Oszkár, Rajnay (Rajnai) Gábor, Makay Margit, Lenkeffy Ica, Berky Lili
    Zongorán kíséri: Darvas Ferenc
    Rendezte: Korda Sándor

    Médiainformáció:
    Show Spoiler

    G:\0\DVD+\2215 - Az aranyember (1918, 1936)\1918\Az aranyember (1918) tvrip.avi
    General
    Complete name : G:\0\DVD+\2215 - Az aranyember (1918, 1936)\1918\Az aranyember (1918) tvrip.avi
    Format : DivX
    Format/Info : Hack of AVI
    File size : 623 MiB
    Duration : 1 h 0 min
    Overall bit rate : 1 438 kb/s
    FileExtension_Invalid : divx
    Video #0
    ID : 0
    Format : MPEG-4 Visual
    Format settings : BVOP1
    Format settings, BVOP : 1
    Format settings, QPel : No
    Format settings, GMC : No warppoints
    Format settings, Matrix : Default (H.263)
    Muxing mode : Packed bitstream
    Codec ID : DX50
    Codec ID/Hint : DivX 5
    Duration : 1 h 0 min
    Bit rate : 1 300 kb/s
    Nominal bit rate : 4 854 kb/s
    Width : 720 pixels
    Height : 576 pixels
    Display aspect ratio : 5:4
    Frame rate : 25.000 FPS
    Standard : PAL
    Color space : YUV
    Chroma subsampling : 4:2:0
    Bit depth : 8 bits
    Scan type : Progressive
    Compression mode : Lossy
    Bits/(Pixel*Frame) : 0.125
    Stream size : 564 MiB (90%)
    Title : Main
    Writing library : DivX 6.5.1 (UTC 2007-03)
    Audio #1
    ID : 1
    Format : MPEG Audio
    Format version : Version 1
    Format profile : Layer 3
    Format settings : Joint stereo / MS Stereo
    Codec ID : 55
    Codec ID/Hint : MP3
    Duration : 1 h 0 min
    Bit rate mode : Constant
    Bit rate : 128 kb/s
    Channel(s) : 2 channels
    Sampling rate : 48.0 kHz
    Compression mode : Lossy
    Stream size : 55.5 MiB (9%)
    Alignment : Split accross interleaves
    Interleave, duration : 40 ms (1.00 video frame)
    Interleave, preload duration : 500 ms
    Title : Audio


    [​IMG]

    1918/1995 - tvrip - avi - 626 MB - 720x576 - 128 kbps - 1:00:34
    Rejtett tartalom:
    **Rejtett tartalom: A tartalom megjelenítéséhez kattints a 'Tetszik' gombra.**
    [​IMG]

    Az aranyember
    Fekete-fehér magyar film (1936)
    Főszereplők: Kiss Ferenc, Uray Tivadar, Egry Mária, Füzess Anna, Csortos Gyula, Sziklay Szeréna, Mezey Mária, Petheö Attila, Kormos Márta, Rózsahegyi Kálmán, Básti (Básthy) Lajos
    Rendezte: Gaál Béla

    Médiainformáció:
    Show Spoiler

    G:\0\DVD+\2215 - Az aranyember (1918, 1936)\1936\Az aranyember (1936).avi
    General
    Complete name : G:\0\DVD+\2215 - Az aranyember (1918, 1936)\1936\Az aranyember (1936).avi
    Format : AVI
    Format/Info : Audio Video Interleave
    File size : 975 MiB
    Duration : 1 h 37 min
    Overall bit rate : 1 393 kb/s
    Writing application : VirtualDubMod 1.5.4.1 (build 2178/release)
    Writing library : VirtualDubMod build 2178/release
    Video #0
    ID : 0
    Format : MPEG-4 Visual
    Format profile : Advanced [email protected]
    Format settings : BVOP1 / Custom Matrix
    Format settings, BVOP : 1
    Format settings, QPel : No
    Format settings, GMC : No warppoints
    Format settings, Matrix : Custom
    Codec ID : XVID
    Codec ID/Hint : XviD
    Duration : 1 h 37 min
    Bit rate : 1 257 kb/s
    Width : 720 pixels
    Height : 544 pixels
    Display aspect ratio : 4:3
    Frame rate : 25.000 FPS
    Color space : YUV
    Chroma subsampling : 4:2:0
    Bit depth : 8 bits
    Scan type : Progressive
    Compression mode : Lossy
    Bits/(Pixel*Frame) : 0.128
    Stream size : 880 MiB (90%)
    Writing library : XviD 1.2.1 (UTC 2008-12-04)
    Audio #1
    ID : 1
    Format : MPEG Audio
    Format version : Version 1
    Format profile : Layer 3
    Format settings : Joint stereo / MS Stereo
    Codec ID : 55
    Codec ID/Hint : MP3
    Duration : 1 h 37 min
    Bit rate mode : Constant
    Bit rate : 128 kb/s
    Channel(s) : 2 channels
    Sampling rate : 48.0 kHz
    Frame rate : 41.667 FPS (1152 SPF)
    Compression mode : Lossy
    Stream size : 89.6 MiB (9%)
    Alignment : Aligned on interleaves
    Interleave, duration : 80 ms (2.00 video frames)
    Interleave, preload duration : 504 ms
    Writing library : LAME3.98r
    Encoding settings : -m j -V 4 -q 2 -lowpass 17 -b 128


    [​IMG]

    1936/2010 - dvdrip - avi - 979 MB - 720x544 px - 128 kbps - 1:37:52
    Rejtett tartalom:
    **Rejtett tartalom: A tartalom megjelenítéséhez kattints a 'Tetszik' gombra.**
    [​IMG]

    Az aranyember
    Magyar film (1962)
    Főszereplők: Csorba András, Béres Ilona, Szabó Ernő, Krencsey Marianne, Greguss Zoltán, Gobbi Hilda, Bárány Frigyes, Pécsi Ildikó, Komlós Juci, Latinovits Zoltán, Kovács Károly
    Rendezte: Gertler Viktor

    Médiainformáció:
    Show Spoiler

    G:\0\DVD+\2216 - Az aranyember (1962)\Az aranyember (1962).avi
    General
    Complete name : G:\0\DVD+\2216 - Az aranyember (1962)\Az aranyember (1962).avi
    Format : AVI
    Format/Info : Audio Video Interleave
    File size : 1.04 GiB
    Duration : 1 h 46 min
    Overall bit rate : 1 399 kb/s
    Writing application : VirtualDubMod 1.5.4.1 (build 2178/release)
    Writing library : VirtualDubMod build 2178/release
    Video #0
    ID : 0
    Format : MPEG-4 Visual
    Format profile : Advanced [email protected]
    Format settings : BVOP1 / Custom Matrix
    Format settings, BVOP : 1
    Format settings, QPel : No
    Format settings, GMC : No warppoints
    Format settings, Matrix : Custom
    Codec ID : XVID
    Codec ID/Hint : XviD
    Duration : 1 h 46 min
    Bit rate : 1 263 kb/s
    Width : 720 pixels
    Height : 304 pixels
    Display aspect ratio : 2.35:1
    Frame rate : 25.000 FPS
    Color space : YUV
    Chroma subsampling : 4:2:0
    Bit depth : 8 bits
    Scan type : Progressive
    Compression mode : Lossy
    Bits/(Pixel*Frame) : 0.231
    Stream size : 964 MiB (90%)
    Writing library : XviD 1.2.1 (UTC 2008-12-04)
    Audio #1
    ID : 1
    Format : MPEG Audio
    Format version : Version 1
    Format profile : Layer 3
    Format settings : Joint stereo / MS Stereo
    Codec ID : 55
    Codec ID/Hint : MP3
    Duration : 1 h 46 min
    Bit rate mode : Constant
    Bit rate : 128 kb/s
    Channel(s) : 2 channels
    Sampling rate : 48.0 kHz
    Frame rate : 41.667 FPS (1152 SPF)
    Compression mode : Lossy
    Stream size : 97.7 MiB (9%)
    Alignment : Aligned on interleaves
    Interleave, duration : 80 ms (2.00 video frames)
    Interleave, preload duration : 504 ms
    Writing library : LAME3.98r
    Encoding settings : -m j -V 4 -q 2 -lowpass 17 -b 128


    [​IMG]

    1962/2010 - dvdrip - avi - 1,04 GB - 720x304 px - 128 kbps - 1:46:40
    Rejtett tartalom:
    **Rejtett tartalom: A tartalom megjelenítéséhez kattints a 'Tetszik' gombra.**
    [​IMG]

    A '62-es filmnek volt egy korábbi MOKÉP-es kiadása is. Ennek extráiból:
    Sztárok a filmről - Nagy Feró (Beatrice) és Balanyi Szilárd (Quimby) (96 MB - 9:35)
    Részletek a "Hajóval két világ határán" című filmből:
    A Vaskapu (109 MB - 11:07)
    A "Senki szigete" (9 MB - 1:53)
    Diafilm (1953) - pdf formátumban

    Rejtett tartalom:
    **Rejtett tartalom: A tartalom megjelenítéséhez kattints a 'Tetszik' gombra.**
    Törlések miatt újratöltve.
     
  5. papadi

    papadi Állandó Tag

    [​IMG]

    A tizedes meg a többiek
    Fekete-fehér háborús komédia (1965)
    Főszereplők: Major Tamás, Sinkovits Imre, Darvas Iván, Pálos György, Ungváry László, Kozák László, Szabó Gyula, Márkus László, Horváth Tivadar, Cs. Németh Lajos
    Rendező: Keleti Márton
    Magyar filmek gyűjteménye 1.
    Fantasy Film, 2006. október 2.

    Tartalom a borítóról:
    Molnár tizedes (Sinkovits Imre) úgy dönt, hogy a maga részéről befejezettnek nyilvánítja a II. Világháborús részvételét és kézigránátokba rejtett zsoldjával a nyakában olajra lép. Egy kastélyban próbál elrejtőzni, melynek fenntartását egy meglehetősen pikírt inasra, Albertre (Major Tamás) bízták rá. Pechjére a jó kis búvóhely tele van katonaszökevényekkel, akik szintén a lelépés mellett döntöttek. Molnár átveszi a parancsnokságot és a dezertőr szakasz élén hamarosan több életveszélyes feladat szakad a nyakába, mint addig összesen: ha kell, honvédeknek adják ki magukat, szovjet katonát mentenek meg, a nyilasokkal harcolnak.
    Hiába sikerül túljárni mindenki eszén, végül ők is a szovjet hadifogságban végzik, ahol partizán szabadcsapatot szerveznek...


    Extrák:
    magyar és angol felirat
    Ajánló (0:51)

    Média információ:

    Video:
    Kodek: MPEG-1/2 Video (mpgv)
    Felbontás: 720x576
    Képkockasebesség: 25
    Képformátum: 1.37:1 (4:3)

    Hang:
    Kodek: A52 Audio (aka AC3) (a52)
    Csatornák: 3F2R/LFE
    Mintavételi frekvencia: 48000 Hz
    Bitsebesség: 448 kb/mp

    Formátum: iso
    Méret: 4,21 GB
    Műsoridő: 1:40:46

    (prémium)
    Rejtett tartalom:
    **Rejtett tartalom: A tartalom megjelenítéséhez kattints a 'Tetszik' gombra.**
     
    maumon, Adodi, jancsi64 és 1 másik tag kedveli ezt.
  6. papadi

    papadi Állandó Tag

    [​IMG]

    Pacsirta
    Fekete-fehér magyar dráma (1963)
    Főszereplők: Tolnay Klári, Páger Antal, Nagy Anna, Törőcsik Mari, Bara Margit, Latinovits Zoltán, Bessenyei Ferenc, Darvas Iván, Greguss Zoltán, Szakács Sándor
    Rendezte: Ranódy László
    Magyar filmek gyűjteménye 4.
    Fantasy Film, 2006. október 5.

    Tartalom a borítóról:
    Kosztolányi Dezső regénye a Vajkay család tragikus történetét dolgozza fel. Vajkay Ákos (Páger Antal) és felesége (Tolnay Klári) évek óta abban reménykednek, hogy csúf és szerencsétlen sorsú lányukat, Pacsirtát végre sikerül férjhez adniuk. A család egy ideje szinte ki sem mozdul otthonából, még a tükröket is eltakarják, hogy ne szembesüljenek a valósággal: amíg Pacsirta a nyakukon marad, semmi esélyük a boldog és normális életre. Egy napon a lányt elküldik pár napra a rokonokhoz, hátha sikerül férjet találni ott neki. A magára maradt házaspár előtt hamar kinyílik a világ: ismét összetalálkoznak régi barátaikkal, színházba járnak, társasági életet élnek, de mindvégig ott van bennük a szörnyű tudat, hogy ez a boldogság csak addig tarthat, amíg Pacsirta vissza nem tér a szülői házba...

    [​IMG]

    Formátum: dvdrip/avi
    Méret: 969 MB
    Felbontás: 720x544
    Mintavételi frekvencia: 48000 Hz
    Bitsebesség: 128 kbps
    Műsoridő: 1:36:56

    Részletes média információ:
    Show Spoiler

    I:\Video\04 - Pacsirta.avi
    General
    Complete name : I:\Video\04 - Pacsirta.avi
    Format : AVI
    Format/Info : Audio Video Interleave
    File size : 968 MiB
    Duration : 1 h 36 min
    Overall bit rate : 1 396 kb/s
    Writing application : VirtualDubMod 1.5.4.1 (build 2178/release)
    Writing library : VirtualDubMod build 2178/release
    Video #0
    ID : 0
    Format : MPEG-4 Visual
    Format profile : Advanced [email protected]
    Format settings, BVOP : 1
    Format settings, QPel : No
    Format settings, GMC : No warppoints
    Format settings, Matrix : Custom
    Codec ID : XVID
    Codec ID/Hint : XviD
    Duration : 1 h 36 min
    Bit rate : 1 261 kb/s
    Width : 720 pixels
    Height : 544 pixels
    Display aspect ratio : 4:3
    Frame rate : 25.000 FPS
    Color space : YUV
    Chroma subsampling : 4:2:0
    Bit depth : 8 bits
    Scan type : Progressive
    Compression mode : Lossy
    Bits/(Pixel*Frame) : 0.129
    Stream size : 874 MiB (90%)
    Writing library : XviD 1.2.1 (UTC 2008-12-04)
    Audio #1
    ID : 1
    Format : MPEG Audio
    Format version : Version 1
    Format profile : Layer 3
    Mode : Joint stereo
    Mode extension : MS Stereo
    Codec ID : 55
    Codec ID/Hint : MP3
    Duration : 1 h 36 min
    Bit rate mode : Constant
    Bit rate : 128 kb/s
    Channel(s) : 2 channels
    Sampling rate : 48.0 kHz
    Compression mode : Lossy
    Stream size : 88.8 MiB (9%)
    Alignment : Aligned on interleaves
    Interleave, duration : 80 ms (2.00 video frames)
    Interleave, preload duration : 504 ms
    Writing library : LAME3.98r
    Encoding settings : -m j -V 4 -q 2 -lowpass 17 -b 128


    Kód:
    
    
    
    
    Rejtett tartalom:
    **Rejtett tartalom: A tartalom megjelenítéséhez kattints a 'Tetszik' gombra.**
    vagy free
    Rejtett tartalom:
    **Rejtett tartalom: A tartalom megjelenítéséhez kattints a 'Tetszik' gombra.**
     
    edem5 és donvackor kedveli ezt.
  7. papadi

    papadi Állandó Tag

    [​IMG]

    Édes Anna
    Fekete-fehér magyar filmdráma (1958)
    Főszereplők: Törőcsik Mari, Mezei Mária, Kovács Károly, Fülöp Zsigmond fh.
    Rendezte: Fábri Zoltán
    Magyar filmek gyűjteménye 8.
    Fantasy Film, 2006. október 5.

    Tartalom a borítóról:
    Vizyék a kommün bukása után igyekeznek úgy folytatni életüket, mint a felfordulás előtt. Felvesznek egy új mindenest, a csendes és szorgalmas Annát. A lánynak udvarlója is akad, a tisztességes kéményseprőfiú, de Anna az úr unokaöccsébe, Jancsiba lesz szerelmes. A férfi elcsábítja a lányt, de többet nem törődik vele, csak akkor, amikor kiderül: terhes. Ekkor pénzt ad a műtétre. Vizyék egy pompázatos vacsorán vendégül látják Jancsit és új barátnőjét. Anna mélységes megaláztatásában éjjel leszúrja a Vizy házaspárt.

    [​IMG]

    Formátum: dvdrip/avi
    Méret: 833 MB
    Felbontás: 720x544
    Mintavételi frekvencia: 48000 Hz
    Bitsebesség: 128 kbps
    Műsoridő: 1:23:54

    Részletes média információ:
    Show Spoiler

    I:\Video\08 - Édes Anna.avi
    General
    Complete name : I:\Video\08 - Édes Anna.avi
    Format : AVI
    Format/Info : Audio Video Interleave
    File size : 837 MiB
    Duration : 1 h 23 min
    Overall bit rate : 1 395 kb/s
    Writing application : VirtualDubMod 1.5.4.1 (build 2178/release)
    Writing library : VirtualDubMod build 2178/release
    Video #0
    ID : 0
    Format : MPEG-4 Visual
    Format profile : Advanced [email protected]
    Format settings, BVOP : 1
    Format settings, QPel : No
    Format settings, GMC : No warppoints
    Format settings, Matrix : Custom
    Codec ID : XVID
    Codec ID/Hint : XviD
    Duration : 1 h 23 min
    Bit rate : 1 260 kb/s
    Width : 720 pixels
    Height : 544 pixels
    Display aspect ratio : 4:3
    Frame rate : 25.000 FPS
    Color space : YUV
    Chroma subsampling : 4:2:0
    Bit depth : 8 bits
    Scan type : Progressive
    Compression mode : Lossy
    Bits/(Pixel*Frame) : 0.129
    Stream size : 756 MiB (90%)
    Writing library : XviD 1.2.1 (UTC 2008-12-04)
    Audio #1
    ID : 1
    Format : MPEG Audio
    Format version : Version 1
    Format profile : Layer 3
    Mode : Joint stereo
    Mode extension : MS Stereo
    Codec ID : 55
    Codec ID/Hint : MP3
    Duration : 1 h 23 min
    Bit rate mode : Constant
    Bit rate : 128 kb/s
    Channel(s) : 2 channels
    Sampling rate : 48.0 kHz
    Compression mode : Lossy
    Stream size : 76.8 MiB (9%)
    Alignment : Aligned on interleaves
    Interleave, duration : 80 ms (2.00 video frames)
    Interleave, preload duration : 504 ms
    Writing library : LAME3.98r
    Encoding settings : -m j -V 4 -q 2 -lowpass 17 -b 128


    Rejtett tartalom:
    **Rejtett tartalom: A tartalom megjelenítéséhez kattints a 'Tetszik' gombra.**
    vagy free
    Rejtett tartalom:
    **Rejtett tartalom: A tartalom megjelenítéséhez kattints a 'Tetszik' gombra.**
     
    edem5 kedveli ezt.
  8. papadi

    papadi Állandó Tag

    [​IMG]

    Két félidő a pokolban
    Fekete-fehér magyar háborús filmdráma (1961)
    Főszereplők: Sinkovits Imre, Garas Dezső, Márkus László, Molnár Tibor, Koltai János fh., Benkő Gyula, Suka Sándor, Gera Zoltán, Velenczey István, Horváth József, Komlós András, Szilágyi Gyula, Végvári Tamás fh., Rajz János, Görbe János, Egri István, Solti Bertalan, Misoga László, Apor Noémi, Fenyő Emil, Brachfeld Siegfried, Maklári János, Farkas Antal, Szendrő József, Bángyörgyi Károly, Iványi József
    Rendezte: Fábri Zoltán
    Magyar filmek gyűjteménye 9.
    Fantasy Film, 2006. október 2.

    Tartalom a borítóról:
    Valahol Ukrajnában vagyunk. A testileg-lelkileg meggyengült munkaszolgálatosok egy utolsó esélyt kapnak: mivel Hitler születésnapja van, összemérhetik erejüket egy futballmérkőzés keretében a német katonák válogatottjával. A szervezéssel Ónodi II.-t az egykori futballcsillagot bízzák meg, aki eleinte nem akarja elvállalni, hogy megszervezze a mérkőzést. Pedig ez lehet a foglyok utolsó esélye, és a focisták élelmet kapnak és mentesülnek a bányamunka alól is. A meccs ezúttal a túlélésért folyik, és a győzelem nem marad el. Az önfeledt ünneplés közben a német parancsnok tűzparancsot ad a gépfegyvereseknek...

    Extrák:
    magyar és angol felirat
    Ajánló (0:51)

    Média információ:

    Video:
    Kodek: MPEG-1/2 Video (mpgv)
    Felbontás: 720x576
    Képkockasebesség: 25
    Képformátum: 1.37:1 (4:3)

    Hang:
    Kodek: A52 Audio (aka AC3) (a52)
    Csatornák: 3F2R/LFE
    Mintavételi frekvencia: 48000 Hz
    Bitsebesség: 448 kb/mp

    Formátum: iso
    Méret: 4,27 GB
    Műsoridő: 1:59:17

    (prémium)
    Rejtett tartalom:
    **Rejtett tartalom: A tartalom megjelenítéséhez kattints a 'Tetszik' gombra.**
     
    jancsi64 és K_ur kedveli ezt.
  9. papadi

    papadi Állandó Tag

    [​IMG]

    Idő van
    Magyar filmdráma (1985)
    Főszereplők: Lázár Kati, Zala Márk, Ruttkai Éva, Bitskey Tibor, Cseh Tamás, Bodrogi Gyula, Básti Juli, Kern András
    Rendezte: Gothár Péter
    Magyar filmek gyűjteménye 16.
    Fantasy Film, 2007. január 12.

    Tartalom a borítóról:
    Halasi Mihály igazi magyar átlagember a '80-as évekből, aki pár hétre otthagyja a gyárat, bepattan a Trabantba feleségével és két gyerekével, aztán irány a vállalati üdülő. Még az M7-esre sem jut ki, amikor egy apró kellemetlenség kizökkenti az eseményeket a normális kerékvágásból. Misi rájön, hogy bent felejtette a gyárban a nemrég vásárolt vibrátort. Ettől kezdve útja kaotikus sodródás egy abszurd, kafkai világban: portásokkal vív fegyveres összecsapást, felesége bizarr betegsége ellen küzd, kórházi folyosók labirintusaiban kóvályog, szadista ellenőrnő áldozatául esik. Kálváriájában hősünk szenvedéseit anyja és testvére sem tudja enyhíteni. Egyedül kell megértenie, hogy élete nem fog önmagától értelmes történetté összeállni. Az embernek magának kell a lét komikus-fájdalmas összevisszaságában találni egy vezérfonalat, mely számára igazán lényeges - méghozzá sürgősen, mert: "Idő van".

    Extrák:
    angol és magyar felirat
    Ajánló (1:41)

    Média információ:

    Video:
    Kodek: MPEG-1/2 Video (mpgv)
    Felbontás: 720x576
    Képkockasebesség: 25
    Képformátum: 1.37:1 (4:3)

    Hang:
    Kodek: A52 Audio (aka AC3) (a52)
    Csatornák: 3F2R/LFE
    Mintavételi frekvencia: 48000 Hz
    Bitsebesség: 448 kb/mp

    Formátum: iso
    Méret: 4,34 GB
    Műsoridő: 1:40:53

    (prémium)
    Rejtett tartalom:
    **Rejtett tartalom: A tartalom megjelenítéséhez kattints a 'Tetszik' gombra.**
     
  10. papadi

    papadi Állandó Tag

    [​IMG]

    Én vagyok Jeromos
    Magyar vígjáték (1970)
    Főszereplők: Alfonzó, Kállai Ferenc, Psota Irén, Harsányi Gábor, Pálos Zsuzsa, Bujtor István
    Rendezte: Tímár István
    Magyar filmek gyűjteménye 18.
    Fantasy Film, 2007. január 12.

    Tartalom a borítóról:
    A Katona-házaspár régi álma, hogy végre valaki rendbe hozza a kertjük végében éktelenkedő pöcegödröt. Amikor egy reggel arra ébrednek, hogy a Fenntartó Vállalat dolgozója csönget be hozzájuk, felcsillan a remény. Jeromos úr és fia, Zserom munkamorálja azonban siralmas, hiába birtokolják már évek óta az állami vándorzászlót. A sör fogy, a táskarádióból üvölt a zene, a fű pedig lassacskán kikopik a pihenő munkások alatt, akik "modellt alszanak" az amatőr festő Katonánénak. A gödör viszont marad. Végül Katonáné és az asszisztens, Juditka bevetik magukat az ügy érdekében. Divatos bikinijük és kitűnő csirkepaprikásuk - némi jóféle házi pálinkával kísérve persze - meghozza a várt eredményt. A dolgozók munkakedve oly mértékben megjavul, hogy egyetlen éjszaka leforgása alatt elkészül a vadonatúj pöcegödör.

    [​IMG]

    Formátum: dvdrip/avi
    Méret: 733 MB
    Felbontás: 720x416
    Mintavételi frekvencia: 48000 Hz
    Bitsebesség: 128 kbps
    Műsoridő: 1:13:12

    Részletes média információ:
    Show Spoiler

    I:\Video\18 - Én vagyok Jeromos.avi
    General
    Complete name : I:\Video\18 - Én vagyok Jeromos.avi
    Format : AVI
    Format/Info : Audio Video Interleave
    File size : 732 MiB
    Duration : 1 h 13 min
    Overall bit rate : 1 398 kb/s
    Writing application : VirtualDubMod 1.5.4.1 (build 2178/release)
    Writing library : VirtualDubMod build 2178/release
    Video #0
    ID : 0
    Format : MPEG-4 Visual
    Format profile : Advanced [email protected]
    Format settings, BVOP : 1
    Format settings, QPel : No
    Format settings, GMC : No warppoints
    Format settings, Matrix : Custom
    Codec ID : XVID
    Codec ID/Hint : XviD
    Duration : 1 h 13 min
    Bit rate : 1 263 kb/s
    Width : 720 pixels
    Height : 416 pixels
    Display aspect ratio : 1.731
    Frame rate : 25.000 FPS
    Color space : YUV
    Chroma subsampling : 4:2:0
    Bit depth : 8 bits
    Scan type : Progressive
    Compression mode : Lossy
    Bits/(Pixel*Frame) : 0.169
    Stream size : 661 MiB (90%)
    Writing library : XviD 1.2.1 (UTC 2008-12-04)
    Audio #1
    ID : 1
    Format : MPEG Audio
    Format version : Version 1
    Format profile : Layer 3
    Mode : Joint stereo
    Mode extension : MS Stereo
    Codec ID : 55
    Codec ID/Hint : MP3
    Duration : 1 h 13 min
    Bit rate mode : Constant
    Bit rate : 128 kb/s
    Channel(s) : 2 channels
    Sampling rate : 48.0 kHz
    Compression mode : Lossy
    Stream size : 67.0 MiB (9%)
    Alignment : Aligned on interleaves
    Interleave, duration : 80 ms (2.00 video frames)
    Interleave, preload duration : 504 ms
    Writing library : LAME3.98r
    Encoding settings : -m j -V 4 -q 2 -lowpass 17 -b 128


    Rejtett tartalom:
    **Rejtett tartalom: A tartalom megjelenítéséhez kattints a 'Tetszik' gombra.**
    vagy free
    Rejtett tartalom:
    **Rejtett tartalom: A tartalom megjelenítéséhez kattints a 'Tetszik' gombra.**
     
    mezogyula kedveli ezt.
  11. papadi

    papadi Állandó Tag

    [​IMG]

    Talpuk alatt fütyül a szél
    Magyar betyárfilm (1976)
    Főszereplők: Djoko Rosic (Besaenyei Ferenc), Bujtor István, Vladan Holec (Cserhalmi György)
    Rendezte: Szomjas György
    Magyar filmek gyűjteménye 23.
    Fantasy Film, 2007. január 12.

    Tartalom a borítóról:
    1837-ben járunk. Karcag városának elöljárói határtalan pénzéhségükben habozás nélkül feldúlják a város melletti, érintetlen pusztákat és megzavarják az ott legeltető pásztorok ősi életvitelét. Farkas Csapó Gyurka, a hírhedt betyár képes lenne megvédeni a puszta rendjét, de vajon kiállhatnak-e egy tömlöcből szökött rablógyilkos mellett a pusztaiak? Különösen nehéz kérdés ez Mérges Balázs csendbiztos számára, aki Gyurka legfőbb ellensége - mégis egyetlen igaz barátja. Egészen addig, míg egy betyárvezér meggyilkolását nem varrják a nyakába. Vérdíjat tűznek ki a fejére, s miután leszámolt ellenfelével, a pásztorok juttatják Gyurkát csendőrkézre és bitófára.

    [​IMG]

    Formátum: dvdrip/avi
    Méret: 871 MB
    Felbontás: 720x544
    Mintavételi frekvencia: 48000 Hz
    Bitsebesség: 128 kbps
    Műsoridő: 1:27:17

    Részletes média információ:
    Show Spoiler

    I:\Video\23 - Talpuk alatt fütyül a szél.avi
    General
    Complete name : I:\Video\23 - Talpuk alatt fütyül a szél.avi
    Format : AVI
    Format/Info : Audio Video Interleave
    File size : 870 MiB
    Duration : 1 h 27 min
    Overall bit rate : 1 394 kb/s
    Writing application : VirtualDubMod 1.5.4.1 (build 2178/release)
    Writing library : VirtualDubMod build 2178/release
    Video #0
    ID : 0
    Format : MPEG-4 Visual
    Format profile : Advanced [email protected]
    Format settings, BVOP : 1
    Format settings, QPel : No
    Format settings, GMC : No warppoints
    Format settings, Matrix : Custom
    Codec ID : XVID
    Codec ID/Hint : XviD
    Duration : 1 h 27 min
    Bit rate : 1 259 kb/s
    Width : 720 pixels
    Height : 544 pixels
    Display aspect ratio : 4:3
    Frame rate : 25.000 FPS
    Color space : YUV
    Chroma subsampling : 4:2:0
    Bit depth : 8 bits
    Scan type : Progressive
    Compression mode : Lossy
    Bits/(Pixel*Frame) : 0.129
    Stream size : 786 MiB (90%)
    Writing library : XviD 1.2.1 (UTC 2008-12-04)
    Audio #1
    ID : 1
    Format : MPEG Audio
    Format version : Version 1
    Format profile : Layer 3
    Mode : Joint stereo
    Mode extension : MS Stereo
    Codec ID : 55
    Codec ID/Hint : MP3
    Duration : 1 h 27 min
    Bit rate mode : Constant
    Bit rate : 128 kb/s
    Channel(s) : 2 channels
    Sampling rate : 48.0 kHz
    Compression mode : Lossy
    Stream size : 79.9 MiB (9%)
    Alignment : Aligned on interleaves
    Interleave, duration : 80 ms (2.00 video frames)
    Interleave, preload duration : 504 ms
    Writing library : LAME3.98r
    Encoding settings : -m j -V 4 -q 2 -lowpass 17 -b 128


    Rejtett tartalom:
    **Rejtett tartalom: A tartalom megjelenítéséhez kattints a 'Tetszik' gombra.**
    vagy free
    Rejtett tartalom:
    **Rejtett tartalom: A tartalom megjelenítéséhez kattints a 'Tetszik' gombra.**
     
    jancsi64 és Mászlo kedveli ezt.
  12. papadi

    papadi Állandó Tag

    [​IMG]

    Uramisten
    Magyar film (1984)
    Főszereplők: Feleki Kamill, Eperjes Károly, Dörner György, Csákányi László, Garas Dezső, Tábori Nóra, Nyakó Júlia, Papp Vera, Tarján Györgyi, Ujlaki Dénes
    Rendezte: Gárdos Péter
    Magyar filmek gyűjteménye 25.
    Fantasy Film, 2006. október 26.

    Tartalom a borítóról:
    Sajek Oszkár (Eperjes Károly) cirkuszi akrobata, egy szerencsétlen baleset következtében kénytelen abbahagyni hordós ugrómutatványát. Új számot kell keresnie, és ő tudja is, mihez volna kedve. Az öreg szabaduló művész, Binder Lipót (Feleki Kamill) hajdani attrakcióját, "A Jégbe Zárt Ember" trükkjét szeretné megvásárolni. Egyetlen vágya, hogy ő is képes legyen órákat tölteni levegő nélkül, egy fagyos jégtömbbe zárva. E titok megfejtésére tesz fel mindent, ami az életben számára fontos. Lipi bácsi azonban makacs ember, ráadásul kegyetlen is. Kiélvezi a fiatalember rajongó érdeklődését, megalázkodó könyörgését, miközben esze ágában sincs elárulni a trükköt. Vajon ez a végletekig hiú ember a sírba is magával viszi a világszám titkát?

    Extrák:
    angol és magyar felirat
    Exluzív interjú Gárdos Péterrel pályájáról, filmjeiről (14:34)
    Gárdos Péter az Uramisten! forgatásáról (
    Gárdos Péter filmográfia
    Ajánló (2:31)

    Média információ:

    Video:
    Kodek: MPEG-1/2 Video (mpgv)
    Felbontás: 720x576
    Képkockasebesség: 25
    Képformátum: 1.37:1 (4:3)

    Hang:
    Kodek: A52 Audio (aka AC3) (a52)
    Csatornák: 3F2R/LFE
    Mintavételi frekvencia: 48000 Hz
    Bitsebesség: 448 kb/mp

    Formátum: iso
    Méret: 6,04 GB
    Műsoridő: 1:29:41 (2:09:49)

    (prémium)
    Rejtett tartalom:
    **Rejtett tartalom: A tartalom megjelenítéséhez kattints a 'Tetszik' gombra.**
     
    jancsi64 és hfmhu kedveli ezt.
  13. papadi

    papadi Állandó Tag

    [​IMG]

    Eldorádó
    Magyar filmdráma (1988)
    Főszereplők: Eperjes Károly, Pogány Judit, Eszenyi Enikő, Andorai Péter, Balkay Géza
    Rendezte: Bereményi Géza
    Magyar filmek gyűjteménye 26.
    Fantasy Film, 2006. október 26.

    Tartalom a borítóról:
    1945. Monori Sándor (Eperjes Károly) a Teleki téri piac királya, akit mindenki Sanyi bácsiként tisztel. Ő az, aki fittyet hány arra, milyen a politikai rendszer, hiszen számára egyetlen törvény létezik: arannyal mindent és mindenkit meg lehet vásárolni. Amikor lánya terhesen tér haza Bécsből, Monori két marék ékszer árán szabadul meg vejétől, hogy születendő unokáját maga nevelhesse fel, és megtanítsa arra, hogyan lehet ebben az országban túlélni - akár egy halálosnak hitt betegséget is. 1956-ban aztán mindent elkövet, hogy családját külföldre juttassa, de úgy tűnik, ekkor már az arany is kevés a túléléshez...

    Extrák:
    magyar felirat
    Ajánló (1:41)

    Média információ:

    Video:
    Kodek: MPEG-1/2 Video (mpgv)
    Felbontás: 720x576
    Képkockasebesség: 25
    Képformátum: 1.37:1 (4:3)

    Hang:
    Kodek: A52 Audio (aka AC3) (a52)
    Csatornák: 3F2R/LFE
    Mintavételi frekvencia: 48000 Hz
    Bitsebesség: 448 kb/mp

    Formátum: iso
    Méret: 4,06 GB
    Műsoridő: 1:39:07

    (prémium)
    Rejtett tartalom:
    **Rejtett tartalom: A tartalom megjelenítéséhez kattints a 'Tetszik' gombra.**
    [​IMG]

    Formátum: dvdrip/avi
    Méret: 991 MB
    Felbontás: 720x544
    Mintavételi frekvencia: 48000 Hz
    Bitsebesség: 128 kbps
    Műsoridő: 1:39:06

    Részletes média információ:
    Show Spoiler

    I:\Video\26 - Eldorádó.avi
    General
    Complete name : I:\Video\26 - Eldorádó.avi
    Format : AVI
    Format/Info : Audio Video Interleave
    File size : 990 MiB
    Duration : 1 h 39 min
    Overall bit rate : 1 397 kb/s
    Writing application : VirtualDubMod 1.5.4.1 (build 2178/release)
    Writing library : VirtualDubMod build 2178/release
    Video #0
    ID : 0
    Format : MPEG-4 Visual
    Format profile : Advanced [email protected]
    Format settings, BVOP : 1
    Format settings, QPel : No
    Format settings, GMC : No warppoints
    Format settings, Matrix : Custom
    Codec ID : XVID
    Codec ID/Hint : XviD
    Duration : 1 h 39 min
    Bit rate : 1 262 kb/s
    Width : 720 pixels
    Height : 544 pixels
    Display aspect ratio : 4:3
    Frame rate : 25.000 FPS
    Color space : YUV
    Chroma subsampling : 4:2:0
    Bit depth : 8 bits
    Scan type : Progressive
    Compression mode : Lossy
    Bits/(Pixel*Frame) : 0.129
    Stream size : 894 MiB (90%)
    Writing library : XviD 1.2.1 (UTC 2008-12-04)
    Audio #1
    ID : 1
    Format : MPEG Audio
    Format version : Version 1
    Format profile : Layer 3
    Mode : Joint stereo
    Mode extension : MS Stereo
    Codec ID : 55
    Codec ID/Hint : MP3
    Duration : 1 h 39 min
    Bit rate mode : Constant
    Bit rate : 128 kb/s
    Channel(s) : 2 channels
    Sampling rate : 48.0 kHz
    Compression mode : Lossy
    Stream size : 90.7 MiB (9%)
    Alignment : Aligned on interleaves
    Interleave, duration : 80 ms (2.00 video frames)
    Interleave, preload duration : 504 ms
    Writing library : LAME3.98r
    Encoding settings : -m j -V 4 -q 2 -lowpass 17 -b 128


    Rejtett tartalom:
    **Rejtett tartalom: A tartalom megjelenítéséhez kattints a 'Tetszik' gombra.**
    vagy free
    Rejtett tartalom:
    **Rejtett tartalom: A tartalom megjelenítéséhez kattints a 'Tetszik' gombra.**
    Linktörlődés miatt újratöltve, a sorozat többi filmje pár oldallal előbbre.
     
    Palyácska kedveli ezt.
  14. papadi

    papadi Állandó Tag

    Indul a bakterház

    [​IMG]

    Indul a bakterház
    Magyar vígjáték (1979)
    Főszereplők: Olvasztó Imre, Koltai Róbert, Horváth Teri, Haumann Péter, Pécsi Ildikó, Bánhidi László, Csákányi László
    Rendezte: Mihályfy Sándor
    MTV / MOKÉP, MOKÉP 015, 2003. április 8.

    Regős Bendegúzt anyja szolgálni küldi a lókupechez, akitől a fiú megszökik. A bakterhez keveredik, s itt kezdődnek el a vidám bonyodalmak. (a borítóról)

    Extrák:
    Rendezői kommentár
    Rideg Sándor bibliográfia
    Mihályfy Sándor filmográfia
    Interjú - Ahogy a színész emlékezik (7:58)
    Mert hasonlítanak! - Két könyv, két kamasz (Ábel a rengetegben - filmrészletek) (5:30)
    Kölyökfilmek és jófej kölykök - filmrészletek:
    Hahó Öcsi (1:09)
    Égigérő fű (2:33)
    Hahó a tenger (1:25)
    Gyerekrablás a Palánk utcában (1:00)

    Média információ:

    Video:
    Kodek: MPEG-1/2 Video (mpgv)
    Felbontás: 720x576
    Képkockasebesség: 25
    Képformátum: 1.33:1 (4:3)

    Hang:
    Kodek: A52 Audio (aka AC3) (a52)
    Csatornák: Sztereó
    Mintavételi frekvencia: 48000 Hz
    Bitsebesség: 192 kb/mp

    Formátum: iso
    Méret: 4,16 GB
    Műsoridő: 1:06:10 (1:25:45)

    (prémium)
    Rejtett tartalom:
    **Rejtett tartalom: A tartalom megjelenítéséhez kattints a 'Tetszik' gombra.**
    [​IMG]

    Formátum: dvdrip/avi
    Méret: 880 MB
    Felbontás: 720x544
    Mintavételi frekvencia: 48000 Hz
    Bitsebesség: 128 kbps
    Műsoridő: 1:06:10

    Részletes média információ:
    Show Spoiler

    I:\Video\Indul a bakterház.avi
    General
    Complete name : I:\Video\Indul a bakterház.avi
    Format : AVI
    Format/Info : Audio Video Interleave
    File size : 879 MiB
    Duration : 1 h 6 min
    Overall bit rate : 1 856 kb/s
    Writing application : VirtualDubMod 1.5.4.1 (build 2178/release)
    Writing library : VirtualDubMod build 2178/release
    Video #0
    ID : 0
    Format : MPEG-4 Visual
    Format profile : Advanced [email protected]
    Format settings, BVOP : 1
    Format settings, QPel : No
    Format settings, GMC : No warppoints
    Format settings, Matrix : Custom
    Codec ID : XVID
    Codec ID/Hint : XviD
    Duration : 1 h 6 min
    Bit rate : 1 590 kb/s
    Width : 720 pixels
    Height : 544 pixels
    Display aspect ratio : 4:3
    Frame rate : 25.000 FPS
    Color space : YUV
    Chroma subsampling : 4:2:0
    Bit depth : 8 bits
    Scan type : Progressive
    Compression mode : Lossy
    Bits/(Pixel*Frame) : 0.162
    Stream size : 753 MiB (86%)
    Writing library : XviD 1.2.1 (UTC 2008-12-04)
    Audio #1
    ID : 1
    Format : MPEG Audio
    Format version : Version 1
    Format profile : Layer 3
    Mode : Joint stereo
    Mode extension : MS Stereo
    Codec ID : 55
    Codec ID/Hint : MP3
    Duration : 1 h 6 min
    Bit rate mode : Constant
    Bit rate : 128 kb/s
    Channel(s) : 2 channels
    Sampling rate : 48.0 kHz
    Compression mode : Lossy
    Stream size : 60.6 MiB (7%)
    Alignment : Aligned on interleaves
    Interleave, duration : 80 ms (2.00 video frames)
    Interleave, preload duration : 504 ms
    Writing library : LAME3.98r
    Encoding settings : -m j -V 4 -q 2 -lowpass 17 -b 128
    Audio #2
    ID : 2
    Format : MPEG Audio
    Format version : Version 1
    Format profile : Layer 3
    Mode : Joint stereo
    Mode extension : MS Stereo
    Codec ID : 55
    Codec ID/Hint : MP3
    Duration : 1 h 6 min
    Bit rate mode : Constant
    Bit rate : 128 kb/s
    Channel(s) : 2 channels
    Sampling rate : 48.0 kHz
    Compression mode : Lossy
    Stream size : 60.6 MiB (7%)
    Alignment : Aligned on interleaves
    Interleave, duration : 80 ms (2.00 video frames)
    Interleave, preload duration : 504 ms
    Writing library : LAME3.98r
    Encoding settings : -m j -V 4 -q 2 -lowpass 17 -b 128


    prémium
    Rejtett tartalom:
    **Rejtett tartalom: A tartalom megjelenítéséhez kattints a 'Tetszik' gombra.**
    vagy free
    Rejtett tartalom:
    **Rejtett tartalom: A tartalom megjelenítéséhez kattints a 'Tetszik' gombra.**
    Linktörlődések miatt újratöltve.
     
    nandus kedveli ezt.
  15. papadi

    papadi Állandó Tag

    Egy bolond százat csinál - 2x (1942, 2006)

    [​IMG]

    Egy bolond százat csinál
    Fekete-fehér magyar film (1942/2005)
    Főszereplők: Latabár Kálmán, Benkő Gyula, Egry Mária, Hidvéghy Valéria, Rajnay Gábor, Halmay Tibor, Raffay Banka, Mály Gerő
    Rendezte: Martonffy Emil
    Magyar klasszikusok 6.

    Ajánló a borítóról:
    Vadássz a főpincérre!
    Vajon mit kezdjen magával az az ember, aki hirtelen kénytelen búcsút mondani addigi megbízható főpincéri állásának? Helyezkedjen el máshol? Nézzen magának másfajta elfoglaltságot? Dömötör (Latabár Kálmán), az ex-főpincér és karmester „kollégája” (Benkő Gyula) kapnak az alkalmon és visszatérnek addigi munkahelyükre, a mulatóba, ahol immár vendégként veszik szemügyre a szórakoztató intézményt, sőt az addig tálcákkal szaladgáló hősünk egy világhírű oroszlánvadásszal, gróf Rog-Igor-Szju-Azerew-vel (Latabár Kálmán) való hasonlatosságát kihasználva álszakállt ragasztva nemesnek adja ki magát.
    A trükk egészen jól működik, senki sem leplezi le az „álnemest” - egészen addig, amíg meg nem érkezik maga a rettenthetetlen (és valódi) afrikai vadász…
    A helyzetkomikum fergeteges mestere, Latabár Kálmán 1943 tavaszán szinte ugyanabban az időben két különböző vígjátékkal, az Egy szoknya, egy nadrággal és az Egy bolond százat csinál-lal jelentkezett: ez utóbbi Szüle Mihály igen sikeres és még ma is nagyon népszerű színdarabjából készült, és nem csupán az akkori, a világháború árnyékában nevető, de a mai közönség számára is igazi kikapcsolódást, remek szórakozást jelent.


    Média információ:

    Video:
    Kodek: MPEG-1/2 Video (mpgv)
    Felbontás: 704x576
    Képkockasebesség: 25
    Képformátum: 1.33:1 (4:3)

    Hang:
    Kodek: A52 Audio (aka AC3) (a52)
    Csatornák: Sztereó
    Mintavételi frekvencia: 48000 Hz
    Bitsebesség: 256 kb/mp

    Formátum: iso
    Méret: 3,92 GB
    Műsoridő: 1:19:50

    Megjeyzések:
    a Magyar klasszikusok sorozat első 23 filmjénél a képfájl VLC-vel való lejátszásánál nálam egy apró trükköt kellett alkalmazni: a figyelmeztető szöveg alatt Lejátszás -> Cím menűben átlépés 2. címre.
    A film után - mint egykor a VHS-en - közel 5 perc üres rész van.

    (prémium)
    Rejtett tartalom:
    **Rejtett tartalom: A tartalom megjelenítéséhez kattints a 'Tetszik' gombra.**
    A remake 2006-ból:
    [​IMG]

    Egy bolond százat csinál
    Magyar vígjáték (2006)
    Főszereplők: Gáspár Sándor, Szabó Győző, Gesztesi Károly, Oroszlán Szonja, Parti Nóra, Ullmann Mónika, Mucsi Zoltán, Scherer Péter, Bezerédi Zoltán, Badár Sándor
    Rendező: Gyöngyössy Bence
    Műsoridő: 1:35:44
    Felirat: magyar, angol

    Ajánló a borítóról:
    Be fogsz kattanni!
    László Dömötör anyakönyvvezető (Gáspár Sándor) válása után elszántan próbál új életet kezdeni, új szerelemre találni. Amikor azonban volt felesége elkobozza tőle a kis Suzukit és leépítésre hivatkozva főnöke is kirúgja, rászakad a világ. Összepakol, ám mielőtt végleg elhagyná a boldogtalan igenek színterét, megpillant a tévében egy tudósítást Lázár Norbertről, aki megszólalásig hasonlít rá. Hasonmása feltörekvő, a szürkegazdaságban tevékenykedő újgazdag, s meg nem erősített hírek szerint egy vadászbalesetben odaveszett Afrikában. Dömötör életvidám barátja Béci (Szabó Győző), a nőbolond fagyis elviszi egy éjszakai bárba feledni a csapásokat és megünnepelni barátja születésnapját. Itt azonban Dömötört hamarosan felismerik mint Lázár Norbit, és elkezdődik egy őrült kavalkád: szerepcserék, összekuszált szerelmek, egy bolond… még egy bolond… mind bolond!


    Extrák:
    Előzetes (2:22)
    TV-Spot (0:32)
    Így készült… (21:13)
    Kimaradt jelenetek (14:44)
    Klip - Balássy Betti és Varga Ferenc: Egy bolond százat csinál (3:50)
    Bakiparádé (3:35)
    Fotógaléria (3:21)
    Honlapajánló
    Támogatók (1:36)

    Média információ:

    Video:
    Kodek: MPEG-1/2 Video (mpgv)
    Felbontás: 720x576
    Képkockasebesség: 25
    Képformátum: 1.33:1 (4:3)

    Hang:
    Kodek: A52 Audio (aka AC3) (a52)
    Csatornák: Sztereó
    Mintavételi frekvencia: 48000 Hz
    Bitsebesség: 192 kb/mp

    Formátum: iso
    Méret: 7,28 GB
    Műsoridő: 1:35:44 (2:27:45)

    (prémium)
    Rejtett tartalom:
    **Rejtett tartalom: A tartalom megjelenítéséhez kattints a 'Tetszik' gombra.**
     
    Zug_a_tuske, musli és nandus kedveli ezt.
  16. papadi

    papadi Állandó Tag

    [​IMG]

    Egy bolond százat csinál
    Fekete-fehér magyar film (1942/2005)
    Főszereplők: Latabár Kálmán, Benkő Gyula, Egry Mária, Hidvéghy Valéria, Rajnay Gábor, Halmay Tibor, Raffay Banka, Mály Gerő
    Rendezte: Martonffy Emil
    Magyar klasszikusok 6.

    Ajánló a borítóról:
    Vadássz a főpincérre!
    Vajon mit kezdjen magával az az ember, aki hirtelen kénytelen búcsút mondani addigi megbízható főpincéri állásának? Helyezkedjen el máshol? Nézzen magának másfajta elfoglaltságot? Dömötör (Latabár Kálmán), az ex-főpincér és karmester „kollégája” (Benkő Gyula) kapnak az alkalmon és visszatérnek addigi munkahelyükre, a mulatóba, ahol immár vendégként veszik szemügyre a szórakoztató intézményt, sőt az addig tálcákkal szaladgáló hősünk egy világhírű oroszlánvadásszal, gróf Rog-Igor-Szju-Azerew-vel (Latabár Kálmán) való hasonlatosságát kihasználva álszakállt ragasztva nemesnek adja ki magát.
    A trükk egészen jól működik, senki sem leplezi le az „álnemest” - egészen addig, amíg meg nem érkezik maga a rettenthetetlen (és valódi) afrikai vadász…
    A helyzetkomikum fergeteges mestere, Latabár Kálmán 1943 tavaszán szinte ugyanabban az időben két különböző vígjátékkal, az Egy szoknya, egy nadrággal és az Egy bolond százat csinál-lal jelentkezett: ez utóbbi Szüle Mihály igen sikeres és még ma is nagyon népszerű színdarabjából készült, és nem csupán az akkori, a világháború árnyékában nevető, de a mai közönség számára is igazi kikapcsolódást, remek szórakozást jelent.


    [​IMG]

    Formátum: dvdrip/avi
    Méret: 841 MB
    Felbontás: 720x512
    Mintavételi frekvencia: 48000 Hz
    Bitsebesség: 128 kbps
    Műsoridő: 1:19:50

    Részletes média információ:
    Show Spoiler

    I:\0001\rar\0449 - Egy bolond százat csinál\Egy bolond százat csinál.avi
    General
    Complete name : I:\0001\rar\0449 - Egy bolond százat csinál\Egy bolond százat csinál.avi
    Format : AVI
    Format/Info : Audio Video Interleave
    File size : 838 MiB
    Duration : 1 h 19 min
    Overall bit rate : 1 468 kb/s
    Video #0
    ID : 0
    Format : MPEG-4 Visual
    Format profile : Advanced [email protected]
    Format settings, BVOP : 1
    Format settings, QPel : No
    Format settings, GMC : No warppoints
    Format settings, Matrix : Default (H.263)
    Codec ID : XVID
    Codec ID/Hint : XviD
    Duration : 1 h 19 min
    Bit rate : 1 323 kb/s
    Width : 720 pixels
    Height : 512 pixels
    Display aspect ratio : 1.406
    Frame rate : 25.000 FPS
    Color space : YUV
    Chroma subsampling : 4:2:0
    Bit depth : 4 bits
    Scan type : Progressive
    Compression mode : Lossy
    Bits/(Pixel*Frame) : 0.144
    Stream size : 755 MiB (90%)
    Writing library : XviD 1.2.1 (UTC 2008-12-04)
    Audio #1
    ID : 1
    Format : MPEG Audio
    Format version : Version 1
    Format profile : Layer 3
    Mode : Joint stereo
    Mode extension : MS Stereo
    Codec ID : 55
    Codec ID/Hint : MP3
    Duration : 1 h 19 min
    Bit rate mode : Constant
    Bit rate : 128 kb/s
    Channel(s) : 2 channels
    Sampling rate : 48.0 kHz
    Compression mode : Lossy
    Delay relative to video : 16 ms
    Stream size : 73.1 MiB (9%)
    Alignment : Split accross interleaves
    Interleave, duration : 24 ms (0.60 video frame)
    Interleave, preload duration : 16 ms
    Writing library : LAME3.98.2


    prémium
    Rejtett tartalom:
    **Rejtett tartalom: A tartalom megjelenítéséhez kattints a 'Tetszik' gombra.**
    vagy free
    Rejtett tartalom:
    **Rejtett tartalom: A tartalom megjelenítéséhez kattints a 'Tetszik' gombra.**
    A remake 2006-ból:
    [​IMG]

    Egy bolond százat csinál
    Magyar vígjáték (2006)
    Főszereplők: Gáspár Sándor, Szabó Győző, Gesztesi Károly, Oroszlán Szonja, Parti Nóra, Ullmann Mónika, Mucsi Zoltán, Scherer Péter, Bezerédi Zoltán, Badár Sándor
    Rendező: Gyöngyössy Bence
    Műsoridő: 1:35:44
    Felirat: magyar, angol

    Ajánló a borítóról:
    Be fogsz kattanni!
    László Dömötör anyakönyvvezető (Gáspár Sándor) válása után elszántan próbál új életet kezdeni, új szerelemre találni. Amikor azonban volt felesége elkobozza tőle a kis Suzukit és leépítésre hivatkozva főnöke is kirúgja, rászakad a világ. Összepakol, ám mielőtt végleg elhagyná a boldogtalan igenek színterét, megpillant a tévében egy tudósítást Lázár Norbertről, aki megszólalásig hasonlít rá. Hasonmása feltörekvő, a szürkegazdaságban tevékenykedő újgazdag, s meg nem erősített hírek szerint egy vadászbalesetben odaveszett Afrikában. Dömötör életvidám barátja Béci (Szabó Győző), a nőbolond fagyis elviszi egy éjszakai bárba feledni a csapásokat és megünnepelni barátja születésnapját. Itt azonban Dömötört hamarosan felismerik mint Lázár Norbit, és elkezdődik egy őrült kavalkád: szerepcserék, összekuszált szerelmek, egy bolond… még egy bolond… mind bolond!


    Az extrákból:
    Balássy Betti és Varga Ferenc: Egy bolond százat csinál (3:50)

    [​IMG]

    Formátum: dvdrip/avi
    Méret: 1,08 GB
    Felbontás: 720x400
    Mintavételi frekvencia: 48000 Hz
    Bitsebesség: 128 kbps
    Műsoridő: 1:39:34+3:50

    Részletes média információ:
    Show Spoiler

    I:\0000\D2197a\D2197a\Egy bolond százat csinál (2006)\1 - Egy bolond százat csinál (2006).avi
    General
    Complete name : I:\0000\D2197a\D2197a\Egy bolond százat csinál (2006)\1 - Egy bolond százat csinál (2006).avi
    Format : AVI
    Format/Info : Audio Video Interleave
    File size : 1.03 GiB
    Duration : 1 h 35 min
    Overall bit rate : 1 542 kb/s
    Writing application : VirtualDubMod 1.5.4.1 (build 2178/release)
    Writing library : VirtualDubMod build 2178/release
    Video #0
    ID : 0
    Format : MPEG-4 Visual
    Format profile : Advanced [email protected]
    Format settings, BVOP : 1
    Format settings, QPel : No
    Format settings, GMC : No warppoints
    Format settings, Matrix : Custom
    Codec ID : XVID
    Codec ID/Hint : XviD
    Duration : 1 h 35 min
    Bit rate : 1 146 kb/s
    Width : 720 pixels
    Height : 400 pixels
    Display aspect ratio : 16:9
    Frame rate : 25.000 FPS
    Color space : YUV
    Chroma subsampling : 4:2:0
    Bit depth : 8 bits
    Scan type : Progressive
    Compression mode : Lossy
    Bits/(Pixel*Frame) : 0.159
    Stream size : 785 MiB (74%)
    Writing library : XviD 1.2.1 (UTC 2008-12-04)
    Audio #1
    ID : 1
    Format : MPEG Audio
    Format version : Version 1
    Format profile : Layer 3
    Mode : Joint stereo
    Mode extension : MS Stereo
    Codec ID : 55
    Codec ID/Hint : MP3
    Duration : 1 h 35 min
    Bit rate mode : Constant
    Bit rate : 128 kb/s
    Channel(s) : 2 channels
    Sampling rate : 48.0 kHz
    Compression mode : Lossy
    Stream size : 87.6 MiB (8%)
    Alignment : Aligned on interleaves
    Interleave, duration : 80 ms (2.00 video frames)
    Interleave, preload duration : 504 ms
    Writing library : LAME3.98r
    Encoding settings : -m j -V 4 -q 2 -lowpass 17 -b 128
    Audio #2
    ID : 2
    Format : MPEG Audio
    Format version : Version 1
    Format profile : Layer 3
    Mode : Joint stereo
    Mode extension : MS Stereo
    Codec ID : 55
    Codec ID/Hint : MP3
    Duration : 1 h 35 min
    Bit rate mode : Constant
    Bit rate : 128 kb/s
    Channel(s) : 2 channels
    Sampling rate : 48.0 kHz
    Compression mode : Lossy
    Stream size : 87.6 MiB (8%)
    Alignment : Aligned on interleaves
    Interleave, duration : 80 ms (2.00 video frames)
    Interleave, preload duration : 504 ms
    Writing library : LAME3.98r
    Encoding settings : -m j -V 4 -q 2 -lowpass 17 -b 128
    Audio #3
    ID : 3
    Format : MPEG Audio
    Format version : Version 1
    Format profile : Layer 3
    Mode : Joint stereo
    Mode extension : MS Stereo
    Codec ID : 55
    Codec ID/Hint : MP3
    Duration : 1 h 35 min
    Bit rate mode : Constant
    Bit rate : 128 kb/s
    Channel(s) : 2 channels
    Sampling rate : 48.0 kHz
    Compression mode : Lossy
    Stream size : 87.6 MiB (8%)
    Alignment : Aligned on interleaves
    Interleave, duration : 80 ms (2.00 video frames)
    Interleave, preload duration : 504 ms
    Writing library : LAME3.98r
    Encoding settings : -m j -V 4 -q 2 -lowpass 17 -b 128


    prémium
    Rejtett tartalom:
    **Rejtett tartalom: A tartalom megjelenítéséhez kattints a 'Tetszik' gombra.**
    vagy free
    Rejtett tartalom:
    **Rejtett tartalom: A tartalom megjelenítéséhez kattints a 'Tetszik' gombra.**
    Frissítve és a törlődött link miatt újratöltve.
     
    edem5, hfmhu, musli és 1 másik tag kedveli ezt.

Megosztás