Magyar filmek III itt nincs kérés

papadi

Állandó Tag
Állandó Tag
5c90521853a644f21616ef2ababf463b.jpg


Eldorádó
Magyar filmdráma (1988)
Főszereplők: Eperjes Károly, Pogány Judit, Eszenyi Enikő, Andorai Péter, Balkay Géza
Rendezte: Bereményi Géza
Magyar filmek gyűjteménye 26.
Fantasy Film, 2006. október 26.

Tartalom a borítóról:
1945. Monori Sándor (Eperjes Károly) a Teleki téri piac királya, akit mindenki Sanyi bácsiként tisztel. Ő az, aki fittyet hány arra, milyen a politikai rendszer, hiszen számára egyetlen törvény létezik: arannyal mindent és mindenkit meg lehet vásárolni. Amikor lánya terhesen tér haza Bécsből, Monori két marék ékszer árán szabadul meg vejétől, hogy születendő unokáját maga nevelhesse fel, és megtanítsa arra, hogyan lehet ebben az országban túlélni - akár egy halálosnak hitt betegséget is. 1956-ban aztán mindent elkövet, hogy családját külföldre juttassa, de úgy tűnik, ekkor már az arany is kevés a túléléshez...

Extrák:
magyar felirat
Ajánló (1:41)

Média információ:

Video:
Kodek: MPEG-1/2 Video (mpgv)
Felbontás: 720x576
Képkockasebesség: 25
Képformátum: 1.37:1 (4:3)

Hang:
Kodek: A52 Audio (aka AC3) (a52)
Csatornák: 3F2R/LFE
Mintavételi frekvencia: 48000 Hz
Bitsebesség: 448 kb/mp

Formátum: iso
Méret: 4,06 GB
Műsoridő: 1:39:07

(prémium)
[HIDE-THANKS]
Kód:
https://data.hu/get/12425293/26D2419i2.part1.rar
https://data.hu/get/12425288/26D2419i2.part2.rar
https://data.hu/get/12425294/26D2419i2.part3.rar
https://data.hu/get/12425289/26D2419i2.part4.rar
[/HIDE-THANKS]

7d6caa18ce65efb0522f27de52880353.jpg


Formátum: dvdrip/avi
Méret: 991 MB
Felbontás: 720x544
Mintavételi frekvencia: 48000 Hz
Bitsebesség: 128 kbps
Műsoridő: 1:39:06

Részletes média információ:
I:\Video\26 - Eldorádó.avi
General
Complete name : I:\Video\26 - Eldorádó.avi
Format : AVI
Format/Info : Audio Video Interleave
File size : 990 MiB
Duration : 1 h 39 min
Overall bit rate : 1 397 kb/s
Writing application : VirtualDubMod 1.5.4.1 (build 2178/release)
Writing library : VirtualDubMod build 2178/release
Video #0
ID : 0
Format : MPEG-4 Visual
Format profile : Advanced [email protected]
Format settings, BVOP : 1
Format settings, QPel : No
Format settings, GMC : No warppoints
Format settings, Matrix : Custom
Codec ID : XVID
Codec ID/Hint : XviD
Duration : 1 h 39 min
Bit rate : 1 262 kb/s
Width : 720 pixels
Height : 544 pixels
Display aspect ratio : 4:3
Frame rate : 25.000 FPS
Color space : YUV
Chroma subsampling : 4:2:0
Bit depth : 8 bits
Scan type : Progressive
Compression mode : Lossy
Bits/(Pixel*Frame) : 0.129
Stream size : 894 MiB (90%)
Writing library : XviD 1.2.1 (UTC 2008-12-04)
Audio #1
ID : 1
Format : MPEG Audio
Format version : Version 1
Format profile : Layer 3
Mode : Joint stereo
Mode extension : MS Stereo
Codec ID : 55
Codec ID/Hint : MP3
Duration : 1 h 39 min
Bit rate mode : Constant
Bit rate : 128 kb/s
Channel(s) : 2 channels
Sampling rate : 48.0 kHz
Compression mode : Lossy
Stream size : 90.7 MiB (9%)
Alignment : Aligned on interleaves
Interleave, duration : 80 ms (2.00 video frames)
Interleave, preload duration : 504 ms
Writing library : LAME3.98r
Encoding settings : -m j -V 4 -q 2 -lowpass 17 -b 128

[HIDE-THANKS]
Kód:
https://data.hu/get/11609734/D2419a.rar
[/HIDE-THANKS]
vagy free
[HIDE-THANKS]
Kód:
https://data.hu/get/12425287/26D2419av2.part1.rar
https://data.hu/get/12425292/26D2419av2.part2.rar
https://data.hu/get/12425290/26D2419av2.part3.rar
https://data.hu/get/12425296/26D2419av2.part4.rar
https://data.hu/get/12425295/26D2419av2.part5.rar
https://data.hu/get/12425291/26D2419av2.part6.rar
[/HIDE-THANKS]

Linktörlődés miatt újratöltve, a sorozat többi filmje pár oldallal előbbre.
 

papadi

Állandó Tag
Állandó Tag
Indul a bakterház

bf05e428318299859a7fa7d1dbd1e484.jpg


Indul a bakterház
Magyar vígjáték (1979)
Főszereplők: Olvasztó Imre, Koltai Róbert, Horváth Teri, Haumann Péter, Pécsi Ildikó, Bánhidi László, Csákányi László
Rendezte: Mihályfy Sándor
MTV / MOKÉP, MOKÉP 015, 2003. április 8.

Regős Bendegúzt anyja szolgálni küldi a lókupechez, akitől a fiú megszökik. A bakterhez keveredik, s itt kezdődnek el a vidám bonyodalmak. (a borítóról)

Extrák:
Rendezői kommentár
Rideg Sándor bibliográfia
Mihályfy Sándor filmográfia
Interjú - Ahogy a színész emlékezik (7:58)
Mert hasonlítanak! - Két könyv, két kamasz (Ábel a rengetegben - filmrészletek) (5:30)
Kölyökfilmek és jófej kölykök - filmrészletek:
Hahó Öcsi (1:09)
Égigérő fű (2:33)
Hahó a tenger (1:25)
Gyerekrablás a Palánk utcában (1:00)

Média információ:

Video:
Kodek: MPEG-1/2 Video (mpgv)
Felbontás: 720x576
Képkockasebesség: 25
Képformátum: 1.33:1 (4:3)

Hang:
Kodek: A52 Audio (aka AC3) (a52)
Csatornák: Sztereó
Mintavételi frekvencia: 48000 Hz
Bitsebesség: 192 kb/mp

Formátum: iso
Méret: 4,16 GB
Műsoridő: 1:06:10 (1:25:45)

(prémium)
[HIDE-THANKS]
Kód:
https://data.hu/get/12434088/D0690i2.part1.rar
https://data.hu/get/12434096/D0690i2.part2.rar
https://data.hu/get/12434083/D0690i2.part3.rar
https://data.hu/get/12434085/D0690i2.part4.rar
https://data.hu/get/12434084/D0690i2.part5.rar
[/HIDE-THANKS]

adadd15509318834ef534959c90b9ca6.jpg


Formátum: dvdrip/avi
Méret: 880 MB
Felbontás: 720x544
Mintavételi frekvencia: 48000 Hz
Bitsebesség: 128 kbps
Műsoridő: 1:06:10

Részletes média információ:
I:\Video\Indul a bakterház.avi
General
Complete name : I:\Video\Indul a bakterház.avi
Format : AVI
Format/Info : Audio Video Interleave
File size : 879 MiB
Duration : 1 h 6 min
Overall bit rate : 1 856 kb/s
Writing application : VirtualDubMod 1.5.4.1 (build 2178/release)
Writing library : VirtualDubMod build 2178/release
Video #0
ID : 0
Format : MPEG-4 Visual
Format profile : Advanced [email protected]
Format settings, BVOP : 1
Format settings, QPel : No
Format settings, GMC : No warppoints
Format settings, Matrix : Custom
Codec ID : XVID
Codec ID/Hint : XviD
Duration : 1 h 6 min
Bit rate : 1 590 kb/s
Width : 720 pixels
Height : 544 pixels
Display aspect ratio : 4:3
Frame rate : 25.000 FPS
Color space : YUV
Chroma subsampling : 4:2:0
Bit depth : 8 bits
Scan type : Progressive
Compression mode : Lossy
Bits/(Pixel*Frame) : 0.162
Stream size : 753 MiB (86%)
Writing library : XviD 1.2.1 (UTC 2008-12-04)
Audio #1
ID : 1
Format : MPEG Audio
Format version : Version 1
Format profile : Layer 3
Mode : Joint stereo
Mode extension : MS Stereo
Codec ID : 55
Codec ID/Hint : MP3
Duration : 1 h 6 min
Bit rate mode : Constant
Bit rate : 128 kb/s
Channel(s) : 2 channels
Sampling rate : 48.0 kHz
Compression mode : Lossy
Stream size : 60.6 MiB (7%)
Alignment : Aligned on interleaves
Interleave, duration : 80 ms (2.00 video frames)
Interleave, preload duration : 504 ms
Writing library : LAME3.98r
Encoding settings : -m j -V 4 -q 2 -lowpass 17 -b 128
Audio #2
ID : 2
Format : MPEG Audio
Format version : Version 1
Format profile : Layer 3
Mode : Joint stereo
Mode extension : MS Stereo
Codec ID : 55
Codec ID/Hint : MP3
Duration : 1 h 6 min
Bit rate mode : Constant
Bit rate : 128 kb/s
Channel(s) : 2 channels
Sampling rate : 48.0 kHz
Compression mode : Lossy
Stream size : 60.6 MiB (7%)
Alignment : Aligned on interleaves
Interleave, duration : 80 ms (2.00 video frames)
Interleave, preload duration : 504 ms
Writing library : LAME3.98r
Encoding settings : -m j -V 4 -q 2 -lowpass 17 -b 128

prémium
[HIDE-THANKS]
Kód:
https://data.hu/get/12434090/D0690a2.rar
[/HIDE-THANKS]
vagy free
[HIDE-THANKS]
Kód:
https://data.hu/get/12434091/D0690a2v.part1.rar
https://data.hu/get/12434092/D0690a2v.part2.rar
https://data.hu/get/12434089/D0690a2v.part3.rar
https://data.hu/get/12434087/D0690a2v.part4.rar
https://data.hu/get/12434086/D0690a2v.part5.rar
[/HIDE-THANKS]

Linktörlődések miatt újratöltve.
 

papadi

Állandó Tag
Állandó Tag
Egy bolond százat csinál - 2x (1942, 2006)

94da03d8d34103e8c1dc8d773de570f1.jpg


Egy bolond százat csinál
Fekete-fehér magyar film (1942/2005)
Főszereplők: Latabár Kálmán, Benkő Gyula, Egry Mária, Hidvéghy Valéria, Rajnay Gábor, Halmay Tibor, Raffay Banka, Mály Gerő
Rendezte: Martonffy Emil
Magyar klasszikusok 6.

Ajánló a borítóról:
Vadássz a főpincérre!
Vajon mit kezdjen magával az az ember, aki hirtelen kénytelen búcsút mondani addigi megbízható főpincéri állásának? Helyezkedjen el máshol? Nézzen magának másfajta elfoglaltságot? Dömötör (Latabár Kálmán), az ex-főpincér és karmester „kollégája” (Benkő Gyula) kapnak az alkalmon és visszatérnek addigi munkahelyükre, a mulatóba, ahol immár vendégként veszik szemügyre a szórakoztató intézményt, sőt az addig tálcákkal szaladgáló hősünk egy világhírű oroszlánvadásszal, gróf Rog-Igor-Szju-Azerew-vel (Latabár Kálmán) való hasonlatosságát kihasználva álszakállt ragasztva nemesnek adja ki magát.
A trükk egészen jól működik, senki sem leplezi le az „álnemest” - egészen addig, amíg meg nem érkezik maga a rettenthetetlen (és valódi) afrikai vadász…
A helyzetkomikum fergeteges mestere, Latabár Kálmán 1943 tavaszán szinte ugyanabban az időben két különböző vígjátékkal, az Egy szoknya, egy nadrággal és az Egy bolond százat csinál-lal jelentkezett: ez utóbbi Szüle Mihály igen sikeres és még ma is nagyon népszerű színdarabjából készült, és nem csupán az akkori, a világháború árnyékában nevető, de a mai közönség számára is igazi kikapcsolódást, remek szórakozást jelent.


Média információ:

Video:
Kodek: MPEG-1/2 Video (mpgv)
Felbontás: 704x576
Képkockasebesség: 25
Képformátum: 1.33:1 (4:3)

Hang:
Kodek: A52 Audio (aka AC3) (a52)
Csatornák: Sztereó
Mintavételi frekvencia: 48000 Hz
Bitsebesség: 256 kb/mp

Formátum: iso
Méret: 3,92 GB
Műsoridő: 1:19:50

Megjeyzések:
a Magyar klasszikusok sorozat első 23 filmjénél a képfájl VLC-vel való lejátszásánál nálam egy apró trükköt kellett alkalmazni: a figyelmeztető szöveg alatt Lejátszás -> Cím menűben átlépés 2. címre.
A film után - mint egykor a VHS-en - közel 5 perc üres rész van.

(prémium)
[HIDE-THANKS]
Kód:
https://data.hu/get/12442077/D0449i2.part1.rar
https://data.hu/get/12442079/D0449i2.part2.rar
https://data.hu/get/12442071/D0449i2.part3.rar
https://data.hu/get/12442067/D0449i2.part4.rar
[/HIDE-THANKS]

A remake 2006-ból:
0c51a04f9b60ecc134debfa995eadb69.jpg


Egy bolond százat csinál
Magyar vígjáték (2006)
Főszereplők: Gáspár Sándor, Szabó Győző, Gesztesi Károly, Oroszlán Szonja, Parti Nóra, Ullmann Mónika, Mucsi Zoltán, Scherer Péter, Bezerédi Zoltán, Badár Sándor
Rendező: Gyöngyössy Bence
Műsoridő: 1:35:44
Felirat: magyar, angol

Ajánló a borítóról:
Be fogsz kattanni!
László Dömötör anyakönyvvezető (Gáspár Sándor) válása után elszántan próbál új életet kezdeni, új szerelemre találni. Amikor azonban volt felesége elkobozza tőle a kis Suzukit és leépítésre hivatkozva főnöke is kirúgja, rászakad a világ. Összepakol, ám mielőtt végleg elhagyná a boldogtalan igenek színterét, megpillant a tévében egy tudósítást Lázár Norbertről, aki megszólalásig hasonlít rá. Hasonmása feltörekvő, a szürkegazdaságban tevékenykedő újgazdag, s meg nem erősített hírek szerint egy vadászbalesetben odaveszett Afrikában. Dömötör életvidám barátja Béci (Szabó Győző), a nőbolond fagyis elviszi egy éjszakai bárba feledni a csapásokat és megünnepelni barátja születésnapját. Itt azonban Dömötört hamarosan felismerik mint Lázár Norbit, és elkezdődik egy őrült kavalkád: szerepcserék, összekuszált szerelmek, egy bolond… még egy bolond… mind bolond!


Extrák:
Előzetes (2:22)
TV-Spot (0:32)
Így készült… (21:13)
Kimaradt jelenetek (14:44)
Klip - Balássy Betti és Varga Ferenc: Egy bolond százat csinál (3:50)
Bakiparádé (3:35)
Fotógaléria (3:21)
Honlapajánló
Támogatók (1:36)

Média információ:

Video:
Kodek: MPEG-1/2 Video (mpgv)
Felbontás: 720x576
Képkockasebesség: 25
Képformátum: 1.33:1 (4:3)

Hang:
Kodek: A52 Audio (aka AC3) (a52)
Csatornák: Sztereó
Mintavételi frekvencia: 48000 Hz
Bitsebesség: 192 kb/mp

Formátum: iso
Méret: 7,28 GB
Műsoridő: 1:35:44 (2:27:45)

(prémium)
[HIDE-THANKS]
Kód:
https://data.hu/get/11156218/D2197i.part01.rar
https://data.hu/get/11156202/D2197i.part02.rar
https://data.hu/get/11156222/D2197i.part03.rar
https://data.hu/get/11156209/D2197i.part04.rar
https://data.hu/get/11156211/D2197i.part05.rar
https://data.hu/get/11156215/D2197i.part06.rar
https://data.hu/get/11156217/D2197i.part07.rar
https://data.hu/get/11156214/D2197i.part08.rar
https://data.hu/get/11156210/D2197i.part09.rar
https://data.hu/get/11156219/D2197i.part10.rar
https://data.hu/get/11156201/D2197i.part11.rar
[/HIDE-THANKS]
 

papadi

Állandó Tag
Állandó Tag
94da03d8d34103e8c1dc8d773de570f1.jpg


Egy bolond százat csinál
Fekete-fehér magyar film (1942/2005)
Főszereplők: Latabár Kálmán, Benkő Gyula, Egry Mária, Hidvéghy Valéria, Rajnay Gábor, Halmay Tibor, Raffay Banka, Mály Gerő
Rendezte: Martonffy Emil
Magyar klasszikusok 6.

Ajánló a borítóról:
Vadássz a főpincérre!
Vajon mit kezdjen magával az az ember, aki hirtelen kénytelen búcsút mondani addigi megbízható főpincéri állásának? Helyezkedjen el máshol? Nézzen magának másfajta elfoglaltságot? Dömötör (Latabár Kálmán), az ex-főpincér és karmester „kollégája” (Benkő Gyula) kapnak az alkalmon és visszatérnek addigi munkahelyükre, a mulatóba, ahol immár vendégként veszik szemügyre a szórakoztató intézményt, sőt az addig tálcákkal szaladgáló hősünk egy világhírű oroszlánvadásszal, gróf Rog-Igor-Szju-Azerew-vel (Latabár Kálmán) való hasonlatosságát kihasználva álszakállt ragasztva nemesnek adja ki magát.
A trükk egészen jól működik, senki sem leplezi le az „álnemest” - egészen addig, amíg meg nem érkezik maga a rettenthetetlen (és valódi) afrikai vadász…
A helyzetkomikum fergeteges mestere, Latabár Kálmán 1943 tavaszán szinte ugyanabban az időben két különböző vígjátékkal, az Egy szoknya, egy nadrággal és az Egy bolond százat csinál-lal jelentkezett: ez utóbbi Szüle Mihály igen sikeres és még ma is nagyon népszerű színdarabjából készült, és nem csupán az akkori, a világháború árnyékában nevető, de a mai közönség számára is igazi kikapcsolódást, remek szórakozást jelent.


362b78f04cecf05515b8028f6c40233d.jpg


Formátum: dvdrip/avi
Méret: 841 MB
Felbontás: 720x512
Mintavételi frekvencia: 48000 Hz
Bitsebesség: 128 kbps
Műsoridő: 1:19:50

Részletes média információ:
I:\0001\rar\0449 - Egy bolond százat csinál\Egy bolond százat csinál.avi
General
Complete name : I:\0001\rar\0449 - Egy bolond százat csinál\Egy bolond százat csinál.avi
Format : AVI
Format/Info : Audio Video Interleave
File size : 838 MiB
Duration : 1 h 19 min
Overall bit rate : 1 468 kb/s
Video #0
ID : 0
Format : MPEG-4 Visual
Format profile : Advanced [email protected]
Format settings, BVOP : 1
Format settings, QPel : No
Format settings, GMC : No warppoints
Format settings, Matrix : Default (H.263)
Codec ID : XVID
Codec ID/Hint : XviD
Duration : 1 h 19 min
Bit rate : 1 323 kb/s
Width : 720 pixels
Height : 512 pixels
Display aspect ratio : 1.406
Frame rate : 25.000 FPS
Color space : YUV
Chroma subsampling : 4:2:0
Bit depth : 4 bits
Scan type : Progressive
Compression mode : Lossy
Bits/(Pixel*Frame) : 0.144
Stream size : 755 MiB (90%)
Writing library : XviD 1.2.1 (UTC 2008-12-04)
Audio #1
ID : 1
Format : MPEG Audio
Format version : Version 1
Format profile : Layer 3
Mode : Joint stereo
Mode extension : MS Stereo
Codec ID : 55
Codec ID/Hint : MP3
Duration : 1 h 19 min
Bit rate mode : Constant
Bit rate : 128 kb/s
Channel(s) : 2 channels
Sampling rate : 48.0 kHz
Compression mode : Lossy
Delay relative to video : 16 ms
Stream size : 73.1 MiB (9%)
Alignment : Split accross interleaves
Interleave, duration : 24 ms (0.60 video frame)
Interleave, preload duration : 16 ms
Writing library : LAME3.98.2

prémium
[HIDE-THANKS]
Kód:
https://data.hu/get/12442078/D0449a2.rar
[/HIDE-THANKS]
vagy free
[HIDE-THANKS]
Kód:
https://data.hu/get/12442076/D0449av2.part1.rar
https://data.hu/get/12442075/D0449av2.part2.rar
https://data.hu/get/12442072/D0449av2.part3.rar
https://data.hu/get/12442065/D0449av2.part4.rar
https://data.hu/get/12442069/D0449av2.part5.rar
[/HIDE-THANKS]

A remake 2006-ból:
0c51a04f9b60ecc134debfa995eadb69.jpg


Egy bolond százat csinál
Magyar vígjáték (2006)
Főszereplők: Gáspár Sándor, Szabó Győző, Gesztesi Károly, Oroszlán Szonja, Parti Nóra, Ullmann Mónika, Mucsi Zoltán, Scherer Péter, Bezerédi Zoltán, Badár Sándor
Rendező: Gyöngyössy Bence
Műsoridő: 1:35:44
Felirat: magyar, angol

Ajánló a borítóról:
Be fogsz kattanni!
László Dömötör anyakönyvvezető (Gáspár Sándor) válása után elszántan próbál új életet kezdeni, új szerelemre találni. Amikor azonban volt felesége elkobozza tőle a kis Suzukit és leépítésre hivatkozva főnöke is kirúgja, rászakad a világ. Összepakol, ám mielőtt végleg elhagyná a boldogtalan igenek színterét, megpillant a tévében egy tudósítást Lázár Norbertről, aki megszólalásig hasonlít rá. Hasonmása feltörekvő, a szürkegazdaságban tevékenykedő újgazdag, s meg nem erősített hírek szerint egy vadászbalesetben odaveszett Afrikában. Dömötör életvidám barátja Béci (Szabó Győző), a nőbolond fagyis elviszi egy éjszakai bárba feledni a csapásokat és megünnepelni barátja születésnapját. Itt azonban Dömötört hamarosan felismerik mint Lázár Norbit, és elkezdődik egy őrült kavalkád: szerepcserék, összekuszált szerelmek, egy bolond… még egy bolond… mind bolond!


Az extrákból:
Balássy Betti és Varga Ferenc: Egy bolond százat csinál (3:50)

37021e35e312d2a5829bc5e04d6f4a79.jpg


Formátum: dvdrip/avi
Méret: 1,08 GB
Felbontás: 720x400
Mintavételi frekvencia: 48000 Hz
Bitsebesség: 128 kbps
Műsoridő: 1:39:34+3:50

Részletes média információ:
I:\0000\D2197a\D2197a\Egy bolond százat csinál (2006)\1 - Egy bolond százat csinál (2006).avi
General
Complete name : I:\0000\D2197a\D2197a\Egy bolond százat csinál (2006)\1 - Egy bolond százat csinál (2006).avi
Format : AVI
Format/Info : Audio Video Interleave
File size : 1.03 GiB
Duration : 1 h 35 min
Overall bit rate : 1 542 kb/s
Writing application : VirtualDubMod 1.5.4.1 (build 2178/release)
Writing library : VirtualDubMod build 2178/release
Video #0
ID : 0
Format : MPEG-4 Visual
Format profile : Advanced [email protected]
Format settings, BVOP : 1
Format settings, QPel : No
Format settings, GMC : No warppoints
Format settings, Matrix : Custom
Codec ID : XVID
Codec ID/Hint : XviD
Duration : 1 h 35 min
Bit rate : 1 146 kb/s
Width : 720 pixels
Height : 400 pixels
Display aspect ratio : 16:9
Frame rate : 25.000 FPS
Color space : YUV
Chroma subsampling : 4:2:0
Bit depth : 8 bits
Scan type : Progressive
Compression mode : Lossy
Bits/(Pixel*Frame) : 0.159
Stream size : 785 MiB (74%)
Writing library : XviD 1.2.1 (UTC 2008-12-04)
Audio #1
ID : 1
Format : MPEG Audio
Format version : Version 1
Format profile : Layer 3
Mode : Joint stereo
Mode extension : MS Stereo
Codec ID : 55
Codec ID/Hint : MP3
Duration : 1 h 35 min
Bit rate mode : Constant
Bit rate : 128 kb/s
Channel(s) : 2 channels
Sampling rate : 48.0 kHz
Compression mode : Lossy
Stream size : 87.6 MiB (8%)
Alignment : Aligned on interleaves
Interleave, duration : 80 ms (2.00 video frames)
Interleave, preload duration : 504 ms
Writing library : LAME3.98r
Encoding settings : -m j -V 4 -q 2 -lowpass 17 -b 128
Audio #2
ID : 2
Format : MPEG Audio
Format version : Version 1
Format profile : Layer 3
Mode : Joint stereo
Mode extension : MS Stereo
Codec ID : 55
Codec ID/Hint : MP3
Duration : 1 h 35 min
Bit rate mode : Constant
Bit rate : 128 kb/s
Channel(s) : 2 channels
Sampling rate : 48.0 kHz
Compression mode : Lossy
Stream size : 87.6 MiB (8%)
Alignment : Aligned on interleaves
Interleave, duration : 80 ms (2.00 video frames)
Interleave, preload duration : 504 ms
Writing library : LAME3.98r
Encoding settings : -m j -V 4 -q 2 -lowpass 17 -b 128
Audio #3
ID : 3
Format : MPEG Audio
Format version : Version 1
Format profile : Layer 3
Mode : Joint stereo
Mode extension : MS Stereo
Codec ID : 55
Codec ID/Hint : MP3
Duration : 1 h 35 min
Bit rate mode : Constant
Bit rate : 128 kb/s
Channel(s) : 2 channels
Sampling rate : 48.0 kHz
Compression mode : Lossy
Stream size : 87.6 MiB (8%)
Alignment : Aligned on interleaves
Interleave, duration : 80 ms (2.00 video frames)
Interleave, preload duration : 504 ms
Writing library : LAME3.98r
Encoding settings : -m j -V 4 -q 2 -lowpass 17 -b 128

prémium
[HIDE-THANKS]
Kód:
https://data.hu/get/11156200/D2197a.rar
[/HIDE-THANKS]
vagy free
[HIDE-THANKS]
Kód:
https://data.hu/get/12442064/D2197av2.part1.rar
https://data.hu/get/12442068/D2197av2.part2.rar
https://data.hu/get/12442070/D2197av2.part3.rar
https://data.hu/get/12442074/D2197av2.part4.rar
https://data.hu/get/12442073/D2197av2.part5.rar
https://data.hu/get/12442066/D2197av2.part6.rar
[/HIDE-THANKS]

Frissítve és a törlődött link miatt újratöltve.
 

goliat1

Állandó Tag
Állandó Tag
A hölgy egy kissé bogaras(The Lady Is a Bit Cracked )

fekete-fehér,magyar vígjáték 1938,DVDRIP HunDub


2ef918bb299b845b665c0cfa26f97049.md.jpg




rendező:Ráthonyi Ákos
forgatókönyvíró:Aszlányi Károly
operatőr:Bécsi József
zene:Farkas Imre
látványtervező:Vincze Márton
vágó:Farkas Zoltán


szereplők:
Tolnay Klári (Takács Klári)
Ráday Imre (Tormássy Péter)
Gózon Gyula (Tormássy, vezérigazgató)
Gobbi Hilda (Bolond)
Mály Gerő (Kropacher)
Dezsőffy László (Sümegi)
Dózsa István (Novák úr)
Pethes Ferenc (Kovács)
Pethes Sándor (Gerber)


Tartalom:
Bimbi, azaz Takács Klára munkanélküli. Albérletben lakik, és fogalma sincs arról, miből fog élni, miből fogja a számláit kifizetni. De szerencséjére az előző albérlő, akinek volt egy ajánlólevele a Tormássy művek igazgatójához, időközben bolondokházába került. Így aztán a "felhasználatlan" ajánlólevéllel jelentkezhet munkára. Mivel a levélben az áll, hogy a "hölgy egy kissé bogaras" állást nem kap, de elszegődhet a vezérigazgató fiához gépírókisasszonynak.


A hölg egy kissé bogaras 1938 DVDRIP.mp4
Méret: 620,53 MiB
Hossz: 01:16:15.792
Formátum: AVC (Advanced Video Codec)
Felbontás: 640x480
Bitráta: 998 Kbps
Képkocka / mp: 24
Képarány: 4:3
Hangsávok száma: 1

Hangsáv #1
Formátum: AAC (Advanced Audio Codec)
Csatornák száma: 2
Bitráta: 128 Kbps
Mintavételezési frekvencia: 44.1 KHz

[HIDE-THANKS]
Kód:
https://aparat.cam/hw73kbmfl7op/A_hölg_egy_kissé_bogaras_1938_DVDRIP.mp4.html
[/HIDE-THANKS]


vagy

[HIDE-THANKS]
Kód:
https://www.okstream.cc/a233d8e4e89a/A-h__lg-egy-kiss__-bogaras-1938-DVDRIP.mp4
[/HIDE-THANKS]​
[HIDE-THANKS][/HIDE-THANKS]
 

papadi

Állandó Tag
Állandó Tag
Egri csillagok (iso)

488bbb2d716aaf4eff54ddb8e37927aa.jpg


Egri csillagok
Magyar történelmi kalandfilm (1968)
Gárdonyi Géza regényéből a forgatókönyvet írta: Nemeskürty István
Zene: Farkas Ferenc
Fényképezte: Szécsényi Ferenc
Főszereplők: Sinkovits Imre, Bárdy György, Kovács István, Bitskey Tibor, Agárdi Gábor, Venczel Vera, Ruttkai Éva, Gobbi Hilda, Szemere Vera, Pécsi Ildikó, Horváth teri, Benkő Péter, Somogyvári Rudolf, Szakáts Miklós, Benkő gyula, Tahi Tóth László, Tordy Géza
Rendezte: Várkonyi Zoltán
Hang: magyar
Felirat: angol

Az alkotás Bornemissza Gergely és Cecey Éva sorsán keresztül mutatja be az egri várvédők hősies harcát a török hódoltság idején. Bornemissza Gergelyt már hétévesen vitézzé avatja Dobó István az egri vár kapitánya, miután a kisfiúnak sikerül Vicával és a hadizsákmánnyal visszatérnie a félszemű Jumurdzsák fogságából. Harminc évvel később 1552-ben a török Eger vár ellen készülődik. Dobó István köré sereglenek mindazok, akik tudják, hogy Eger várának védelme az országét jelenti. Bornemissza Gergely lesz Dobó jobbkeze. A férfiak hősies harca mellett az egri nők is szembeszállnak a törökkel a vár védelméért. (a borítóról)

Extrák:
Operatőri kommentár

Média információ:

Video:
Kodek: MPEG-1/2 Video (mpgv)
Felbontás: 720x576
Képkockasebesség: 25
Képformátum: 1.33:1 (4:3)

Hang:
Kodek: A52 Audio (aka AC3) (a52)
Csatornák: Sztereó
Mintavételi frekvencia: 48000 Hz
Bitsebesség: 192 kb/mp

Formátum: iso
Méret: 7,75 GB
Műsoridő: 2:24:40

(prémium)
Kód:
https://data.hu/get/12725067/D0520i.part01.rar
https://data.hu/get/12725068/D0520i.part02.rar
https://data.hu/get/12725072/D0520i.part03.rar
https://data.hu/get/12725073/D0520i.part04.rar
https://data.hu/get/12725069/D0520i.part05.rar
https://data.hu/get/12725071/D0520i.part06.rar
https://data.hu/get/12725070/D0520i.part07.rar
https://data.hu/get/12725074/D0520i.part08.rar
 

papadi

Állandó Tag
Állandó Tag
A kőszívű ember fiai (iso)

3b3ba88f0ba8a8109e4afbd04810fb9d.jpg


A kőszívű ember fiai
Magyar történelmi kaladfilm (1965)
Jókai Mór regényéből a forgatókönyvet írta: Erdődy János
Zene: Farkas Ferenc
Fényképezte: Hildebrand István
Főszereplők: Sulyok Mária, Szemere Vera, Bitskey Tibor, Béres Ilona, Mécs Károly, Polónyi Gyöngyi, Tordy Géza, Nádasy Myrtill, Páger Antal, Makay Margit, Básti Lajos, Várkonyi Zoltán, Nagy Attila, Rajz János, Kálmán György, Barsi Béla, Fonyó József, Major Tamás, Kiss Ferenc
Rendezte: Várkonyi Zoltán
Hang: magyar
Felirat: angol

A heroikus-romantikus film a három Baradlay fiú alakjában szembeállítja a halál árán is győzedelmeskedő igazságot és tisztességet a kifizetődő gyávasággal, kiegyezéssel és karrierizmussal.
A császárhű Baradlay Kázmér halála után a fiúk, apjuk végakarata ellenére az erős akaratú, forradalmár lelkületű Baradlayné biztatására 1848 ügye mellé állnak. A leggyengébbnek tűnő, a fényes pálya előtt álló Jenő az életét is feláldozza bátyjaiért.
(a borítóról)

Extrák:
Jókai Mór filmen, televízióban (filmográfia, filmrészletek) (18’39)
48-as toborzók (6’56)
A bukás hősei: 1848 a filmvásznon és a képernyőn (28’19)
A szabadság katonái: Történelmi arcképcsarnok: tábornokok galériája:
- Bem József (14’25)
- Damjanicsh János (14’49)
- Klapka György (14’55)
- Görgey Artúr (14’10)
Sztárinterjú (15’33)
- Prieger Zsolt (Anima Sound System)
- Göbl Gábor (Moby Dick)
- Balanyi Szilárd (Quimby)
- Nagy Feró (Beatrice)
Diafilm (1’57)

Média információ:

Video:
Kodek: MPEG-1/2 Video (mpgv)
Felbontás: 720x576
Képkockasebesség: 25
Képformátum: 1.33:1 (4:3)

Hang:
Kodek: A52 Audio (aka AC3) (a52)
Csatornák: Sztereó
Mintavételi frekvencia: 48000 Hz
Bitsebesség: 384 kb/mp

Formátum: iso
Méret: 7,23+4,22 GB
Műsoridő: 2:38:05+2:09:59

(prémium)
Kód:
https://data.hu/get/11045899/D0674.part01.rar
https://data.hu/get/11045900/D0674.part02.rar
https://data.hu/get/11045901/D0674.part03.rar
https://data.hu/get/11045894/D0674.part04.rar
https://data.hu/get/11045893/D0674.part05.rar
https://data.hu/get/11045892/D0674.part06.rar
https://data.hu/get/11045895/D0674.part07.rar
https://data.hu/get/11045891/D0674.part08.rar
https://data.hu/get/11045903/D0674.part09.rar
https://data.hu/get/11045898/D0674.part10.rar
https://data.hu/get/11045902/D0674.part11.rar

https://data.hu/get/11046494/D0675.part1.rar
https://data.hu/get/11046492/D0675.part2.rar
https://data.hu/get/11046495/D0675.part3.rar
https://data.hu/get/11046497/D0675.part4.rar
https://data.hu/get/11046498/D0675.part5.rar
https://data.hu/get/11046491/D0675.part6.rar
 

goliat1

Állandó Tag
Állandó Tag
A kőszívű ember fiai

színes,magyar filmdráma,1964 HDRIP HunDub


3wtnk2q8m6evufg17vxd.jpg




rendező: Várkonyi Zoltán
író: Jókai Mór
forgatókönyvíró: Erdődy János
producer : Németh András
zeneszerző: Farkas Ferenc
operatőr: Hildebrand István
díszlettervező: Zeichán Béla
dramaturg: Fehér Imre
jelmeztervező: Láng Rudolf
vágó: Kerényi Zoltán

szereplők:
Sulyok Mária (Baradlay Kázmérné)
Bitskey Tibor (Baradlay Ödön)
Mécs Károly (Baradlay Richárd)
Tordy Géza (Baradlay Jenő)
Béres Ilona (Alfonsine)
Bujtor István (Leonyid)
Básti Lajos (Rideghváry Bence)
Major Tamás (Baradlay Kázmér)
Szemere Vera (Plankenhorst Antoinette)
Bessenyei Ferenc (magyar tábornok)
Nagy Attila (Pallvitz Ottó)
Benkő Gyula (Krámer, besúgó)
Bárdy György (osztrák ezredes)
Márkus László (osztrák tiszt)
Somogyvári Rudolf (álruhás osztrák tiszt)
Greguss Zoltán (magyar tiszt)
Inke László (magyar tiszt)
Koncz Gábor (Franz, forradalmár)
Raksányi Gellért (vármegyei úr)
Bánhidi László (fogadós)
Polónyi Gyöngyi (Edit)
Kálmán György (Fritz Goldner)
Várkonyi Zoltán (Haynau)
Barsi Béla (Lánghy, lelkész)
Szendrő József (élelmezési tiszt)
Velenczei István (párbajsegéd)
Páger Antal (Öreg Pál)
Rajz János (Boros Mihály)
Gózon Gyula (kanonok)




Tartalom:
A császárpárti Baradlay Kázmér özvegye - szembeszegülve férje végakaratával, - jó magyarnak, boldog embernek szeretné látni a fiait. Hazahívja legidősebb fiát Ödönt Pétervárról, Richardot és Jenőt Bécsből. Kitört a forradalom. A forradalmár lelkületű Baradlayné biztatására fiai apjuk végakarata ellenére, 1848 ügye mellé állnak. A leggyengébbnek tűnő, fényes pálya előtt álló Jenő a szabadságharc leverése után az életét is feláldozza bátyjaiért.


A kőszívű ember fiai 1965 HDRIP.mp4
Méret: 2,25 GiB
Hossz: 02:38:44.006
Formátum: AVC (Advanced Video Codec)
Felbontás: 1280x720
Bitráta: 1 803 Kbps
Képkocka / mp: 25
Képarány: 16:9
Hangsávok száma: 1

Hangsáv #1
Formátum: AAC (Advanced Audio Codec)
Csatornák száma: 2
Bitráta: 237 Kbps
Mintavételezési frekvencia: 44.1 KHz


Kód:
https://aparat.cam/75w7cl1x2kz7/A_kőszívű_ember_fiai_1965_HD.mp4.html


vagy

Kód:
https://www.okstream.cc/9a833131fb9d/A-k__sz__v__-ember-fiai-1965-HD.mp4
 

papadi

Állandó Tag
Állandó Tag
Kötelező olvasmányok: Bánk bán - Katona József drámája (1987)

ae6998c502376f3e42f6f001d72d3ccd.jpg


Bánk Bán
Magyar film (1987)
Felirat: magyar (halláskárosultak részére)

Írta: Katona József
Zene: Rossa László
Fényképezte: Ráday Mihály

Főszereplők:
Bánk bán - Blaskó Péter
Gertrudis - Almási Éva
Melinda, Bánk felesége - Szirtes Ági
Soma, a fiacskájuk - Vincze Robert
Ottó - Bubik István
Biberach - Szilágyi Tibor
Petur - Kállai Ferenc
Tiborc - Koncz Gábor
Mikhál bán - Raksányi Gellért
Simon bán - Horesnyi László
II. Endre - Lukács Sándor
Myska bán - Fekete Tibor
Izidóra - Fehér Anna

Rendezte: Szőnyi G. Sándor

Magyarország 1213. Baljós esztendő. A király II. Endre távoli országban csatázik, eközben felesége, az idegen földről jött Gertrúd királyné ragadja magához a hatalmat. A királyné kiváltságokkal halmozza el a trón körül dőzsölő honfitársait. A békétlen magyar urak Petúr bán vezetésével összeesküvést szerveznek ellenük. Ezalatt az országot járó Bánk bán, a király helytartója egyre nagyobb szegénységgel találkozik. Távollétében nem is sejti, hogy Melindára a királyné öccse, Ottó vetette ki hálóját. (a borítóról)

Extra:
"Csak egy életed volt" - Katona József és drámája (16:45)

Média információ:

Video:
Kodek: MPEG-1/2 Video (mpgv)
Felbontás: 720x576
Képkockasebesség: 25
Képformátum: 1.33:1 (4:3)

Hang:
Kodek: A52 Audio (aka AC3) (a52)
Csatornák: Sztereó
Mintavételi frekvencia: 48000 Hz
Bitek mintánként: 32

Formátum: iso
Méret: 6,97 GB
Műsoridő: 2:22:32 (2:39:17)

(prémium)
Kód:
https://data.hu/get/12849267/D3154i.part1.rar
https://data.hu/get/12849271/D3154i.part2.rar
https://data.hu/get/12849266/D3154i.part3.rar
https://data.hu/get/12849269/D3154i.part4.rar
https://data.hu/get/12849272/D3154i.part5.rar
https://data.hu/get/12849273/D3154i.part6.rar
https://data.hu/get/12849268/D3154i.part7.rar
https://data.hu/get/12849274/D3154i.part8.rar

c53c833d8c05be43695519d0cd0852c5.jpg


Formátum: dvdrip/avi
Méret: 2,33 GB
Felbontás: 720x544
Mintavételi frekvencia: 48000 Hz
Bitsebesség: 226 kbps
Műsoridő: 2:22:32 (2:39:17)

Részletes média információ:
G:\0\DVD3\3154 - Bánk bán (1987)\avi\a - Bánk bán.avi
General
Complete name : G:\0\DVD3\3154 - Bánk bán (1987)\avi\a - Bánk bán.avi
Format : AVI
Format/Info : Audio Video Interleave
Format profile : OpenDML
File size : 2.09 GiB
Duration : 2 h 22 min
Overall bit rate mode : Variable
Overall bit rate : 2 101 kb/s
Writing application : VirtualDubMod 1.5.4.1 (build 2178/release)
Writing library : VirtualDubMod build 2178/release
Video #0
ID : 0
Format : MPEG-4 Visual
Format profile : Advanced [email protected]
Format settings : BVOP1 / Custom Matrix
Format settings, BVOP : 1
Format settings, QPel : No
Format settings, GMC : No warppoints
Format settings, Matrix : Custom
Codec ID : XVID
Codec ID/Hint : XviD
Duration : 2 h 22 min
Bit rate : 1 857 kb/s
Width : 720 pixels
Height : 544 pixels
Display aspect ratio : 4:3
Frame rate : 25.000 FPS
Color space : YUV
Chroma subsampling : 4:2:0
Bit depth : 8 bits
Scan type : Progressive
Compression mode : Lossy
Bits/(Pixel*Frame) : 0.190
Stream size : 1.85 GiB (88%)
Writing library : XviD 1.2.1 (UTC 2008-12-04)
Audio #1
ID : 1
Format : MPEG Audio
Format version : Version 1
Format profile : Layer 3
Format settings : Joint stereo
Codec ID : 55
Codec ID/Hint : MP3
Duration : 2 h 22 min
Bit rate mode : Variable
Bit rate : 227 kb/s
Channel(s) : 2 channels
Sampling rate : 48.0 kHz
Frame rate : 41.667 FPS (1152 SPF)
Compression mode : Lossy
Stream size : 231 MiB (11%)
Alignment : Aligned on interleaves
Interleave, duration : 24 ms (0.60 video frame)
Interleave, preload duration : 505 ms
Writing library : LAME3.98r
Encoding settings : -m j -V 4 -q 2 -lowpass 19.7 --abr

prémium
Kód:
https://data.hu/get/12849025/D3154a.part1.rar
https://data.hu/get/12849026/D3154a.part2.rar
https://data.hu/get/12849027/D3154a.part3.rar
 

papadi

Állandó Tag
Állandó Tag
A dunai hajós (1974)

c453eff8a58ae7d4fd3608db80616df4.jpg


A dunai hajós
Magyar kalandfilm, 1974
MTV/MOKÉP, 2006
Főszereplők: Koncz Gábor, Agárdi Gábor, Bujtor István, Kállai Ferenc, Latinovits Zoltán
Rendezte: Markos Miklós

Borus úr, alias Ladko megnyeri a szigmaringeni horgászversenyt. A győzelmet arra használja fel, hogy a bolgár hazafiaknak gyűjtött pénzt és fegyvereket megszerezze függetlenségi harcukhoz. Ezért fogadásból vállalja, hogy a Dunán végigvezet a Fekete-tengerig úgy, hogy csak azon él meg útközben, amit a horgászással szerez.
Az osztrák-magyar monarchia rendőre, Jager úr mellészegődik, mert gyanús neki, s nem is alaptalanul...
(a borítóról)

Extrák:
Filmográgiák (Agárdi Gábor, Bujtor István, Koncz Gábor)
Ajánló (Beszterce ostroma) 2:00

Média információ:

Video:
Kodek: MPEG-1/2 Video (mpgv)
Felbontás: 720x576
Képkockasebesség: 25
Képformátum: 1.33:1 (4:3)

Hang:
Kodek: A52 Audio (aka AC3) (a52)
Csatornák: Sztereó
Mintavételi frekvencia: 48000 Hz
Bitek mintánként: 32

Formátum: iso
Méret: 7,76 GB
Műsoridő: 1:52:08

(prémium)
Kód:
https://data.hu/get/12889048/D1098i.part01.rar
https://data.hu/get/12889049/D1098i.part02.rar
https://data.hu/get/12889045/D1098i.part03.rar
https://data.hu/get/12889043/D1098i.part04.rar
https://data.hu/get/12889046/D1098i.part05.rar
https://data.hu/get/12889047/D1098i.part06.rar
https://data.hu/get/12889044/D1098i.part07.rar
https://data.hu/get/12889042/D1098i.part08.rar
 

papadi

Állandó Tag
Állandó Tag
Petőfi Sándor - kötelező olvasmányok

b61c0b998612bec99f7790261ff274f1.jpg


A helység kalapácsa (1965) - Az apostol (1991) - Bolond Istók (1980) - János vitéz (1973/és 1938/). A művek hangoskönyv-változatait lásd ott.

2deefd73afe9e8b712518c355d3e23a6.jpg


Kötelező olvasmányok - Petőfi Sándor

1. A helység kalapácsa
Feket-fehér magyar tévéjáték, 1965 (53’53)
Főszereplők: Gábor Miklós, Bessenyei Ferenc, Major Tamás, Garas Dezső, Ascher Oszkár, Agárdi Gábor, Mészáros Ági, Gobbi Hilda
Rendezte: Zsurzs Éva

2. Az apostol
Színes magyar tévéjáték, 1991 (1’04’19)
Főszereplők: Kaszás Gergő, Ternyák Zoltán, Töröcsik Mari, Csomós Mari, Söptei Andrea, Bán János, Vallai Péter, Andorai Péter, Balkay Géza, Ágh Éva
Rendezte: Balogh Zsolt

3. Bolond Istók
Színes magyar zenés játék, 1980 (57’58)
Főszereplők: Tahi József (Victor Máté), Csákányi László, Peremartoni Krisztina (Serfőző Anikó), Gobbi Hilda, Hollai Kálmán, Pécsi Ildikó, Basilides Zoltán, Benkóczi Zoltán és a Kormorán együttes
Zene: Victor Máté
Szöveg: Garai Gábor
Rendezte: Szitányi András

Média információ:

Video:
Kodek: MPEG-1/2 Video (mpgv)
Felbontás: 720x576
Képkockasebesség: 25
Képformátum: 1.33:1 (4:3)

Hang:
Kodek: A52 Audio (aka AC3) (a52)
Csatornák: Sztereó
Mintavételi frekvencia: 48000 Hz
Bitek mintánként: 32

Formátum: iso
Méret: 7,31 GB
Műsoridő: 2:56:10

(prémium)
Kód:
https://data.hu/get/12897629/D3806i.part1.rar
https://data.hu/get/12897632/D3806i.part2.rar
https://data.hu/get/12897631/D3806i.part3.rar
https://data.hu/get/12897636/D3806i.part4.rar
https://data.hu/get/12897634/D3806i.part5.rar
https://data.hu/get/12897635/D3806i.part6.rar
https://data.hu/get/12897630/D3806i.part7.rar
https://data.hu/get/12897633/D3806i.part8.rar

cfe400caf06b94102e974d31cc229ce8.jpg


Formátum: dvdrip/avi
Méret: 2,28 GB
Felbontás: 720x544
Mintavételi frekvencia: 48000 Hz
Bitsebesség: 128 kbps
Műsoridő: 2:56:10

Részletes média információ:
I:\0000\D3806av\Petöfi Sándor - Kötelezö olvasmányok\1 - A helység kalapácsa.avi
General
Complete name : I:\0000\D3806av\Petöfi Sándor - Kötelezö olvasmányok\1 - A helység kalapácsa.avi
Format : AVI
Format/Info : Audio Video Interleave
File size : 715 MiB
Duration : 53 min
Overall bit rate mode : Variable
Overall bit rate : 1 856 kb/s
Writing application : VirtualDubMod 1.5.4.1 (build 2178/release)
Writing library : VirtualDubMod build 2178/release
Video #0
ID : 0
Format : MPEG-4 Visual
Format profile : Advanced [email protected]
Format settings, BVOP : 1
Format settings, QPel : No
Format settings, GMC : No warppoints
Format settings, Matrix : Custom
Codec ID : XVID
Codec ID/Hint : XviD
Duration : 53 min
Bit rate : 1 739 kb/s
Width : 720 pixels
Height : 544 pixels
Display aspect ratio : 4:3
Frame rate : 25.000 FPS
Color space : YUV
Chroma subsampling : 4:2:0
Bit depth : 8 bits
Scan type : Progressive
Compression mode : Lossy
Bits/(Pixel*Frame) : 0.178
Stream size : 670 MiB (94%)
Writing library : XviD 1.2.1 (UTC 2008-12-04)
Audio #1
ID : 1
Format : MPEG Audio
Format version : Version 1
Format profile : Layer 3
Mode : Joint stereo
Mode extension : MS Stereo
Codec ID : 55
Codec ID/Hint : MP3
Duration : 53 min
Bit rate mode : Variable
Bit rate : 105 kb/s
Nominal bit rate : 128 kb/s
Channel(s) : 2 channels
Sampling rate : 48.0 kHz
Compression mode : Lossy
Stream size : 40.4 MiB (6%)
Alignment : Aligned on interleaves
Interleave, duration : 24 ms (0.60 video frame)
Interleave, preload duration : 472 ms
Writing library : LAME3.98r
Encoding settings : -m j -V 4 -q 2 -lowpass 17 --abr 128

prémium
Kód:
https://data.hu/get/12897561/D3806a.part1.rar
https://data.hu/get/12897567/D3806a.part2.rar
https://data.hu/get/12897568/D3806a.part3.rar
vagy free
Kód:
https://data.hu/get/12897570/D3806av.part01.rar
https://data.hu/get/12897566/D3806av.part02.rar
https://data.hu/get/12897563/D3806av.part03.rar
https://data.hu/get/12897569/D3806av.part04.rar
https://data.hu/get/12897571/D3806av.part05.rar
https://data.hu/get/12897556/D3806av.part06.rar
https://data.hu/get/12897558/D3806av.part07.rar
https://data.hu/get/12897560/D3806av.part08.rar
https://data.hu/get/12897565/D3806av.part09.rar
https://data.hu/get/12897564/D3806av.part10.rar
https://data.hu/get/12897562/D3806av.part11.rar
https://data.hu/get/12897559/D3806av.part12.rar
https://data.hu/get/12897557/D3806av.part13.rar

574b03f664d908992f64b893bc1e19e3.jpg


János vitéz
Magyar rajzfilm, 1973
Írta: Petőfi Sándor elbeszélő költeményéből Jankovics Marcell, Szabó Sípos Tamás, Szoboszlay Péter
Hangok: Cserhalmi György, Nagy Anikó, Pártos Erzsi, Farkas Antal, Mádi Szabó Gábor, Bárdy György, Körmendi János, Kútvölgyi Erzsébet
Rendezte: Jankovics Marcell
(2005 - dvdrip - avi - 734 MB - 720x544 px - 128 kbps - 1:13:36)

Ajánló a borítóról:
Kukorica Jancsi, az egyszerű juhászbojtár szerelmes a gyönyörű árvába, Iluskába, ezért ahelyett, hogy a rábízott nyájat őrizné, inkább párját öleli a patakparton. Ezért hamar összetűzésbe is kerül Iluska gonosz mostohájával, az azonban még nagyobb gond, hogy mire lemegy a nap, szétszélednek a rábízott juhok, így Jancsinak bujdosnia kell. Korábban még szép házat, kertet és rózsákat ígért a szerelmének, és hogy ezt megtehesse, elhatározza, hogy meggazdagodva tér majd vissza.
Útja során számtalan veszélyes és izgalmas kalandban lesz része, zsiványokkal verekszik, beáll katonának és bejárja Tatárországot, Taljánországot, Lengyelországot, Indiát és Franciországot, majd onnan a törököket kiverve dicsőségben és gazdagságban tér haza szerelméhez. A faluban azonban szörnyű hír fogadja: drága Iluskája meghalt, már csak a sírhantját láthatja. Felkerekedik hát újra az immár János vitézzé érett Kukorica Jancsi, hogy újabb ezer veszélyben, boszorkányokon, óriásokon és egy hatalmas sárkányon is áttörve megkeresse szíve szerelmét, Iluskát…


Média információ:

Video:
Kodek: MPEG-1/2 Video (mpgv)
Felbontás: 720x576
Képkockasebesség: 25
Képformátum: 1.33:1 (4:3)

Hang:
Kodek: A52 Audio (aka AC3) (a52)
Csatornák: Sztereó
Mintavételi frekvencia: 48000 Hz
Bitek mintánként: 32

Formátum: iso
Méret: 3,64 GB
Műsoridő: 1:13:36

(prémium)
Kód:
https://data.hu/get/12897410/D1161i.part1.rar
https://data.hu/get/12897414/D1161i.part2.rar
https://data.hu/get/12897411/D1161i.part3.rar
https://data.hu/get/12897417/D1161i.part4.rar

7f9963a25a36679c36308cd5ddb06e16.jpg


Formátum: dvdrip/avi
Méret: 738 MB
Felbontás: 720x544
Mintavételi frekvencia: 48000 Hz
Bitsebesség: 128 kbps
Műsoridő: 1:13:36

Részletes média információ:
I:\0000\Jnos vitz\János vitéz\János vitéz.avi
General
Complete name : I:\0000\Jnos vitz\János vitéz\János vitéz.avi
Format : AVI
Format/Info : Audio Video Interleave
File size : 735 MiB
Duration : 1 h 13 min
Overall bit rate : 1 396 kb/s
Writing application : VirtualDubMod 1.5.4.1 (build 2178/release)
Writing library : VirtualDubMod build 2178/release
Video #0
ID : 0
Format : MPEG-4 Visual
Format profile : Advanced [email protected]
Format settings, BVOP : 1
Format settings, QPel : No
Format settings, GMC : No warppoints
Format settings, Matrix : Custom
Codec ID : XVID
Codec ID/Hint : XviD
Duration : 1 h 13 min
Bit rate : 1 260 kb/s
Width : 720 pixels
Height : 544 pixels
Display aspect ratio : 4:3
Frame rate : 25.000 FPS
Color space : YUV
Chroma subsampling : 4:2:0
Bit depth : 8 bits
Scan type : Progressive
Compression mode : Lossy
Bits/(Pixel*Frame) : 0.129
Stream size : 664 MiB (90%)
Writing library : XviD 1.2.1 (UTC 2008-12-04)
Audio #1
ID : 1
Format : MPEG Audio
Format version : Version 1
Format profile : Layer 3
Mode : Joint stereo
Mode extension : MS Stereo
Codec ID : 55
Codec ID/Hint : MP3
Duration : 1 h 13 min
Bit rate mode : Constant
Bit rate : 128 kb/s
Channel(s) : 2 channels
Sampling rate : 48.0 kHz
Compression mode : Lossy
Stream size : 67.4 MiB (9%)
Alignment : Aligned on interleaves
Interleave, duration : 80 ms (2.00 video frames)
Interleave, preload duration : 504 ms
Writing library : LAME3.98r
Encoding settings : -m j -V 4 -q 2 -lowpass 17 -b 128

prémium
Kód:
https://data.hu/get/12897425/D1161a.rar
vagy free
Kód:
https://data.hu/get/12897416/D1161av.part1.rar
https://data.hu/get/12897418/D1161av.part2.rar
https://data.hu/get/12897408/D1161av.part3.rar
https://data.hu/get/12897409/D1161av.part4.rar

5b42cea285bb5d78b396ad1a8bccacae.jpg


János vitéz
Fekete-fehér magyar film, 1938
Írta: Petőfi Sándor elbeszélő költeményéből Bakonyi Károly átdolgozása alapján: Somogyváry Gyula
Zene: Kacsóh Pongrácz
Dalszövegíró: Heltai, Jenő
Fényképezte: Kurzmayer, Károly
Szereplők: Palló Imre (Kukorica Jancsi), Dajka Margit (Iluska), Kiss Ferenc (Bagó), Csortos Gyula (burkus király), Simor Erzsi (a leánya), Peéry Piri (Iluska mostohája), Nagy Izabella (csaplárosné), Gózon Gyula (csősz), Bilicsi Tivadar (csillagjós), Kelemen Lajos (török basa), Vitéz Tibor (strázsamester)

Rendezte: Gaál Béla

Bemutató: 1939. január 26. Budapest

Tartalom:
Jancsi nyájat legeltet, Iluska ruhát mos a patakban. Idilljüket Iluska mostohája zavarja meg. Jancsi keményen bánik a vénasszonnyal, mire az bosszúból tilosba hajtatja az állatokat. A legény kénytelen elmenekülni, s huszárnak áll. A magyar daliák megverik a törököt, és fölszabadítják Burkusországot. Jánost vitézzé avatja a király, s hozzáadná a leányát is, de a legény Iluskájára gondol. Katonatársa, Bagó, akinek szintén tetszett Iluska, a leány halálhírét hozza. Ketten indulnak el, hogy visszahozzák őt az élők világába. Ez sikerül is, Jancsi a faluban telepedik le mátkájával. Bagó elköszön tőlük. (KZs - MANDA)

ec266715bae8e59d964e890984faf719.jpg


Formátum: tvrip/avi
Méret: 1,17 GB
Felbontás: 720x544
Mintavételi frekvencia: 48000 Hz
Bitsebesség: 128 kbps
Műsoridő: 1:18:08

Részletes média információ:
C:\Users\user\Videos\János vitéz (1938).avi
General
Complete name : C:\Users\user\Videos\János vitéz (1938).avi
Format : AVI
Format/Info : Audio Video Interleave
Format profile : OpenDML
File size : 1.17 GiB
Duration : 1 h 18 min
Overall bit rate : 2 143 kb/s
Writing application : Lavf58.17.100
Video #0
ID : 0
Format : MPEG-4 Visual
Format profile : Advanced [email protected]
Format settings, BVOP : 3
Format settings, QPel : No
Format settings, GMC : No warppoints
Format settings, Matrix : Default (H.263)
Codec ID : DIVX
Codec ID/Info : Project Mayo
Codec ID/Hint : DivX 4
Duration : 1 h 18 min
Bit rate : 1 999 kb/s
Width : 720 pixels
Height : 544 pixels
Display aspect ratio : 4:3
Frame rate : 25.000 FPS
Color space : YUV
Chroma subsampling : 4:2:0
Bit depth : 8 bits
Scan type : Interlaced
Original scan type : Progressive
Scan order : Bottom Field First
Compression mode : Lossy
Bits/(Pixel*Frame) : 0.204
Stream size : 1.09 GiB (93%)
Writing library : Lavc58.19.104
Audio #1
ID : 1
Format : MPEG Audio
Format version : Version 1
Format profile : Layer 3
Codec ID : 55
Codec ID/Hint : MP3
Duration : 1 h 18 min
Bit rate mode : Constant
Bit rate : 128 kb/s
Channel(s) : 2 channels
Sampling rate : 48.0 kHz
Compression mode : Lossy
Stream size : 71.5 MiB (6%)
Alignment : Aligned on interleaves
Interleave, duration : 24 ms (0.60 video frame)
Title : Audio

prémium
Kód:
https://data.hu/get/12897412/D2369a.part1.rar
https://data.hu/get/12897421/D2369a.part2.rar
vagy free
Kód:
https://data.hu/get/12897415/D2369av.part1.rar
https://data.hu/get/12897424/D2369av.part2.rar
https://data.hu/get/12897423/D2369av.part3.rar
https://data.hu/get/12897422/D2369av.part4.rar
https://data.hu/get/12897407/D2369av.part5.rar
https://data.hu/get/12897420/D2369av.part6.rar
https://data.hu/get/12897419/D2369av.part7.rar
 

papadi

Állandó Tag
Állandó Tag
Cseh Tamás három mozifilmhe - Csinibaba + 6-3 avagy, játszd újra Tutti + A turné (iso+avi)

c9b414c4282b001d7c0864e3b831acee.jpg


Csinibaba
Magyar vígjáték (1996)
Főszereplők: Gálvölgyi János, Almási Sándor, Reviczky Gábor, Tóth Anita, Németh Kristóf, Nagy Natália, Andorai Péter, Galla Miklós, Cseh Tamás, Lovassy András. Dolák Saly Róbert
Rendezte: Tímár Péter

1962-ben amikor Gagarin űrrepül és a harmadik világháború csaknem kitör, idehaza nem történik semmi. S hogy ne is történhessen, arról Simon bá, a rend és az erkölcs felett lankadatlanul őrködő tömbbizalmi gondoskodik. Csakhogy jön a "Ki mit tud?" és elszabadul a pokol. Boldog-boldogtalan jelentkezik, hogy kiszabadulhasson innen, hiszen a győztesek kiutazhatnak a Helsinki VIT-re, ami a vasfüggönyön túl van, és krumplis tészták meg a pesti dzsigolók sajátos világnézetéből már majdnem Amerika, maga az "édes élet". Sok-sok bonyodalom, még több sláger, ármány, szerelem és mulatság után kiderül, hogy a véletlent sem bízzák a véletlenre és senki sem abba a révbe érkezik, amibe beevezett. Mindez nem olyan nagy baj, ha valaki imád élni. És ők imádnak. (a borítóról)

Média információ:

Video:
Kodek: MPEG-1/2 Video (mpgv)
Felbontás: 704x576
Képkockasebesség: 25
Képformátum: 1.33:1 (4:3)

Hang:
Kodek: MPEG Audio layer 1/2 (mpga)
Csatornák: Sztereó
Mintavételi frekvencia: 48000 Hz
Bitsebesség:224 kb/mp

Formátum: iso
Méret: 4,02 GB
Műsoridő: 1:38:26 (1:44:23)

(prémium)
Kód:
https://data.hu/get/12966870/D0061i.part1.rar
https://data.hu/get/12966867/D0061i.part2.rar
https://data.hu/get/12966873/D0061i.part3.rar
https://data.hu/get/12966872/D0061i.part4.rar

aa56c5c87e1df91b00860a6ebf36b23d.jpg


Formátum: dvdrip/avi
Méret: 1,44 GB
Felbontás: 720x464
Mintavételi frekvencia: 48000 Hz
Bitsebesség: 192 kbps
Műsoridő: 1:38:26

Részletes média információ:
J:\Csinibaba.avi
General
Complete name : J:\Csinibaba.avi
Format : AVI
Format/Info : Audio Video Interleave
File size : 1.44 GiB
Duration : 1 h 38 min
Overall bit rate : 2 098 kb/s
Writing application : VirtualDubMod 1.5.4.1 (build 2178/release)
Writing library : VirtualDubMod build 2178/release
Video #0
ID : 0
Format : MPEG-4 Visual
Format profile : Advanced [email protected]
Format settings, BVOP : 1
Format settings, QPel : No
Format settings, GMC : No warppoints
Format settings, Matrix : Custom
Codec ID : XVID
Codec ID/Hint : XviD
Duration : 1 h 38 min
Bit rate : 1 898 kb/s
Width : 720 pixels
Height : 464 pixels
Display aspect ratio : 16:10
Frame rate : 25.000 FPS
Color space : YUV
Chroma subsampling : 4:2:0
Bit depth : 8 bits
Scan type : Progressive
Compression mode : Lossy
Bits/(Pixel*Frame) : 0.227
Stream size : 1.31 GiB (90%)
Writing library : XviD 1.2.1 (UTC 2008-12-04)
Audio #1
ID : 1
Format : MPEG Audio
Format version : Version 1
Format profile : Layer 3
Mode : Joint stereo
Mode extension : MS Stereo
Codec ID : 55
Codec ID/Hint : MP3
Duration : 1 h 38 min
Bit rate mode : Constant
Bit rate : 192 kb/s
Channel(s) : 2 channels
Sampling rate : 48.0 kHz
Compression mode : Lossy
Stream size : 135 MiB (9%)
Alignment : Aligned on interleaves
Interleave, duration : 80 ms (2.00 video frames)
Interleave, preload duration : 504 ms
Writing library : LAME3.98r
Encoding settings : -m j -V 4 -q 2 -lowpass 18.6 -b 192

prémium
Kód:
https://data.hu/get/12966876/D0061a.part1.rar
https://data.hu/get/12966869/D0061a.part2.rar

fe6f3c1b212be1d27f53166c0be1317e.jpg


6:3 avagy, Játszd újra Tutti
Magyar vígjáték (1999)
Főszereplők: Eperjes Károly, Szalay Kriszta, Cseh Tamás, Kern András, Reviczky Gábor, Kállai Ferenc, Máté Gábor, Gállfy László
Rendezte: Tímár Péter

Az évszázad mérkőzése, az Angol - Magyar 1953. november 25-én délután negyed négykor kezdődött. Hónapok óta erre várt az egész ország, mindenhol a készülékek köré gyülekeztek, még oda is kitették a rádiót, ahol egyébként nem szokás ilyesmi… Hiszen az aranycsapat lépett pályára az addig otthonában veretlen angolok ellen! Néhány perccel a kezdőrúgás előtt azonban történik valami...
Megjelenik egy férfi és elrontja a szurkolás örömét, ugyanis bemondja előre a gólokat. Minden tippje tutti, és saját magát is így nevezi: Tutti. Senki sem ismeri, senki nem tudja honnan jött. Mint a végzet száguld egyik helyszínről a másikra. Tutti nem túl népszerű, mivel nem tud lakatot tenni a szájára, szinte mindenhonnan kidobják.
Egy idő után már menekülnie is kell, mert az államvédelemhez is eljut a híre. Még szerencse, hogy akad két jóakarója!
(a borítóról)

Extrák:
Előzetes (3:04)
Fotóalbum a borító szerint, de a lemezen nincs, helyette
Filmográfiák

Média információ:

Video:
Kodek: MPEG-1/2 Video (mpgv)
Felbontás: 720x576
Képkockasebesség: 25
Képformátum: 1.33:1 (4:3)

Hang:
Kodek: A52 Audio (aka AC3) (a52)
Csatornák: Sztereó
Mintavételi frekvencia: 48000 Hz
Bitek mintánként: 32

Formátum: iso
Méret: 3,97 GB
Műsoridő: 1:29:19 (1:32:23)

(prémium)
Kód:
https://data.hu/get/12966871/D0813i.part1.rar
https://data.hu/get/12966868/D0813i.part2.rar
https://data.hu/get/12966940/D0813i.part3.rar
https://data.hu/get/12966941/D0813i.part4.rar

669b42a9dbd8ad1231247bf1a6c68757.jpg


Formátum: dvdrip/avi
Méret: 897 MB
Felbontás: 720x476
Mintavételi frekvencia: 48000 Hz
Bitsebesség: 128 kbps
Műsoridő: 1:29:19

Részletes média információ:
J:\6-3 avagy, Játszd újra Tutti.avi
General
Complete name : J:\6-3 avagy, Játszd újra Tutti.avi
Format : AVI
Format/Info : Audio Video Interleave
File size : 891 MiB
Duration : 1 h 29 min
Overall bit rate : 1 395 kb/s
Writing application : VirtualDubMod 1.5.4.1 (build 2178/release)
Writing library : VirtualDubMod build 2178/release
Video #0
ID : 0
Format : MPEG-4 Visual
Format profile : Advanced [email protected]
Format settings, BVOP : 1
Format settings, QPel : No
Format settings, GMC : No warppoints
Format settings, Matrix : Custom
Codec ID : XVID
Codec ID/Hint : XviD
Duration : 1 h 29 min
Bit rate : 1 259 kb/s
Width : 720 pixels
Height : 416 pixels
Display aspect ratio : 1.731
Frame rate : 25.000 FPS
Color space : YUV
Chroma subsampling : 4:2:0
Bit depth : 8 bits
Scan type : Progressive
Compression mode : Lossy
Bits/(Pixel*Frame) : 0.168
Stream size : 805 MiB (90%)
Writing library : XviD 1.2.1 (UTC 2008-12-04)
Audio #1
ID : 1
Format : MPEG Audio
Format version : Version 1
Format profile : Layer 3
Mode : Joint stereo
Mode extension : MS Stereo
Codec ID : 55
Codec ID/Hint : MP3
Duration : 1 h 29 min
Bit rate mode : Constant
Bit rate : 128 kb/s
Channel(s) : 2 channels
Sampling rate : 48.0 kHz
Compression mode : Lossy
Stream size : 81.8 MiB (9%)
Alignment : Aligned on interleaves
Interleave, duration : 80 ms (2.00 video frames)
Interleave, preload duration : 504 ms
Writing library : LAME3.98r
Encoding settings : -m j -V 4 -q 2 -lowpass 17 -b 128

prémium
Kód:
https://data.hu/get/12966874/D0813a.rar

d43c4fceed4d9bb8ff43436f9db9bb56.jpg


A turné
Magyar filmvígjáték (1993)
Főszereplők: Eperjes Károly, Törőcsik Mari, Benedek Miklós, Bordán Irén, Ternyák Zoltán, Börcsök Enikő, Bezerédi Zoltán, Cseh Tamás
Rendezte: Bereményi Géza
Magyar filmek gyűjteménye 20.
Fantasy Film, 2007. január 12.

Tartalom a borítóról:
Vége az évadnak, közeleg a nyár. A színtársulatból páran úgy gondolják, csinos extrapénzre tehetnek szert, ha 40 nap alatt végigszáguldanak az országon, és lenyomnak 90 előadást. Hogy kemény menet lesz, azt mind sejtik. "Ha szerettek, én végig tudom csinálni." - mondja a társulat sztárja, Tibor (Eperjes Károly). De úgy tűnik, túl hosszú a negyven nap, és főleg a negyven éjszaka, túl zűrös a színészek lelkivilága. Kuszák a viszonyok, hiányzik a szeretet és szorít az idő. Tibor megérzi: ebbe az útba fog beledögleni.

Extrák:
magyar felirat
Interjú Bereményi Géza rendezővel pályafutásáról (22:46)
Bereményi Géza "A turné" forgatásáról (14:10)
Bereményi Géza - Teljes rendezői és forgatókönyvírói filmográfia
Ajánló (2:31)

Média információ:

Video:
Kodek: MPEG-1/2 Video (mpgv)
Felbontás: 720x576
Képkockasebesség: 25
Képformátum: 1.37:1 (4:3)

Hang:
Kodek: A52 Audio (aka AC3) (a52)
Csatornák: Sztereó
Mintavételi frekvencia: 48000 Hz
Bitek mintánként: 32

Formátum: iso
Méret: 5,68 GB
Műsoridő: 1:29:30 (2:08:59)

(prémium)
Kód:
https://data.hu/get/12966943/D2415i.part1.rar
https://data.hu/get/12966945/D2415i.part2.rar
https://data.hu/get/12966939/D2415i.part3.rar
https://data.hu/get/12966946/D2415i.part4.rar
https://data.hu/get/12966942/D2415i.part5.rar
https://data.hu/get/12966944/D2415i.part6.rar

2c825792938fa16aef1864299785c88b.jpg


Formátum: dvdrip/avi
Méret: 896 MB
Felbontás: 720x544
Mintavételi frekvencia: 48000 Hz
Bitsebesség: 128 kbps
Műsoridő: 1:29:29

Részletes média információ:
I:\Video\20 - A turné.avi
General
Complete name : I:\Video\20 - A turné.avi
Format : AVI
Format/Info : Audio Video Interleave
File size : 895 MiB
Duration : 1 h 29 min
Overall bit rate : 1 398 kb/s
Writing application : VirtualDubMod 1.5.4.1 (build 2178/release)
Writing library : VirtualDubMod build 2178/release
Video #0
ID : 0
Format : MPEG-4 Visual
Format profile : Advanced [email protected]
Format settings, BVOP : 1
Format settings, QPel : No
Format settings, GMC : No warppoints
Format settings, Matrix : Custom
Codec ID : XVID
Codec ID/Hint : XviD
Duration : 1 h 29 min
Bit rate : 1 262 kb/s
Width : 720 pixels
Height : 544 pixels
Display aspect ratio : 4:3
Frame rate : 25.000 FPS
Color space : YUV
Chroma subsampling : 4:2:0
Bit depth : 8 bits
Scan type : Progressive
Compression mode : Lossy
Bits/(Pixel*Frame) : 0.129
Stream size : 808 MiB (90%)
Writing library : XviD 1.2.1 (UTC 2008-12-04)
Audio #1
ID : 1
Format : MPEG Audio
Format version : Version 1
Format profile : Layer 3
Mode : Joint stereo
Mode extension : MS Stereo
Codec ID : 55
Codec ID/Hint : MP3
Duration : 1 h 29 min
Bit rate mode : Constant
Bit rate : 128 kb/s
Channel(s) : 2 channels
Sampling rate : 48.0 kHz
Compression mode : Lossy
Stream size : 81.9 MiB (9%)
Alignment : Aligned on interleaves
Interleave, duration : 80 ms (2.00 video frames)
Interleave, preload duration : 504 ms
Writing library : LAME3.98r
Encoding settings : -m j -V 4 -q 2 -lowpass 17 -b 128

(prémium)
Kód:
https://data.hu/get/12966947/D2415a.rar
 
Oldal tetejére