Magyar filmek III itt nincs kérés

FLAMINGO témája a 'Film, színház, tánc' fórumban , 2018 Február 3.

  1. papadi

    papadi Állandó Tag

    [​IMG]
    Budapesti mesék
    Magyar filmdráma (1976)
    Főszereplők: Mészáros Ági, Maja Komorowska, Franciszek Pieczka, Bálint András, Kovács Károly, Bánsági Ildikó, Madaras József, Simon Szurmiej, Huszárik Zoltán, Békés Rita, Bodis Irén, Kun Vilmos, Halmágyi Sándor, Jani János
    Rendezte: Szabó István
    Magyar filmek gyűjteménye 14.
    Fantasy Film, 2007. január 12.
    Tartalom a borítóról:
    A nagy világégés után az emberek sorban bújnak elő rejtekhelyeikről. A Duna-parton egy felborult villamoskocsi fekszik, valamikor a városban róhatta az utcákat, de most ez jelképezi azt a pusztítást, melyet a háború végzett nemcsak az országban, de a fejekben és a lelkekben is. Az emberek összefognak és óriási erőfeszítések árán visszaemelik a sínre, amely talán elvezet a remízbe, vagyis a városba, ahol mindenki új életet kezdhet. A hihetetlenül hosszú, kegyetlenül nehéz utazás során megismerhetünk emberi sorsokat, konfliktusokat, szerelmeket és a nagy utazás végén kiderül, vajon érdemes volt-e a hosszú utat végigszenvedni mindazoknak, akik vállalták, hogy a villamost tolva újra felépíthetik a várost és saját életüket...
    Extrák:
    angol és magyar felirat
    Ajánló (1:41)
    Média információ:
    Video:
    Kodek: MPEG-1/2 Video (mpgv)
    Felbontás: 720x576
    Képkockasebesség: 25
    Képformátum: 1.37:1 (4:3)
    Hang:
    Kodek: A52 Audio (aka AC3) (a52)
    Csatornák: 3F2R/LFE
    Mintavételi frekvencia: 48000 Hz
    Bitsebesség: 448 kb/mp
    Formátum: iso
    Méret: 3,98 GB
    Műsoridő: 0:00:00
    (prémium)
    Rejtett tartalom:
    **Rejtett tartalom: A tartalom megjelenítéséhez kattints a 'Tetszik' gombra.**
    [​IMG]
    Formátum: dvdrip/avi
    Méret: 838 MB
    Felbontás: 720x544
    Mintavételi frekvencia: 48000 Hz
    Bitsebesség: 128 kbps
    Műsoridő: 1:24:06
    Részletes média információ:
    Show Spoiler

    I:\Video\14 - Budapesti mesék.avi
    General
    Complete name : I:\Video\14 - Budapesti mesék.avi
    Format : AVI
    Format/Info : Audio Video Interleave
    File size : 837 MiB
    Duration : 1 h 24 min
    Overall bit rate : 1 392 kb/s
    Writing application : VirtualDubMod 1.5.4.1 (build 2178/release)
    Writing library : VirtualDubMod build 2178/release
    Video #0
    ID : 0
    Format : MPEG-4 Visual
    Format profile : Advanced [email protected]
    Format settings, BVOP : 1
    Format settings, QPel : No
    Format settings, GMC : No warppoints
    Format settings, Matrix : Custom
    Codec ID : XVID
    Codec ID/Hint : XviD
    Duration : 1 h 24 min
    Bit rate : 1 256 kb/s
    Width : 720 pixels
    Height : 544 pixels
    Display aspect ratio : 4:3
    Frame rate : 25.000 FPS
    Color space : YUV
    Chroma subsampling : 4:2:0
    Bit depth : 8 bits
    Scan type : Progressive
    Compression mode : Lossy
    Bits/(Pixel*Frame) : 0.128
    Stream size : 756 MiB (90%)
    Writing library : XviD 1.2.1 (UTC 2008-12-04)
    Audio #1
    ID : 1
    Format : MPEG Audio
    Format version : Version 1
    Format profile : Layer 3
    Mode : Joint stereo
    Mode extension : MS Stereo
    Codec ID : 55
    Codec ID/Hint : MP3
    Duration : 1 h 24 min
    Bit rate mode : Constant
    Bit rate : 128 kb/s
    Channel(s) : 2 channels
    Sampling rate : 48.0 kHz
    Compression mode : Lossy
    Stream size : 77.0 MiB (9%)
    Alignment : Aligned on interleaves
    Interleave, duration : 80 ms (2.00 video frames)
    Interleave, preload duration : 504 ms
    Writing library : LAME3.98r
    Encoding settings : -m j -V 4 -q 2 -lowpass 17 -b 128

    Rejtett tartalom:
    **Rejtett tartalom: A tartalom megjelenítéséhez kattints a 'Tetszik' gombra.**
    vagy free
    Rejtett tartalom:
    **Rejtett tartalom: A tartalom megjelenítéséhez kattints a 'Tetszik' gombra.**
     
    hegyisas és nandus kedveli ezt.
  2. papadi

    papadi Állandó Tag

    [​IMG]
    Szabadíts meg a gonosztól!
    Magyar filmdráma (1978)
    Főszereplők: Psota Irén, Garas Dezső, Kútvölgyi Erzsébet, Kern András, Andorai Péter, Major Tamás, Margittai Ági, Rátonyi Róbert, Horváth Jenő
    Rendezte: Sándor Pál
    Magyar filmek gyűjteménye 15.
    Fantasy Film, 2007. január 12.
    Tartalom a borítóról:
    A háború vége felé járunk. A Végvári Tánciskolában folyik a táncóra. András (Kern András) a ruhatáros Adorjánné fia kihasználva a légiriadó okozta zűrzavart, ellop egy kabátot, hogy miután eladta, a pénzből megvásárolhassa egy örömlány szolgáltatásait. A ruhatárosnő (Psota Irén) gyermekei és sógora, Svéd Feri (Garas Dezső) segítségével útnak indul, hogy visszaszerezze a kabátot és vele együtt becsületét. Útjuk valóságos pokoljárás a háború sújtotta város örömtanyáinak, sikátorainak, fürdőházainak fullasztó világában. A kabát megkerül ugyan, de a becsület örökre elveszett, azokkal az emberekkel együtt, akiknek emiatt meg kell halniuk...
    Extrák:
    angol és magyar felirat
    Ajánló (1:41)
    Média információ:
    Video:
    Kodek: MPEG-1/2 Video (mpgv)
    Felbontás: 720x576
    Képkockasebesség: 25
    Képformátum: 1.37:1 (4:3)
    Hang:
    Kodek: A52 Audio (aka AC3) (a52)
    Csatornák: 3F2R/LFE
    Mintavételi frekvencia: 48000 Hz
    Bitsebesség: 448 kb/mp
    Formátum: iso
    Méret: 3,97 GB
    Műsoridő: 0:00:00
    (prémium)
    Rejtett tartalom:
    **Rejtett tartalom: A tartalom megjelenítéséhez kattints a 'Tetszik' gombra.**
    [​IMG]
    Formátum: dvdrip/avi
    Méret: 877 MB
    Felbontás: 720x544
    Mintavételi frekvencia: 48000 Hz
    Bitsebesség: 128 kbps
    Műsoridő: 1:27:38
    Részletes média információ:
    Show Spoiler

    I:\Video\15 - Szabadits meg a gonosztól.avi
    General
    Complete name : I:\Video\15 - Szabadits meg a gonosztól.avi
    Format : AVI
    Format/Info : Audio Video Interleave
    File size : 876 MiB
    Duration : 1 h 27 min
    Overall bit rate : 1 398 kb/s
    Writing application : VirtualDubMod 1.5.4.1 (build 2178/release)
    Writing library : VirtualDubMod build 2178/release
    Video #0
    ID : 0
    Format : MPEG-4 Visual
    Format profile : Advanced [email protected]
    Format settings, BVOP : 1
    Format settings, QPel : No
    Format settings, GMC : No warppoints
    Format settings, Matrix : Custom
    Codec ID : XVID
    Codec ID/Hint : XviD
    Duration : 1 h 27 min
    Bit rate : 1 262 kb/s
    Width : 720 pixels
    Height : 544 pixels
    Display aspect ratio : 4:3
    Frame rate : 25.000 FPS
    Color space : YUV
    Chroma subsampling : 4:2:0
    Bit depth : 8 bits
    Scan type : Progressive
    Compression mode : Lossy
    Bits/(Pixel*Frame) : 0.129
    Stream size : 791 MiB (90%)
    Writing library : XviD 1.2.1 (UTC 2008-12-04)
    Audio #1
    ID : 1
    Format : MPEG Audio
    Format version : Version 1
    Format profile : Layer 3
    Mode : Joint stereo
    Mode extension : MS Stereo
    Codec ID : 55
    Codec ID/Hint : MP3
    Duration : 1 h 27 min
    Bit rate mode : Constant
    Bit rate : 128 kb/s
    Channel(s) : 2 channels
    Sampling rate : 48.0 kHz
    Compression mode : Lossy
    Stream size : 80.2 MiB (9%)
    Alignment : Aligned on interleaves
    Interleave, duration : 80 ms (2.00 video frames)
    Interleave, preload duration : 504 ms
    Writing library : LAME3.98r
    Encoding settings : -m j -V 4 -q 2 -lowpass 17 -b 128

    Rejtett tartalom:
    **Rejtett tartalom: A tartalom megjelenítéséhez kattints a 'Tetszik' gombra.**
    vagy free
    Rejtett tartalom:
    **Rejtett tartalom: A tartalom megjelenítéséhez kattints a 'Tetszik' gombra.**
     
    hegyisas és nandus kedveli ezt.
  3. papadi

    papadi Állandó Tag

    [​IMG]
    Idő van
    Magyar filmdráma (1985)
    Főszereplők: Lázár Kati, Zala Márk, Ruttkai Éva, Bitskey Tibor, Cseh Tamás, Bodrogi Gyula, Básti Juli, Kern András
    Rendezte: Gothár Péter
    Magyar filmek gyűjteménye 16.
    Fantasy Film, 2007. január 12.
    Tartalom a borítóról:
    Halasi Mihály igazi magyar átlagember a '80-as évekből, aki pár hétre otthagyja a gyárat, bepattan a Trabantba feleségével és két gyerekével, aztán irány a vállalati üdülő. Még az M7-esre sem jut ki, amikor egy apró kellemetlenség kizökkenti az eseményeket a normális kerékvágásból. Misi rájön, hogy bent felejtette a gyárban a nemrég vásárolt vibrátort. Ettől kezdve útja kaotikus sodródás egy abszurd, kafkai világban: portásokkal vív fegyveres összecsapást, felesége bizarr betegsége ellen küzd, kórházi folyosók labirintusaiban kóvályog, szadista ellenőrnő áldozatául esik. Kálváriájában hősünk szenvedéseit anyja és testvére sem tudja enyhíteni. Egyedül kell megértenie, hogy élete nem fog önmagától értelmes történetté összeállni. Az embernek magának kell a lét komikus-fájdalmas összevisszaságában találni egy vezérfonalat, mely számára igazán lényeges - méghozzá sürgősen, mert: "Idő van".
    Extrák:
    angol és magyar felirat
    Ajánló (1:41)
    Média információ:
    Video:
    Kodek: MPEG-1/2 Video (mpgv)
    Felbontás: 720x576
    Képkockasebesség: 25
    Képformátum: 1.37:1 (4:3)
    Hang:
    Kodek: A52 Audio (aka AC3) (a52)
    Csatornák: 3F2R/LFE
    Mintavételi frekvencia: 48000 Hz
    Bitsebesség: 448 kb/mp
    Formátum: iso
    Méret: 4,34 GB
    Műsoridő: 1:40:53
    (prémium)
    Rejtett tartalom:
    **Rejtett tartalom: A tartalom megjelenítéséhez kattints a 'Tetszik' gombra.**
    [​IMG]
    Formátum: dvdrip/avi
    Méret: 0,98 GB
    Felbontás: 720x544
    Mintavételi frekvencia: 48000 Hz
    Bitsebesség: 128 kbps
    Műsoridő: 1:40:53
    Részletes média információ:
    Show Spoiler

    I:\Video\16 - Idö van.avi
    General
    Complete name : I:\Video\16 - Idö van.avi
    Format : AVI
    Format/Info : Audio Video Interleave
    File size : 1 006 MiB
    Duration : 1 h 40 min
    Overall bit rate : 1 394 kb/s
    Writing application : VirtualDubMod 1.5.4.1 (build 2178/release)
    Writing library : VirtualDubMod build 2178/release
    Video #0
    ID : 0
    Format : MPEG-4 Visual
    Format profile : Advanced [email protected]
    Format settings, BVOP : 1
    Format settings, QPel : No
    Format settings, GMC : No warppoints
    Format settings, Matrix : Custom
    Codec ID : XVID
    Codec ID/Hint : XviD
    Duration : 1 h 40 min
    Bit rate : 1 259 kb/s
    Width : 720 pixels
    Height : 544 pixels
    Display aspect ratio : 4:3
    Frame rate : 25.000 FPS
    Color space : YUV
    Chroma subsampling : 4:2:0
    Bit depth : 8 bits
    Scan type : Progressive
    Compression mode : Lossy
    Bits/(Pixel*Frame) : 0.129
    Stream size : 908 MiB (90%)
    Writing library : XviD 1.2.1 (UTC 2008-12-04)
    Audio #1
    ID : 1
    Format : MPEG Audio
    Format version : Version 1
    Format profile : Layer 3
    Mode : Joint stereo
    Mode extension : MS Stereo
    Codec ID : 55
    Codec ID/Hint : MP3
    Duration : 1 h 40 min
    Bit rate mode : Constant
    Bit rate : 128 kb/s
    Channel(s) : 2 channels
    Sampling rate : 48.0 kHz
    Compression mode : Lossy
    Stream size : 92.4 MiB (9%)
    Alignment : Aligned on interleaves
    Interleave, duration : 80 ms (2.00 video frames)
    Interleave, preload duration : 504 ms
    Writing library : LAME3.98r
    Encoding settings : -m j -V 4 -q 2 -lowpass 17 -b 128

    Rejtett tartalom:
    **Rejtett tartalom: A tartalom megjelenítéséhez kattints a 'Tetszik' gombra.**
    vagy free
    Rejtett tartalom:
    **Rejtett tartalom: A tartalom megjelenítéséhez kattints a 'Tetszik' gombra.**
     
    nandus kedveli ezt.
  4. papadi

    papadi Állandó Tag

    [​IMG]
    A skorpió megeszi az ikreket reggelire
    Magyar filmvígjáték (1991)
    Főszereplők: Rudolf Péter, Eszenyi Enikő, Törőcsik Mari, Garas Dezső
    Rendezte: Gárdos Péter
    Magyar filmek gyűjteménye 17.
    Fantasy Film, 2007. január 12.
    Tartalom a borítóról:
    Tamás mintaférj. Ő a világ legboldogabb embere, mikor megszületik a kislánya. Egy telefonfülkéből akarja közölni az örömhírt szeretett nagyanyjával, de félretárcsáz. Panni, a gyönyörű fényképésznő veszi fel a telefont, s Tamás tíz perc múlva már ott csókolódzik a szőke ciklonnal a fülkében. Mindketten tudják, hogy ez a kapcsolat tönkre fogja tenni őket, s ráadásul a családjukat is. Még sincs megállás. Tamás élete fenekestül felfordul. Az ikrek szülöttjét magával rántja a skorpió lány viharos szerelme, a vad féltékenység, a pokoli szenvedés és a földöntúli boldogság. Tamás családja Ausztráliába költözik, nagyanyja meghal. Ő pedig magára marad, mert - ahogy mindig is tudta - Panni végül nem lesz az övé.
    Extrák:
    angol és magyar felirat
    Interjú Gárdos Péter rendezővel pályafutásáról (14:50)
    Interjú Rudolf Péterrel, a film főszereplőjével (12:31)
    Gárdos Péter - Teljes rendezői filmográfia
    Ajánló (2:31)
    Média információ:
    Video:
    Kodek: MPEG-1/2 Video (mpgv)
    Felbontás: 720x576
    Képkockasebesség: 25
    Képformátum: 1.37:1 (4:3)
    Hang:
    Kodek: A52 Audio (aka AC3) (a52)
    Csatornák: 3F2R/LFE
    Mintavételi frekvencia: 48000 Hz
    Bitsebesség: 448 kb/mp
    Formátum: iso
    Méret: 5,49 GB
    Műsoridő: 1:29:15 (1:59:08)
    (prémium)
    Rejtett tartalom:
    **Rejtett tartalom: A tartalom megjelenítéséhez kattints a 'Tetszik' gombra.**
    [​IMG]
    Formátum: dvdrip/avi
    Méret: 892 MB
    Felbontás: 720x544
    Mintavételi frekvencia: 48000 Hz
    Bitsebesség: 128 kbps
    Műsoridő: 1:29:15
    Részletes média információ:
    Show Spoiler

    I:\Video\17 - A skorpió megeszi az ikreket reggelire.avi
    General
    Complete name : I:\Video\17 - A skorpió megeszi az ikreket reggelire.avi
    Format : AVI
    Format/Info : Audio Video Interleave
    File size : 891 MiB
    Duration : 1 h 29 min
    Overall bit rate : 1 396 kb/s
    Writing application : VirtualDubMod 1.5.4.1 (build 2178/release)
    Writing library : VirtualDubMod build 2178/release
    Video #0
    ID : 0
    Format : MPEG-4 Visual
    Format profile : Advanced [email protected]
    Format settings, BVOP : 1
    Format settings, QPel : No
    Format settings, GMC : No warppoints
    Format settings, Matrix : Custom
    Codec ID : XVID
    Codec ID/Hint : XviD
    Duration : 1 h 29 min
    Bit rate : 1 261 kb/s
    Width : 720 pixels
    Height : 544 pixels
    Display aspect ratio : 4:3
    Frame rate : 25.000 FPS
    Color space : YUV
    Chroma subsampling : 4:2:0
    Bit depth : 8 bits
    Scan type : Progressive
    Compression mode : Lossy
    Bits/(Pixel*Frame) : 0.129
    Stream size : 805 MiB (90%)
    Writing library : XviD 1.2.1 (UTC 2008-12-04)
    Audio #1
    ID : 1
    Format : MPEG Audio
    Format version : Version 1
    Format profile : Layer 3
    Mode : Joint stereo
    Mode extension : MS Stereo
    Codec ID : 55
    Codec ID/Hint : MP3
    Duration : 1 h 29 min
    Bit rate mode : Constant
    Bit rate : 128 kb/s
    Channel(s) : 2 channels
    Sampling rate : 48.0 kHz
    Compression mode : Lossy
    Stream size : 81.7 MiB (9%)
    Alignment : Aligned on interleaves
    Interleave, duration : 80 ms (2.00 video frames)
    Interleave, preload duration : 504 ms
    Writing library : LAME3.98r
    Encoding settings : -m j -V 4 -q 2 -lowpass 17 -b 128

    Rejtett tartalom:
    **Rejtett tartalom: A tartalom megjelenítéséhez kattints a 'Tetszik' gombra.**
    vagy free
    Rejtett tartalom:
    **Rejtett tartalom: A tartalom megjelenítéséhez kattints a 'Tetszik' gombra.**
     
    nandus kedveli ezt.
  5. papadi

    papadi Állandó Tag

    [​IMG]
    Én vagyok Jeromos
    Magyar vígjáték (1970)
    Főszereplők: Alfonzó, Kállai Ferenc, Psota Irén, Harsányi Gábor, Pálos Zsuzsa, Bujtor István
    Rendezte: Tímár István
    Magyar filmek gyűjteménye 18.
    Fantasy Film, 2007. január 12.
    Tartalom a borítóról:
    A Katona-házaspár régi álma, hogy végre valaki rendbe hozza a kertjük végében éktelenkedő pöcegödröt. Amikor egy reggel arra ébrednek, hogy a Fenntartó Vállalat dolgozója csönget be hozzájuk, felcsillan a remény. Jeromos úr és fia, Zserom munkamorálja azonban siralmas, hiába birtokolják már évek óta az állami vándorzászlót. A sör fogy, a táskarádióból üvölt a zene, a fű pedig lassacskán kikopik a pihenő munkások alatt, akik "modellt alszanak" az amatőr festő Katonánénak. A gödör viszont marad. Végül Katonáné és az asszisztens, Juditka bevetik magukat az ügy érdekében. Divatos bikinijük és kitűnő csirkepaprikásuk - némi jóféle házi pálinkával kísérve persze - meghozza a várt eredményt. A dolgozók munkakedve oly mértékben megjavul, hogy egyetlen éjszaka leforgása alatt elkészül a vadonatúj pöcegödör.
    Extrák:
    angol és magyar felirat
    Ajánló (1:41)
    Média információ:
    Video:
    Kodek: MPEG-1/2 Video (mpgv)
    Felbontás: 720x576
    Képkockasebesség: 25
    Képformátum: 1.85:1 (16:9)
    Hang:
    Kodek: A52 Audio (aka AC3) (a52)
    Csatornák: 3F2R/LFE
    Mintavételi frekvencia: 48000 Hz
    Bitsebesség: 448 kb/mp
    Formátum: iso
    Méret: 4,10 GB
    Műsoridő: 1:13:12
    (prémium)
    Rejtett tartalom:
    **Rejtett tartalom: A tartalom megjelenítéséhez kattints a 'Tetszik' gombra.**
    [​IMG]
    Formátum: dvdrip/avi
    Méret: 733 MB
    Felbontás: 720x416
    Mintavételi frekvencia: 48000 Hz
    Bitsebesség: 128 kbps
    Műsoridő: 1:13:12
    Részletes média információ:
    Show Spoiler

    I:\Video\18 - Én vagyok Jeromos.avi
    General
    Complete name : I:\Video\18 - Én vagyok Jeromos.avi
    Format : AVI
    Format/Info : Audio Video Interleave
    File size : 732 MiB
    Duration : 1 h 13 min
    Overall bit rate : 1 398 kb/s
    Writing application : VirtualDubMod 1.5.4.1 (build 2178/release)
    Writing library : VirtualDubMod build 2178/release
    Video #0
    ID : 0
    Format : MPEG-4 Visual
    Format profile : Advanced [email protected]
    Format settings, BVOP : 1
    Format settings, QPel : No
    Format settings, GMC : No warppoints
    Format settings, Matrix : Custom
    Codec ID : XVID
    Codec ID/Hint : XviD
    Duration : 1 h 13 min
    Bit rate : 1 263 kb/s
    Width : 720 pixels
    Height : 416 pixels
    Display aspect ratio : 1.731
    Frame rate : 25.000 FPS
    Color space : YUV
    Chroma subsampling : 4:2:0
    Bit depth : 8 bits
    Scan type : Progressive
    Compression mode : Lossy
    Bits/(Pixel*Frame) : 0.169
    Stream size : 661 MiB (90%)
    Writing library : XviD 1.2.1 (UTC 2008-12-04)
    Audio #1
    ID : 1
    Format : MPEG Audio
    Format version : Version 1
    Format profile : Layer 3
    Mode : Joint stereo
    Mode extension : MS Stereo
    Codec ID : 55
    Codec ID/Hint : MP3
    Duration : 1 h 13 min
    Bit rate mode : Constant
    Bit rate : 128 kb/s
    Channel(s) : 2 channels
    Sampling rate : 48.0 kHz
    Compression mode : Lossy
    Stream size : 67.0 MiB (9%)
    Alignment : Aligned on interleaves
    Interleave, duration : 80 ms (2.00 video frames)
    Interleave, preload duration : 504 ms
    Writing library : LAME3.98r
    Encoding settings : -m j -V 4 -q 2 -lowpass 17 -b 128

    Rejtett tartalom:
    **Rejtett tartalom: A tartalom megjelenítéséhez kattints a 'Tetszik' gombra.**
    vagy free
    Rejtett tartalom:
    **Rejtett tartalom: A tartalom megjelenítéséhez kattints a 'Tetszik' gombra.**
     
    hegyisas és nandus kedveli ezt.
  6. papadi

    papadi Állandó Tag

    [​IMG]
    Falfúró
    Magyar filmszatíra (1985)
    Főszereplők: Bán János, Szatler Renáta, Szirtes Ági, Andorai Péter, Ujlaki Dénes
    Rendezte: Szomjas György
    Magyar filmek gyűjteménye 19.
    Fantasy Film, 2006. október 26.
    Tartalom a borítóról:
    Géza (Bán János) egy lakótelepen él feleségével és két gyermekével. Egy napon elhatározza, hogy szakít minden kötöttséggel és új életet kezd. Még aznap ráborítja a művezetőjére az asztalt és kilép a gyárból. Önálló vállalkozásba kezd a lakótelepen, mint falfúró kisiparos. Így jut be könnyűvérű szomszédasszonya lakásába is, akivel szexuális viszonyt kezd és miatta a családját is otthagyja.
    Extrák:
    magyar felirat
    Ajánló (1:41)
    Média információ:
    Video:
    Kodek: MPEG-1/2 Video (mpgv)
    Felbontás: 720x576
    Képkockasebesség: 25
    Képformátum: 1.37:1 (4:3)
    Hang:
    Kodek: A52 Audio (aka AC3) (a52)
    Csatornák: 3F2R/LFE
    Mintavételi frekvencia: 48000 Hz
    Bitsebesség: 448 kb/mp
    Formátum: iso
    Méret: 4,16 GB
    Műsoridő: 1:32:31
    (prémium)
    Rejtett tartalom:
    **Rejtett tartalom: A tartalom megjelenítéséhez kattints a 'Tetszik' gombra.**
    [​IMG]
    Formátum: dvdrip/avi
    Méret: 925 MB
    Felbontás: 720x544
    Mintavételi frekvencia: 48000 Hz
    Bitsebesség: 128 kbps
    Műsoridő: 1:32:30
    Részletes média információ:
    Show Spoiler

    I:\Video\19 - Falfúró.avi
    General
    Complete name : I:\Video\19 - Falfúró.avi
    Format : AVI
    Format/Info : Audio Video Interleave
    File size : 924 MiB
    Duration : 1 h 32 min
    Overall bit rate : 1 396 kb/s
    Writing application : VirtualDubMod 1.5.4.1 (build 2178/release)
    Writing library : VirtualDubMod build 2178/release
    Video #0
    ID : 0
    Format : MPEG-4 Visual
    Format profile : Advanced [email protected]
    Format settings, BVOP : 1
    Format settings, QPel : No
    Format settings, GMC : No warppoints
    Format settings, Matrix : Custom
    Codec ID : XVID
    Codec ID/Hint : XviD
    Duration : 1 h 32 min
    Bit rate : 1 260 kb/s
    Width : 720 pixels
    Height : 544 pixels
    Display aspect ratio : 4:3
    Frame rate : 25.000 FPS
    Color space : YUV
    Chroma subsampling : 4:2:0
    Bit depth : 8 bits
    Scan type : Progressive
    Compression mode : Lossy
    Bits/(Pixel*Frame) : 0.129
    Stream size : 834 MiB (90%)
    Writing library : XviD 1.2.1 (UTC 2008-12-04)
    Audio #1
    ID : 1
    Format : MPEG Audio
    Format version : Version 1
    Format profile : Layer 3
    Mode : Joint stereo
    Mode extension : MS Stereo
    Codec ID : 55
    Codec ID/Hint : MP3
    Duration : 1 h 32 min
    Bit rate mode : Constant
    Bit rate : 128 kb/s
    Channel(s) : 2 channels
    Sampling rate : 48.0 kHz
    Compression mode : Lossy
    Stream size : 84.7 MiB (9%)
    Alignment : Aligned on interleaves
    Interleave, duration : 80 ms (2.00 video frames)
    Interleave, preload duration : 504 ms
    Writing library : LAME3.98r
    Encoding settings : -m j -V 4 -q 2 -lowpass 17 -b 128

    Rejtett tartalom:
    **Rejtett tartalom: A tartalom megjelenítéséhez kattints a 'Tetszik' gombra.**
    vagy free
    Rejtett tartalom:
    **Rejtett tartalom: A tartalom megjelenítéséhez kattints a 'Tetszik' gombra.**
     
    Kuttyantó, hegyisas és nandus kedveli ezt.
  7. papadi

    papadi Állandó Tag

    [​IMG]
    A turné
    Magyar filmvígjáték (1993)
    Főszereplők: Eperjes Károly, Törőcsik Mari, Benedek Miklós, Bordán Irén, Ternyák Zoltán, Börcsök Enikő, Bezerédi Zoltán, Cseh Tamás
    Rendezte: Bereményi Géza
    Magyar filmek gyűjteménye 20.
    Fantasy Film, 2007. január 12.
    Tartalom a borítóról:
    Vége az évadnak, közeleg a nyár. A színtársulatból páran úgy gondolják, csinos extrapénzre tehetnek szert, ha 40 nap alatt végigszáguldanak az országon, és lenyomnak 90 előadást. Hogy kemény menet lesz, azt mind sejtik. "Ha szerettek, én végig tudom csinálni." - mondja a társulat sztárja, Tibor (Eperjes Károly). De úgy tűnik, túl hosszú a negyven nap, és főleg a negyven éjszaka, túl zűrös a színészek lelkivilága. Kuszák a viszonyok, hiányzik a szeretet és szorít az idő. Tibor megérzi: ebbe az útba fog beledögleni.
    Extrák:
    magyar felirat
    Interjú Beremányi Géza rendezővel pályafutásáról (22:46)
    Bereményi Géza "A turné" forgatásáról (14:10)
    Bereményi Géza - Teljes rendezői és forgatóókönyvírói filmográfia
    Ajánló (2:31)
    Média információ:
    Video:
    Kodek: MPEG-1/2 Video (mpgv)
    Felbontás: 720x576
    Képkockasebesség: 25
    Képformátum: 1.37:1 (4:3)
    Hang:
    Kodek: A52 Audio (aka AC3) (a52)
    Csatornák: 3F2R/LFE
    Mintavételi frekvencia: 48000 Hz
    Bitsebesség: 448 kb/mp
    Formátum: iso
    Méret: 5,67 GB
    Műsoridő: 1:29:30 (2:08:59)
    (prémium)
    Rejtett tartalom:
    **Rejtett tartalom: A tartalom megjelenítéséhez kattints a 'Tetszik' gombra.**
    [​IMG]
    Formátum: dvdrip/avi
    Méret: 896 MB
    Felbontás: 720x544
    Mintavételi frekvencia: 48000 Hz
    Bitsebesség: 128 kbps
    Műsoridő: 1:29:29
    Részletes média információ:
    Show Spoiler

    I:\Video\20 - A turné.avi
    General
    Complete name : I:\Video\20 - A turné.avi
    Format : AVI
    Format/Info : Audio Video Interleave
    File size : 895 MiB
    Duration : 1 h 29 min
    Overall bit rate : 1 398 kb/s
    Writing application : VirtualDubMod 1.5.4.1 (build 2178/release)
    Writing library : VirtualDubMod build 2178/release
    Video #0
    ID : 0
    Format : MPEG-4 Visual
    Format profile : Advanced [email protected]
    Format settings, BVOP : 1
    Format settings, QPel : No
    Format settings, GMC : No warppoints
    Format settings, Matrix : Custom
    Codec ID : XVID
    Codec ID/Hint : XviD
    Duration : 1 h 29 min
    Bit rate : 1 262 kb/s
    Width : 720 pixels
    Height : 544 pixels
    Display aspect ratio : 4:3
    Frame rate : 25.000 FPS
    Color space : YUV
    Chroma subsampling : 4:2:0
    Bit depth : 8 bits
    Scan type : Progressive
    Compression mode : Lossy
    Bits/(Pixel*Frame) : 0.129
    Stream size : 808 MiB (90%)
    Writing library : XviD 1.2.1 (UTC 2008-12-04)
    Audio #1
    ID : 1
    Format : MPEG Audio
    Format version : Version 1
    Format profile : Layer 3
    Mode : Joint stereo
    Mode extension : MS Stereo
    Codec ID : 55
    Codec ID/Hint : MP3
    Duration : 1 h 29 min
    Bit rate mode : Constant
    Bit rate : 128 kb/s
    Channel(s) : 2 channels
    Sampling rate : 48.0 kHz
    Compression mode : Lossy
    Stream size : 81.9 MiB (9%)
    Alignment : Aligned on interleaves
    Interleave, duration : 80 ms (2.00 video frames)
    Interleave, preload duration : 504 ms
    Writing library : LAME3.98r
    Encoding settings : -m j -V 4 -q 2 -lowpass 17 -b 128

    Rejtett tartalom:
    **Rejtett tartalom: A tartalom megjelenítéséhez kattints a 'Tetszik' gombra.**
    vagy free
    Rejtett tartalom:
    **Rejtett tartalom: A tartalom megjelenítéséhez kattints a 'Tetszik' gombra.**
     
    hegyisas és nandus kedveli ezt.
  8. papadi

    papadi Állandó Tag

    [​IMG]
    Ripacsok
    Magyar film (1980)
    Főszereplők: Garas Dezső, Kern András, Udvaros Dorottya, Bárdi György, Major Tamás, Temessy Hédi
    Rendezte: Sándor Pál
    Magyar filmek gyűjteménye 21.
    Fantasy Film, 2006 október 26.
    Tartalom a borítóról:
    Stock Ede (Garas Dezső) és Salamon András (Kern András) már évek óta ugyanazt a giccses kuplét adja elő estéről estére a "légnadrágban". András azonban hirtelen gondol egyet és lecseréli Edét Bogárkára (Udvaros Dorottya), a főnök szeretőjére. A csere nem váltja be András reményeit, az élet Bogárkával sem boldogabb. Ede is szenved, olyannyira, hogy kétszer is András életére tör. Családjuk és barátaik aggódva figyelik, ahogy kapcsolatuk elmérgesedik, de tehetetlenek. A szakítás mindkettőjüket rákényszeríti, hogy végiggondolják, mit tartanak igazán fontosnak az életben, és végül az elcsépelt dal is új tartalommal telik meg...
    Extrák:
    angol és magyar felirat
    Exluzív interjú Sándor Pállal pályájáról, filmjeiről (17:32)
    Sándor Pál a Ripacsok forgatásáról (12:55)
    Sándor Pál életrajz és teljes filmográfia
    Ajánló (2:31)
    Média információ:
    Video:
    Kodek: MPEG-1/2 Video (mpgv)
    Felbontás: 720x576
    Képkockasebesség: 25
    Képformátum: 1.37:1 (4:3)
    Hang:
    Kodek: A52 Audio (aka AC3) (a52)
    Csatornák: 3F2R/LFE
    Mintavételi frekvencia: 48000 Hz
    Bitsebesség: 448 kb/mp
    Formátum: iso
    Méret: 5,71 GB
    Műsoridő: 1:29:21 (2:02:23)
    (prémium)
    Rejtett tartalom:
    **Rejtett tartalom: A tartalom megjelenítéséhez kattints a 'Tetszik' gombra.**
    [​IMG]
    Formátum: dvdrip/avi
    Méret: 895 MB
    Felbontás: 720x544
    Mintavételi frekvencia: 48000 Hz
    Bitsebesség: 128 kbps
    Műsoridő: 1:29:20
    Részletes média információ:
    Show Spoiler

    I:\Video\21 - Ripacsok.avi
    General
    Complete name : I:\Video\21 - Ripacsok.avi
    Format : AVI
    Format/Info : Audio Video Interleave
    File size : 893 MiB
    Duration : 1 h 29 min
    Overall bit rate : 1 398 kb/s
    Writing application : VirtualDubMod 1.5.4.1 (build 2178/release)
    Writing library : VirtualDubMod build 2178/release
    Video #0
    ID : 0
    Format : MPEG-4 Visual
    Format profile : Advanced [email protected]
    Format settings, BVOP : 1
    Format settings, QPel : No
    Format settings, GMC : No warppoints
    Format settings, Matrix : Custom
    Codec ID : XVID
    Codec ID/Hint : XviD
    Duration : 1 h 29 min
    Bit rate : 1 263 kb/s
    Width : 720 pixels
    Height : 544 pixels
    Display aspect ratio : 4:3
    Frame rate : 25.000 FPS
    Color space : YUV
    Chroma subsampling : 4:2:0
    Bit depth : 8 bits
    Scan type : Progressive
    Compression mode : Lossy
    Bits/(Pixel*Frame) : 0.129
    Stream size : 807 MiB (90%)
    Writing library : XviD 1.2.1 (UTC 2008-12-04)
    Audio #1
    ID : 1
    Format : MPEG Audio
    Format version : Version 1
    Format profile : Layer 3
    Mode : Joint stereo
    Mode extension : MS Stereo
    Codec ID : 55
    Codec ID/Hint : MP3
    Duration : 1 h 29 min
    Bit rate mode : Constant
    Bit rate : 128 kb/s
    Channel(s) : 2 channels
    Sampling rate : 48.0 kHz
    Compression mode : Lossy
    Stream size : 81.8 MiB (9%)
    Alignment : Aligned on interleaves
    Interleave, duration : 80 ms (2.00 video frames)
    Interleave, preload duration : 504 ms
    Writing library : LAME3.98r
    Encoding settings : -m j -V 4 -q 2 -lowpass 17 -b 128

    Rejtett tartalom:
    **Rejtett tartalom: A tartalom megjelenítéséhez kattints a 'Tetszik' gombra.**
    vagy free
    Rejtett tartalom:
    **Rejtett tartalom: A tartalom megjelenítéséhez kattints a 'Tetszik' gombra.**
     
    hegyisas, Acsai-Varga Sándor és nandus kedveli ezt.
  9. papadi

    papadi Állandó Tag

    [​IMG]
    Kopaszkutya
    Magyar zenés film (1981)
    Főszereplők: Deák „Bill” Gyula, Földes László (Hobo), Kőrös József, Mareczky István, Pálmai Zoltán, Póka Egon, Schuszter Lóránt, Szász László, Szénich János
    Rendezte: Szomjas György
    Magyar filmek gyűjteménye 22.
    Fantasy Film, 2006 október 26.
    Tartalom a borítóról:
    "Le kell menni kutyába, légy a kutyák királya!" - üvölti a mikrofonba Bill és Hobo többezer tabáni rajongó előtt. Hosszú volt az út, amíg a lepukkant vidéki művházakban turnézó, feldolgozásokat előadó zenekarból igazi rockbanda lett. A menedzser (Schuszter Lóránt) vérző orral hallgatja a "Hosszúlábú asszonyt", miután a banda tagjai a koncert előtt módszeresen végigverték, mert nem jött ki a tévé. Miközben mégis csak neki köszönhető a siker, igaz, erre már senki sem emlékszik…
    Szomjas György kultuszfilmje igazi magyar rock-karriertörténet, a 80-as évek életérzésének tökéletes lenyomata, és nem utolsósorban a legjobb zenés filmek egyike, melyben a Hobo Blues Band mellett a korszak legnagyobb zenekarainak dalai, (P. Mobil, Omega, Rolling Stones) is elhangzanak.

    Extrák:
    angol és magyar felirat
    Privát rocktörténet: Hobo Blues Band (A Filmmúzeum dokumentumfilmje) (59:06)
    Szomjas György rendezői filmográfia
    Ajánló (2:31)
    [​IMG]
    Privát rocktörténet 10.: Hobo Blues Band
    Magyar dokumentumfilm (2006)
    Műsorvezető: Veress Dóra, Narrátor: Magyar Kinga
    Szerkesztő-rendező: Gellért Gábor
    Média információ:
    Video:
    Kodek: MPEG-1/2 Video (mpgv)
    Felbontás: 720x576
    Képkockasebesség: 25
    Képformátum: 1.37:1 (4:3)
    Hang:
    Kodek: A52 Audio (aka AC3) (a52)
    Csatornák: 3F2R/LFE
    Mintavételi frekvencia: 48000 Hz
    Bitsebesség: 448 kb/mp
    Formátum: iso
    Méret: 7,86 GB
    Műsoridő: 1:35:25 (2:37:03)
    (prémium)
    Rejtett tartalom:
    **Rejtett tartalom: A tartalom megjelenítéséhez kattints a 'Tetszik' gombra.**
    [​IMG]
    Formátum: dvdrip/avi
    Méret: 953 MB
    Felbontás: 720x544
    Mintavételi frekvencia: 48000 Hz
    Bitsebesség: 128 kbps
    Műsoridő: 1:35:25
    Részletes média információ:
    Show Spoiler

    I:\Video\22a - Kopaszkutya.avi
    General
    Complete name : I:\Video\22a - Kopaszkutya.avi
    Format : AVI
    Format/Info : Audio Video Interleave
    File size : 952 MiB
    Duration : 1 h 35 min
    Overall bit rate : 1 395 kb/s
    Writing application : VirtualDubMod 1.5.4.1 (build 2178/release)
    Writing library : VirtualDubMod build 2178/release
    Video #0
    ID : 0
    Format : MPEG-4 Visual
    Format profile : Advanced [email protected]
    Format settings, BVOP : 1
    Format settings, QPel : No
    Format settings, GMC : No warppoints
    Format settings, Matrix : Custom
    Codec ID : XVID
    Codec ID/Hint : XviD
    Duration : 1 h 35 min
    Bit rate : 1 259 kb/s
    Width : 720 pixels
    Height : 544 pixels
    Display aspect ratio : 4:3
    Frame rate : 25.000 FPS
    Color space : YUV
    Chroma subsampling : 4:2:0
    Bit depth : 8 bits
    Scan type : Progressive
    Compression mode : Lossy
    Bits/(Pixel*Frame) : 0.129
    Stream size : 860 MiB (90%)
    Writing library : XviD 1.2.1 (UTC 2008-12-04)
    Audio #1
    ID : 1
    Format : MPEG Audio
    Format version : Version 1
    Format profile : Layer 3
    Mode : Joint stereo
    Codec ID : 55
    Codec ID/Hint : MP3
    Duration : 1 h 35 min
    Bit rate mode : Constant
    Bit rate : 128 kb/s
    Channel(s) : 2 channels
    Sampling rate : 48.0 kHz
    Compression mode : Lossy
    Stream size : 87.4 MiB (9%)
    Alignment : Aligned on interleaves
    Interleave, duration : 80 ms (2.00 video frames)
    Interleave, preload duration : 504 ms
    Writing library : LAME3.98r
    Encoding settings : -m j -V 4 -q 2 -lowpass 17 -b 128

    Rejtett tartalom:
    **Rejtett tartalom: A tartalom megjelenítéséhez kattints a 'Tetszik' gombra.**
    vagy free
    Rejtett tartalom:
    **Rejtett tartalom: A tartalom megjelenítéséhez kattints a 'Tetszik' gombra.**
    A film extrája:
    [​IMG]
    Privát rocktörténet 10.: Hobo Blues Band
    Magyar dokumentumfilm (2006)
    Műsorvezető: Veress Dóra, Narrátor: Magyar Kinga
    Szerkesztő-rendező: Gellért Gábor
    [​IMG]
    Formátum: dvdrip/avi
    Méret: 692 MB
    Felbontás: 720x482
    Mintavételi frekvencia: 48000 Hz
    Bitsebesség: 192 kbps
    Műsoridő: 59:06
    Részletes média információ:
    Show Spoiler

    I:\Video\22b - Privát rocktörténet 10 - Hobo Blues Band.avi
    General
    Complete name : I:\Video\22b - Privát rocktörténet 10 - Hobo Blues Band.avi
    Format : AVI
    Format/Info : Audio Video Interleave
    File size : 691 MiB
    Duration : 59 min
    Overall bit rate : 1 635 kb/s
    Writing application : VirtualDubMod 1.5.4.1 (build 2178/release)
    Writing library : VirtualDubMod build 2178/release
    Video #0
    ID : 0
    Format : MPEG-4 Visual
    Format profile : Advanced [email protected]
    Format settings, BVOP : 1
    Format settings, QPel : No
    Format settings, GMC : No warppoints
    Format settings, Matrix : Custom
    Codec ID : XVID
    Codec ID/Hint : XviD
    Duration : 59 min
    Bit rate : 1 435 kb/s
    Width : 720 pixels
    Height : 432 pixels
    Display aspect ratio : 5:3
    Frame rate : 25.000 FPS
    Color space : YUV
    Chroma subsampling : 4:2:0
    Bit depth : 8 bits
    Scan type : Progressive
    Compression mode : Lossy
    Bits/(Pixel*Frame) : 0.185
    Stream size : 607 MiB (88%)
    Writing library : XviD 1.2.1 (UTC 2008-12-04)
    Audio #1
    ID : 1
    Format : MPEG Audio
    Format version : Version 1
    Format profile : Layer 3
    Mode : Joint stereo
    Mode extension : MS Stereo
    Codec ID : 55
    Codec ID/Hint : MP3
    Duration : 59 min
    Bit rate mode : Constant
    Bit rate : 192 kb/s
    Channel(s) : 2 channels
    Sampling rate : 48.0 kHz
    Compression mode : Lossy
    Stream size : 81.2 MiB (12%)
    Alignment : Aligned on interleaves
    Interleave, duration : 80 ms (2.00 video frames)
    Interleave, preload duration : 504 ms
    Writing library : LAME3.98r
    Encoding settings : -m j -V 4 -q 2 -lowpass 18.6 -b 192

    Rejtett tartalom:
    **Rejtett tartalom: A tartalom megjelenítéséhez kattints a 'Tetszik' gombra.**
    vagy free
    Rejtett tartalom:
    **Rejtett tartalom: A tartalom megjelenítéséhez kattints a 'Tetszik' gombra.**
     
    hegyisas és nandus kedveli ezt.
  10. papadi

    papadi Állandó Tag

    [​IMG]
    Talpuk alatt fütyül a szél
    Magyar betyárfilm (1976)
    Főszereplők: Djoko Rosic (Besaenyei Ferenc), Bujtor István, Vladan Holec (Cserhalmi György)
    Rendezte: Szomjas György
    Magyar filmek gyűjteménye 23.
    Fantasy Film, 2007. január 12.
    Tartalom a borítóról:
    1837-ben járunk. Karcag városának elöljárói határtalan pénzéhségükben habozás nélkül feldúlják a város melletti, érintetlen pusztákat és megzavarják az ott legeltető pásztorok ősi életvitelét. Farkas Csapó Gyurka, a hírhedt betyár képes lenne megvédeni a puszta rendjét, de vajon kiállhatnak-e egy tömlöcből szökött rablógyilkos mellett a pusztaiak? Különösen nehéz kérdés ez Mérges Balázs csendbiztos számára, aki Gyurka legfőbb ellensége - mégis egyetlen igaz barátja. Egészen addig, míg egy betyárvezér meggyilkolását nem varrják a nyakába. Vérdíjat tűznek ki a fejére, s miután leszámolt ellenfelével, a pásztorok juttatják Gyurkát csendőrkézre és bitófára.
    Extrák:
    angol és magyar felirat
    Ajánló (1:41)
    Média információ:
    Video:
    Kodek: MPEG-1/2 Video (mpgv)
    Felbontás: 720x576
    Képkockasebesség: 25
    Képformátum: 1.37:1 (4:3)
    Hang:
    Kodek: A52 Audio (aka AC3) (a52)
    Csatornák: 3F2R/LFE
    Mintavételi frekvencia: 48000 Hz
    Bitsebesség: 448 kb/mp
    Formátum: iso
    Méret: 4,04 GB
    Műsoridő: 1:27:17
    (prémium)
    Rejtett tartalom:
    **Rejtett tartalom: A tartalom megjelenítéséhez kattints a 'Tetszik' gombra.**
    [​IMG]
    Formátum: dvdrip/avi
    Méret: 871 MB
    Felbontás: 720x544
    Mintavételi frekvencia: 48000 Hz
    Bitsebesség: 128 kbps
    Műsoridő: 1:27:17
    Részletes média információ:
    Show Spoiler

    I:\Video\23 - Talpuk alatt fütyül a szél.avi
    General
    Complete name : I:\Video\23 - Talpuk alatt fütyül a szél.avi
    Format : AVI
    Format/Info : Audio Video Interleave
    File size : 870 MiB
    Duration : 1 h 27 min
    Overall bit rate : 1 394 kb/s
    Writing application : VirtualDubMod 1.5.4.1 (build 2178/release)
    Writing library : VirtualDubMod build 2178/release
    Video #0
    ID : 0
    Format : MPEG-4 Visual
    Format profile : Advanced [email protected]
    Format settings, BVOP : 1
    Format settings, QPel : No
    Format settings, GMC : No warppoints
    Format settings, Matrix : Custom
    Codec ID : XVID
    Codec ID/Hint : XviD
    Duration : 1 h 27 min
    Bit rate : 1 259 kb/s
    Width : 720 pixels
    Height : 544 pixels
    Display aspect ratio : 4:3
    Frame rate : 25.000 FPS
    Color space : YUV
    Chroma subsampling : 4:2:0
    Bit depth : 8 bits
    Scan type : Progressive
    Compression mode : Lossy
    Bits/(Pixel*Frame) : 0.129
    Stream size : 786 MiB (90%)
    Writing library : XviD 1.2.1 (UTC 2008-12-04)
    Audio #1
    ID : 1
    Format : MPEG Audio
    Format version : Version 1
    Format profile : Layer 3
    Mode : Joint stereo
    Mode extension : MS Stereo
    Codec ID : 55
    Codec ID/Hint : MP3
    Duration : 1 h 27 min
    Bit rate mode : Constant
    Bit rate : 128 kb/s
    Channel(s) : 2 channels
    Sampling rate : 48.0 kHz
    Compression mode : Lossy
    Stream size : 79.9 MiB (9%)
    Alignment : Aligned on interleaves
    Interleave, duration : 80 ms (2.00 video frames)
    Interleave, preload duration : 504 ms
    Writing library : LAME3.98r
    Encoding settings : -m j -V 4 -q 2 -lowpass 17 -b 128

    Rejtett tartalom:
    **Rejtett tartalom: A tartalom megjelenítéséhez kattints a 'Tetszik' gombra.**
    vagy free
    Rejtett tartalom:
    **Rejtett tartalom: A tartalom megjelenítéséhez kattints a 'Tetszik' gombra.**
     
    hegyisas, aaaaaaaaaaaaaaaa és nandus kedveli ezt.
  11. papadi

    papadi Állandó Tag

    [​IMG]
    Szerencsés Dániel
    Magyar filmdráma (1982)
    Főszereplők: Törőcsik Mari, Garas Dezső, Margittay Ági, Major Tamás, Bodrogi Gyula, Kern András, Rudolf Péter, Zsótér Sándor
    Rendezte: Sándor Pál
    Magyar filmek gyűjteménye 24.
    Fantasy Film, 2006. október 26.
    Tartalom a borítóról:
    Dani (Rudolf Péter) átlagos budapesti tizenéves a Garai utcából, akinek szerelme 1956 telén családjával együtt disszidál. Dani gondolkodás nélkül a szép Mariann után siet Ausztria felé, az egyik házban lakó fiú, Gyuri társaságában. Disszidensekkel és besúgókkal zsúfolásig tömött vonatuk nemsokára meg is érkezik a határ menti szállodához, ahol a menekülőknek be kell várni vezetőjüket. A szállodában várakozással töltött órák drámai hangulatban telnek. Mindenki számára eljött az utolsó lehetőség, hogy végiggondolja, megy-e vagy marad, hol és kivel éli le életét, s akar-e élni egyáltalán. A döntés csöppet sem könnyű, mert a történelem viharában szinte senkinek sem sikerül talpon maradnia, akármelyik oldalon is áll. Ráadásul az idősebbek éppoly tanácstalanul néznek a jövő elébe, mint a fiatalok.
    Extrák:
    magyar felirat
    Interjú Sándor Pál rendezővel pályafutásáról (17:41)
    Interjú Sándor Pállal a filmről (25:15)
    Interjú Rudolf Péterrel (20:54)
    Interjú Zsótér Sándorral (29:37)
    Ajánló (2:31)
    Média információ:
    Video:
    Kodek: MPEG-1/2 Video (mpgv)
    Felbontás: 720x576
    Képkockasebesség: 25
    Képformátum: 1.37:1 (4:3)
    Hang:
    Kodek: A52 Audio (aka AC3) (a52)
    Csatornák: 3F2R/LFE
    Mintavételi frekvencia: 48000 Hz
    Bitsebesség: 448 kb/mp
    Formátum: iso
    Méret: 7,77 GB
    Műsoridő: 1:28:33 (3:04:31)
    (prémium)
    Rejtett tartalom:
    **Rejtett tartalom: A tartalom megjelenítéséhez kattints a 'Tetszik' gombra.**
    [​IMG]
    Formátum: dvdrip/avi
    Méret: 884 MB
    Felbontás: 720x544
    Mintavételi frekvencia: 48000 Hz
    Bitsebesség: 128 kbps
    Műsoridő: 1:28:32
    Részletes média információ:
    Show Spoiler

    I:\Video\24 - Szerencsés Dániel.avi
    General
    Complete name : I:\Video\24 - Szerencsés Dániel.avi
    Format : AVI
    Format/Info : Audio Video Interleave
    File size : 883 MiB
    Duration : 1 h 28 min
    Overall bit rate : 1 394 kb/s
    Writing application : VirtualDubMod 1.5.4.1 (build 2178/release)
    Writing library : VirtualDubMod build 2178/release
    Video #0
    ID : 0
    Format : MPEG-4 Visual
    Format profile : Advanced [email protected]
    Format settings, BVOP : 1
    Format settings, QPel : No
    Format settings, GMC : No warppoints
    Format settings, Matrix : Custom
    Codec ID : XVID
    Codec ID/Hint : XviD
    Duration : 1 h 28 min
    Bit rate : 1 259 kb/s
    Width : 720 pixels
    Height : 544 pixels
    Display aspect ratio : 4:3
    Frame rate : 25.000 FPS
    Color space : YUV
    Chroma subsampling : 4:2:0
    Bit depth : 8 bits
    Scan type : Progressive
    Compression mode : Lossy
    Bits/(Pixel*Frame) : 0.129
    Stream size : 797 MiB (90%)
    Writing library : XviD 1.2.1 (UTC 2008-12-04)
    Audio #1
    ID : 1
    Format : MPEG Audio
    Format version : Version 1
    Format profile : Layer 3
    Mode : Joint stereo
    Mode extension : MS Stereo
    Codec ID : 55
    Codec ID/Hint : MP3
    Duration : 1 h 28 min
    Bit rate mode : Constant
    Bit rate : 128 kb/s
    Channel(s) : 2 channels
    Sampling rate : 48.0 kHz
    Compression mode : Lossy
    Stream size : 81.1 MiB (9%)
    Alignment : Aligned on interleaves
    Interleave, duration : 80 ms (2.00 video frames)
    Interleave, preload duration : 504 ms
    Writing library : LAME3.98r
    Encoding settings : -m j -V 4 -q 2 -lowpass 17 -b 128

    Rejtett tartalom:
    **Rejtett tartalom: A tartalom megjelenítéséhez kattints a 'Tetszik' gombra.**
    vagy free
    Rejtett tartalom:
    **Rejtett tartalom: A tartalom megjelenítéséhez kattints a 'Tetszik' gombra.**
     
    hegyisas és nandus kedveli ezt.
  12. papadi

    papadi Állandó Tag

    [​IMG]
    Uramisten
    Magyar film (1984)
    Főszereplők: Feleki Kamill, Eperjes Károly, Dörner György, Csákányi László, Garas Dezső, Tábori Nóra, Nyakó Júlia, Papp Vera, Tarján Györgyi, Ujlaki Dénes
    Rendezte: Gárdos Péter
    Magyar filmek gyűjteménye 25.
    Fantasy Film, 2006. október 26.
    Tartalom a borítóról:
    Sajek Oszkár (Eperjes Károly) cirkuszi akrobata, egy szerencsétlen baleset következtében kénytelen abbahagyni hordós ugrómutatványát. Új számot kell keresnie, és ő tudja is, mihez volna kedve. Az öreg szabaduló művész, Binder Lipót (Feleki Kamill) hajdani attrakcióját, "A Jégbe Zárt Ember" trükkjét szeretné megvásárolni. Egyetlen vágya, hogy ő is képes legyen órákat tölteni levegő nélkül, egy fagyos jégtömbbe zárva. E titok megfejtésére tesz fel mindent, ami az életben számára fontos. Lipi bácsi azonban makacs ember, ráadásul kegyetlen is. Kiélvezi a fiatalember rajongó érdeklődését, megalázkodó könyörgését, miközben esze ágában sincs elárulni a trükköt. Vajon ez a végletekig hiú ember a sírba is magával viszi a világszám titkát?
    Extrák:
    angol és magyar felirat
    Exluzív interjú Gárdos Péterrel pályájáról, filmjeiről (14:34)
    Gárdos Péter az Uramisten! forgatásáról (
    Gárdos Péter filmográfia
    Ajánló (2:31)
    Média információ:
    Video:
    Kodek: MPEG-1/2 Video (mpgv)
    Felbontás: 720x576
    Képkockasebesség: 25
    Képformátum: 1.37:1 (4:3)
    Hang:
    Kodek: A52 Audio (aka AC3) (a52)
    Csatornák: 3F2R/LFE
    Mintavételi frekvencia: 48000 Hz
    Bitsebesség: 448 kb/mp
    Formátum: iso
    Méret: 6,04 GB
    Műsoridő: 1:29:41 (2:09:49)
    (prémium)
    Rejtett tartalom:
    **Rejtett tartalom: A tartalom megjelenítéséhez kattints a 'Tetszik' gombra.**
    [​IMG]
    Formátum: dvdrip/avi
    Méret: 897 MB
    Felbontás: 720x544
    Mintavételi frekvencia: 48000 Hz
    Bitsebesség: 128 kbps
    Műsoridő: 1:29:40
    Részletes média információ:
    Show Spoiler

    I:\Video\25 - Uramisten.avi
    General
    Complete name : I:\Video\25 - Uramisten.avi
    Format : AVI
    Format/Info : Audio Video Interleave
    File size : 896 MiB
    Duration : 1 h 29 min
    Overall bit rate : 1 397 kb/s
    Writing application : VirtualDubMod 1.5.4.1 (build 2178/release)
    Writing library : VirtualDubMod build 2178/release
    Video #0
    ID : 0
    Format : MPEG-4 Visual
    Format profile : Advanced [email protected]
    Format settings, BVOP : 1
    Format settings, QPel : No
    Format settings, GMC : No warppoints
    Format settings, Matrix : Custom
    Codec ID : XVID
    Codec ID/Hint : XviD
    Duration : 1 h 29 min
    Bit rate : 1 261 kb/s
    Width : 720 pixels
    Height : 544 pixels
    Display aspect ratio : 4:3
    Frame rate : 25.000 FPS
    Color space : YUV
    Chroma subsampling : 4:2:0
    Bit depth : 8 bits
    Scan type : Progressive
    Compression mode : Lossy
    Bits/(Pixel*Frame) : 0.129
    Stream size : 809 MiB (90%)
    Writing library : XviD 1.2.1 (UTC 2008-12-04)
    Audio #1
    ID : 1
    Format : MPEG Audio
    Format version : Version 1
    Format profile : Layer 3
    Mode : Joint stereo
    Mode extension : MS Stereo
    Codec ID : 55
    Codec ID/Hint : MP3
    Duration : 1 h 29 min
    Bit rate mode : Constant
    Bit rate : 128 kb/s
    Channel(s) : 2 channels
    Sampling rate : 48.0 kHz
    Compression mode : Lossy
    Stream size : 82.1 MiB (9%)
    Alignment : Aligned on interleaves
    Interleave, duration : 80 ms (2.00 video frames)
    Interleave, preload duration : 504 ms
    Writing library : LAME3.98r
    Encoding settings : -m j -V 4 -q 2 -lowpass 17 -b 128

    Rejtett tartalom:
    **Rejtett tartalom: A tartalom megjelenítéséhez kattints a 'Tetszik' gombra.**
    vagy free
    Rejtett tartalom:
    **Rejtett tartalom: A tartalom megjelenítéséhez kattints a 'Tetszik' gombra.**
     
    hegyisas és nandus kedveli ezt.
  13. papadi

    papadi Állandó Tag

    [​IMG]
    Eldorádó
    Magyar filmdráma (1988)
    Főszereplők: Eperjes Károly, Pogány Judit, Eszenyi Enikő, Andorai Péter, Balkay Géza
    Rendezte: Bereményi Géza
    Magyar filmek gyűjteménye 26.
    Fantasy Film, 2006. október 26.
    Tartalom a borítóról:
    1945. Monori Sándor (Eperjes Károly) a Teleki téri piac királya, akit mindenki Sanyi bácsiként tisztel. Ő az, aki fittyet hány arra, milyen a politikai rendszer, hiszen számára egyetlen törvény létezik: arannyal mindent és mindenkit meg lehet vásárolni. Amikor lánya terhesen tér haza Bécsből, Monori két marék ékszer árán szabadul meg vejétől, hogy születendő unokáját maga nevelhesse fel, és megtanítsa arra, hogyan lehet ebben az országban túlélni - akár egy halálosnak hitt betegséget is. 1956-ban aztán mindent elkövet, hogy családját külföldre juttassa, de úgy tűnik, ekkor már az arany is kevés a túléléshez...
    Extrák:
    magyar felirat
    Ajánló (1:41)
    Média információ:
    Video:
    Kodek: MPEG-1/2 Video (mpgv)
    Felbontás: 720x576
    Képkockasebesség: 25
    Képformátum: 1.37:1 (4:3)
    Hang:
    Kodek: A52 Audio (aka AC3) (a52)
    Csatornák: 3F2R/LFE
    Mintavételi frekvencia: 48000 Hz
    Bitsebesség: 448 kb/mp
    Formátum: iso
    Méret: 4,06 GB
    Műsoridő: 1:39:07
    (prémium)
    Rejtett tartalom:
    **Rejtett tartalom: A tartalom megjelenítéséhez kattints a 'Tetszik' gombra.**
    [​IMG]
    Formátum: dvdrip/avi
    Méret: 991 MB
    Felbontás: 720x544
    Mintavételi frekvencia: 48000 Hz
    Bitsebesség: 128 kbps
    Műsoridő: 1:39:06
    Részletes média információ:
    Show Spoiler

    I:\Video\26 - Eldorádó.avi
    General
    Complete name : I:\Video\26 - Eldorádó.avi
    Format : AVI
    Format/Info : Audio Video Interleave
    File size : 990 MiB
    Duration : 1 h 39 min
    Overall bit rate : 1 397 kb/s
    Writing application : VirtualDubMod 1.5.4.1 (build 2178/release)
    Writing library : VirtualDubMod build 2178/release
    Video #0
    ID : 0
    Format : MPEG-4 Visual
    Format profile : Advanced [email protected]
    Format settings, BVOP : 1
    Format settings, QPel : No
    Format settings, GMC : No warppoints
    Format settings, Matrix : Custom
    Codec ID : XVID
    Codec ID/Hint : XviD
    Duration : 1 h 39 min
    Bit rate : 1 262 kb/s
    Width : 720 pixels
    Height : 544 pixels
    Display aspect ratio : 4:3
    Frame rate : 25.000 FPS
    Color space : YUV
    Chroma subsampling : 4:2:0
    Bit depth : 8 bits
    Scan type : Progressive
    Compression mode : Lossy
    Bits/(Pixel*Frame) : 0.129
    Stream size : 894 MiB (90%)
    Writing library : XviD 1.2.1 (UTC 2008-12-04)
    Audio #1
    ID : 1
    Format : MPEG Audio
    Format version : Version 1
    Format profile : Layer 3
    Mode : Joint stereo
    Mode extension : MS Stereo
    Codec ID : 55
    Codec ID/Hint : MP3
    Duration : 1 h 39 min
    Bit rate mode : Constant
    Bit rate : 128 kb/s
    Channel(s) : 2 channels
    Sampling rate : 48.0 kHz
    Compression mode : Lossy
    Stream size : 90.7 MiB (9%)
    Alignment : Aligned on interleaves
    Interleave, duration : 80 ms (2.00 video frames)
    Interleave, preload duration : 504 ms
    Writing library : LAME3.98r
    Encoding settings : -m j -V 4 -q 2 -lowpass 17 -b 128

    Rejtett tartalom:
    **Rejtett tartalom: A tartalom megjelenítéséhez kattints a 'Tetszik' gombra.**
    vagy free
    Rejtett tartalom:
    **Rejtett tartalom: A tartalom megjelenítéséhez kattints a 'Tetszik' gombra.**
     
  14. papadi

    papadi Állandó Tag

    [​IMG]
    Szamárköhögés
    Magyar tragikomédia (1987)
    Főszereplők: Törőcsik Mari, Garas Dezső, Hernádi Judit, Tóth Marcell, Kárász Eszter
    Rendezte: Gárdos Péter
    Magyar filmek gyűjteménye 27.
    Fantasy Film, 2006. október 26.
    Tartalom a borítóról:
    Tomi és Annamari családjának történetén keresztül 1956 őszének eseményei elevenednek meg Gárdos Péter filmjében, s a gyerekek elbeszéléséből érzékelhetővé válik számunkra a kor hangulata. A gyerekek számára különös egyveleget alkot az öröm, hogy nem kell iskolába menni és a döbbenet, hogy átlőtték a kenyeret, amit a nagymama hozott. Az izgalom, hogy másoknál lehet aludni és a rémület, amikor holtan találják a portást az iskolában. Mindez örök nyomot hagy a testvérek lelkében, akik csak azért maradtak Magyarországon, mert Annamari éppen szamárköhögés-gyanús volt abban a történelmi pillanatban, amikor el lehetett volna menni innen...
    Extrák:
    angol és magyar felirat
    Ajánló (1:41)
    Média információ:
    Video:
    Kodek: MPEG-1/2 Video (mpgv)
    Felbontás: 720x576
    Képkockasebesség: 25
    Képformátum: 1.37:1 (4:3)
    Hang:
    Kodek: A52 Audio (aka AC3) (a52)
    Csatornák: 3F2R/LFE
    Mintavételi frekvencia: 48000 Hz
    Bitsebesség: 448 kb/mp
    Formátum: iso
    Méret: 4,05 GB
    Műsoridő: 1:26:02
    (prémium)
    Rejtett tartalom:
    **Rejtett tartalom: A tartalom megjelenítéséhez kattints a 'Tetszik' gombra.**
    [​IMG]
    Formátum: dvdrip/avi
    Méret: 860 MB
    Felbontás: 720x544
    Mintavételi frekvencia: 48000 Hz
    Bitsebesség: 128 kbps
    Műsoridő: 1:26:01
    Részletes média információ:
    Show Spoiler

    I:\Video\27 - Szamárköhögés.avi
    General
    Complete name : I:\Video\27 - Szamárköhögés.avi
    Format : AVI
    Format/Info : Audio Video Interleave
    File size : 859 MiB
    Duration : 1 h 26 min
    Overall bit rate : 1 396 kb/s
    Writing application : VirtualDubMod 1.5.4.1 (build 2178/release)
    Writing library : VirtualDubMod build 2178/release
    Video #0
    ID : 0
    Format : MPEG-4 Visual
    Format profile : Advanced [email protected]
    Format settings, BVOP : 1
    Format settings, QPel : No
    Format settings, GMC : No warppoints
    Format settings, Matrix : Custom
    Codec ID : XVID
    Codec ID/Hint : XviD
    Duration : 1 h 26 min
    Bit rate : 1 261 kb/s
    Width : 720 pixels
    Height : 544 pixels
    Display aspect ratio : 4:3
    Frame rate : 25.000 FPS
    Color space : YUV
    Chroma subsampling : 4:2:0
    Bit depth : 8 bits
    Scan type : Progressive
    Compression mode : Lossy
    Bits/(Pixel*Frame) : 0.129
    Stream size : 776 MiB (90%)
    Writing library : XviD 1.2.1 (UTC 2008-12-04)
    Audio #1
    ID : 1
    Format : MPEG Audio
    Format version : Version 1
    Format profile : Layer 3
    Mode : Joint stereo
    Mode extension : MS Stereo
    Codec ID : 55
    Codec ID/Hint : MP3
    Duration : 1 h 26 min
    Bit rate mode : Constant
    Bit rate : 128 kb/s
    Channel(s) : 2 channels
    Sampling rate : 48.0 kHz
    Compression mode : Lossy
    Stream size : 78.8 MiB (9%)
    Alignment : Aligned on interleaves
    Interleave, duration : 80 ms (2.00 video frames)
    Interleave, preload duration : 504 ms
    Writing library : LAME3.98r
    Encoding settings : -m j -V 4 -q 2 -lowpass 17 -b 128

    Rejtett tartalom:
    **Rejtett tartalom: A tartalom megjelenítéséhez kattints a 'Tetszik' gombra.**
    vagy free
    Rejtett tartalom:
    **Rejtett tartalom: A tartalom megjelenítéséhez kattints a 'Tetszik' gombra.**
     
    agyabugya, Kuttyantó és nandus kedveli ezt.
  15. papadi

    papadi Állandó Tag

    [​IMG]
    Régi idők focija
    Magyar vígjáték (1973)
    Főszereplők: Garas Dezső, Major Tamás, Márkus László, Temessy Hédi, Esztergályos Cecilia, Szabó Gabriella, Péter Gizi, Kern András, Vogt Károly, Benkóczi Zoltán, Verebes István
    Rendezte: Sándor Pál
    Magyar filmek gyűjteménye 28.
    Fantasy Film, 2006. október 26.
    Tartalom a borítóról:.
    Mert kell egy csapat! Minarik Ede, a mosodás él-hal a fociért és saját csapatáért, a Csabagyöngye SC-ért. A botcsinálta menedzser elsődleges célja, hogy bejussanak az első ligába és ennek érdekében hajlandó feláldozni mosodáját, összes pénzét, feleségét, sőt akár az életét is! Jöhetnek végrehajtók és vihetik, amit tudnak, gáncsolhatják gaz edzőtársak elcsábítva legjobb játékosait, Minarik csak megy előre és még az sem rendíti meg, amikor a kulcsmérkőzés előtt csodakapusa elszerződik.
    Extrák:
    angol és magyar felirat
    Ajánló (1:41)
    Média információ:
    Video:
    Kodek: MPEG-1/2 Video (mpgv)
    Felbontás: 720x576
    Képkockasebesség: 25
    Képformátum: 1.37:1 (4:3)
    Hang:
    Kodek: A52 Audio (aka AC3) (a52)
    Csatornák: 3F2R/LFE
    Mintavételi frekvencia: 48000 Hz
    Bitsebesség: 448 kb/mp
    Formátum: iso
    Méret: 3,94 GB
    Műsoridő: 1:18:05
    (prémium)
    Rejtett tartalom:
    **Rejtett tartalom: A tartalom megjelenítéséhez kattints a 'Tetszik' gombra.**
    [​IMG]
    Formátum: dvdrip/avi
    Méret: 781 MB
    Felbontás: 720x528
    Mintavételi frekvencia: 48000 Hz
    Bitsebesség: 128 kbps
    Műsoridő: 1:18:04
    Részletes média információ:
    Show Spoiler

    I:\Video\28 - Régi idök focija.avi
    General
    Complete name : I:\Video\28 - Régi idök focija.avi
    Format : AVI
    Format/Info : Audio Video Interleave
    File size : 779 MiB
    Duration : 1 h 18 min
    Overall bit rate : 1 395 kb/s
    Writing application : VirtualDubMod 1.5.4.1 (build 2178/release)
    Writing library : VirtualDubMod build 2178/release
    Video #0
    ID : 0
    Format : MPEG-4 Visual
    Format profile : Advanced [email protected]
    Format settings, BVOP : 1
    Format settings, QPel : No
    Format settings, GMC : No warppoints
    Format settings, Matrix : Custom
    Codec ID : XVID
    Codec ID/Hint : XviD
    Duration : 1 h 18 min
    Bit rate : 1 260 kb/s
    Width : 720 pixels
    Height : 528 pixels
    Display aspect ratio : 4:3
    Frame rate : 25.000 FPS
    Color space : YUV
    Chroma subsampling : 4:2:0
    Bit depth : 8 bits
    Scan type : Progressive
    Compression mode : Lossy
    Bits/(Pixel*Frame) : 0.133
    Stream size : 704 MiB (90%)
    Writing library : XviD 1.2.1 (UTC 2008-12-04)
    Audio #1
    ID : 1
    Format : MPEG Audio
    Format version : Version 1
    Format profile : Layer 3
    Mode : Joint stereo
    Mode extension : MS Stereo
    Codec ID : 55
    Codec ID/Hint : MP3
    Duration : 1 h 18 min
    Bit rate mode : Constant
    Bit rate : 128 kb/s
    Channel(s) : 2 channels
    Sampling rate : 48.0 kHz
    Compression mode : Lossy
    Stream size : 71.5 MiB (9%)
    Alignment : Aligned on interleaves
    Interleave, duration : 80 ms (2.00 video frames)
    Interleave, preload duration : 504 ms
    Writing library : LAME3.98r
    Encoding settings : -m j -V 4 -q 2 -lowpass 17 -b 128

    Rejtett tartalom:
    **Rejtett tartalom: A tartalom megjelenítéséhez kattints a 'Tetszik' gombra.**
    vagy free
    Rejtett tartalom:
    **Rejtett tartalom: A tartalom megjelenítéséhez kattints a 'Tetszik' gombra.**
     
    agyabugya, hegyisas és nandus kedveli ezt.
  16. papadi

    papadi Állandó Tag

    [​IMG]
    Bogáncs
    Fekete-fehér magyar film (1958)
    Főszereplők: Makláry Zoltán, Barsi Béla, Vass Éva, Szabó Ernő, Kiss Ferenc
    Rendezte: Fejér Tamás
    Magyar filmek gyűjteménye 29.
    Fantasy Film, 2007. január 12.
    Tartalom a borítóról:
    Bogáncs nemzetsége már ősidők óta kiválóan teljesíti szolgálatát a somodorpusztai pásztorok mellett. Egyszer azonban a kis puli túl messzire kóborol az erdőben, s csapdába kerül. Cirkuszosok szabadítják ki, és ettől kezdve Bogáncs élete kalandos fordulatot vesz. Kiderül, hogy a kutyus nem csak a birkaterelésben, de a cirkuszi komédiázásban is igen tehetséges. Ám sajnos a jólelkű mutatványosok is elveszítik őt. Bogáncs sintérkézre kerül. Mi lesz most nélküle a cirkuszi produkcióval? És vajon Mihály bácsi, a szőrösszívű kutyapecér valóban elpusztítja a kiskutyát? Vagy eredménnyel jár Máté, az öreg pásztor kutatása?
    Extrák:
    magyar felirat
    Fejér Tamás filmográfia
    Fekete István bibliográfia
    Ajánló (2:31)
    Média információ:
    Video:
    Kodek: MPEG-1/2 Video (mpgv)
    Felbontás: 720x576
    Képkockasebesség: 25
    Képformátum: 1.37:1 (4:3)
    Hang:
    Kodek: A52 Audio (aka AC3) (a52)
    Csatornák: 3F2R/LFE
    Mintavételi frekvencia: 48000 Hz
    Bitsebesség: 448 kb/mp
    Formátum: iso
    Méret: 4,23 GB
    Műsoridő: 1:19:56
    (prémium)
    Rejtett tartalom:
    **Rejtett tartalom: A tartalom megjelenítéséhez kattints a 'Tetszik' gombra.**
    [​IMG]
    Formátum: dvdrip/avi
    Méret: 797 MB
    Felbontás: 720x544
    Mintavételi frekvencia: 48000 Hz
    Bitsebesség: 128 kbps
    Műsoridő: 1:19:56
    Részletes média információ:
    Show Spoiler

    I:\Video\29 - Bogáncs.avi
    General
    Complete name : I:\Video\29 - Bogáncs.avi
    Format : AVI
    Format/Info : Audio Video Interleave
    File size : 796 MiB
    Duration : 1 h 19 min
    Overall bit rate : 1 393 kb/s
    Writing application : VirtualDubMod 1.5.4.1 (build 2178/release)
    Writing library : VirtualDubMod build 2178/release
    Video #0
    ID : 0
    Format : MPEG-4 Visual
    Format profile : Advanced [email protected]
    Format settings, BVOP : 1
    Format settings, QPel : No
    Format settings, GMC : No warppoints
    Format settings, Matrix : Custom
    Codec ID : XVID
    Codec ID/Hint : XviD
    Duration : 1 h 19 min
    Bit rate : 1 257 kb/s
    Width : 720 pixels
    Height : 544 pixels
    Display aspect ratio : 4:3
    Frame rate : 25.000 FPS
    Color space : YUV
    Chroma subsampling : 4:2:0
    Bit depth : 8 bits
    Scan type : Progressive
    Compression mode : Lossy
    Bits/(Pixel*Frame) : 0.128
    Stream size : 719 MiB (90%)
    Writing library : XviD 1.2.1 (UTC 2008-12-04)
    Audio #1
    ID : 1
    Format : MPEG Audio
    Format version : Version 1
    Format profile : Layer 3
    Mode : Joint stereo
    Mode extension : MS Stereo
    Codec ID : 55
    Codec ID/Hint : MP3
    Duration : 1 h 19 min
    Bit rate mode : Constant
    Bit rate : 128 kb/s
    Channel(s) : 2 channels
    Sampling rate : 48.0 kHz
    Compression mode : Lossy
    Stream size : 73.2 MiB (9%)
    Alignment : Aligned on interleaves
    Interleave, duration : 80 ms (2.00 video frames)
    Interleave, preload duration : 504 ms
    Writing library : LAME3.98r
    Encoding settings : -m j -V 4 -q 2 -lowpass 17 -b 128

    Rejtett tartalom:
    **Rejtett tartalom: A tartalom megjelenítéséhez kattints a 'Tetszik' gombra.**
    vagy free
    Rejtett tartalom:
    **Rejtett tartalom: A tartalom megjelenítéséhez kattints a 'Tetszik' gombra.**
     
    Rita Csaki, hegyisas és nandus kedveli ezt.
  17. papadi

    papadi Állandó Tag

    [​IMG]
    Rosszemberek
    Magyar film (1978)
    Főszereplők: Dzsokó Roszics (Djoko Rosic), Kiss Mari, Derzsi János, Dörner György fh., Szabó László
    Rendezte: Szomjas György
    Magyar filmek gyűjteménye 30.
    Fantasy Film, 2007. január 12.
    Tartalom a borítóról:
    A kiegyezés előtti időkben járunk. Gelencsér Jóska, a hírhedt betyár szegénylegényekből verbuvált csapatával a környék összes Habsburg-barát nemesét végigrabolta már. A környező tanyák nincstelen lakói kiskirályként bánnak a fosztogató banda tagjaival. A hatóság emberei viszont aggódnak: ameddig ilyen barbár állapotok uralkodnak a vidéken, addig nem mernek vasútépítésbe kezdeni, pedig ez nélkülözhetetlen volna a gazdasági fejlődéshez.
    Amikor Jóska kegyetlenül végez a marcali bíróval, öccse gyilkosával, betelik a pohár. Hegyessy főszolgabírót utasítják felettesei, hogy bármi áron számoljon le a bandával. Gelencsér azonban nem adja könnyen a bőrét, a banda az utolsó emberig küzd. A lövöldözésben sok csendőr is vérével fizet a békéért, a betyárok dicsősége pedig mindörökre leáldozik.

    Extrák:
    magyar felirat
    Szomjas György filmográfia
    Ajánló (2:31)
    Média információ:
    Video:
    Kodek: MPEG-1/2 Video (mpgv)
    Felbontás: 720x576
    Képkockasebesség: 25
    Képformátum: 1.37:1 (4:3)
    Hang:
    Kodek: A52 Audio (aka AC3) (a52)
    Csatornák: 3F2R/LFE
    Mintavételi frekvencia: 48000 Hz
    Bitsebesség: 448 kb/mp
    Formátum: iso
    Méret: 4,35 GB
    Műsoridő: 1:29:10
    (prémium)
    Rejtett tartalom:
    **Rejtett tartalom: A tartalom megjelenítéséhez kattints a 'Tetszik' gombra.**
    [​IMG]
    Formátum: dvdrip/avi
    Méret: 894 MB
    Felbontás: 720x544
    Mintavételi frekvencia: 48000 Hz
    Bitsebesség: 128 kbps
    Műsoridő: 1:29:09
    Részletes média információ:
    Show Spoiler

    I:\Video\30 - Rosszemberek.avi
    General
    Complete name : I:\Video\30 - Rosszemberek.avi
    Format : AVI
    Format/Info : Audio Video Interleave
    File size : 890 MiB
    Duration : 1 h 29 min
    Overall bit rate : 1 395 kb/s
    Writing application : VirtualDubMod 1.5.4.1 (build 2178/release)
    Writing library : VirtualDubMod build 2178/release
    Video #0
    ID : 0
    Format : MPEG-4 Visual
    Format profile : Advanced [email protected]
    Format settings, BVOP : 1
    Format settings, QPel : No
    Format settings, GMC : No warppoints
    Format settings, Matrix : Custom
    Codec ID : XVID
    Codec ID/Hint : XviD
    Duration : 1 h 29 min
    Bit rate : 1 260 kb/s
    Width : 720 pixels
    Height : 544 pixels
    Display aspect ratio : 4:3
    Frame rate : 25.000 FPS
    Color space : YUV
    Chroma subsampling : 4:2:0
    Bit depth : 8 bits
    Scan type : Progressive
    Compression mode : Lossy
    Bits/(Pixel*Frame) : 0.129
    Stream size : 803 MiB (90%)
    Writing library : XviD 1.2.1 (UTC 2008-12-04)
    Audio #1
    ID : 1
    Format : MPEG Audio
    Format version : Version 1
    Format profile : Layer 3
    Mode : Joint stereo
    Mode extension : MS Stereo
    Codec ID : 55
    Codec ID/Hint : MP3
    Duration : 1 h 29 min
    Bit rate mode : Constant
    Bit rate : 128 kb/s
    Channel(s) : 2 channels
    Sampling rate : 48.0 kHz
    Compression mode : Lossy
    Stream size : 81.6 MiB (9%)
    Alignment : Aligned on interleaves
    Interleave, duration : 80 ms (2.00 video frames)
    Interleave, preload duration : 504 ms
    Writing library : LAME3.98r
    Encoding settings : -m j -V 4 -q 2 -lowpass 17 -b 128

    Rejtett tartalom:
    **Rejtett tartalom: A tartalom megjelenítéséhez kattints a 'Tetszik' gombra.**
    vagy free
    Rejtett tartalom:
    **Rejtett tartalom: A tartalom megjelenítéséhez kattints a 'Tetszik' gombra.**
     
  18. papadi

    papadi Állandó Tag

    [​IMG]

    Indul a bakterház
    Magyar vígjáték (1979)
    Főszereplők: Olvasztó Imre, Koltai Róbert, Horváth Teri, Haumann Péter, Pécsi Ildikó, Bánhidi László, Csákányi László
    Rendezte: Mihályfy Sándor
    MTV / MOKÉP, MOKÉP 015, 2003. április 8.

    Regős Bendegúzt anyja szolgálni küldi a lókupechez, akitől a fiú megszökik. A bakterhez keveredik, s itt kezdődnek el a vidám bonyodalmak. (a borítóról)

    Extrák: csaj a dvd-n
    Rendezői kommentár
    Rideg Sándor bibliográfia
    Mihályfy Sándor filmográfia
    Interjú - Ahogy a színész emlékezik (7:58)
    Mert hasonlítanak! – Két könyv, két kamasz (Ábel a rengetegben – filmrészletek) (5:30)
    Kölyökfilmek és jófej kölykök – filmrészletek:
    Hahó Öcsi (1:09)
    Égigérő fű (2:33)
    Hahó a tenger (1:25)
    Gyerekrablás a Palánk utcában (1:00)

    Média információ:
    Video:
    Kodek: MPEG-1/2 Video (mpgv)
    Felbontás: 720x576
    Képkockasebesség: 25
    Képformátum: 1.33:1 (4:3)
    Hang:
    Kodek: A52 Audio (aka AC3) (a52)
    Csatornák: Sztereó
    Mintavételi frekvencia: 48000 Hz
    Bitsebesség: 192 kb/mp
    Formátum: iso
    Méret: 4,16 GB
    Műsoridő: 1:06:10 (1:25:45)
    (prémium)
    Rejtett tartalom:
    **Rejtett tartalom: A tartalom megjelenítéséhez kattints a 'Tetszik' gombra.**
    [​IMG]
    Formátum: dvdrip/avi
    Méret: 880 MB
    Felbontás: 720x544
    Mintavételi frekvencia: 48000 Hz
    Bitsebesség: 128 kbps
    Műsoridő: 1:06:10
    Részletes média információ:
    Show Spoiler

    I:\Video\Indul a bakterház.avi
    General
    Complete name : I:\Video\Indul a bakterház.avi
    Format : AVI
    Format/Info : Audio Video Interleave
    File size : 879 MiB
    Duration : 1 h 6 min
    Overall bit rate : 1 856 kb/s
    Writing application : VirtualDubMod 1.5.4.1 (build 2178/release)
    Writing library : VirtualDubMod build 2178/release
    Video #0
    ID : 0
    Format : MPEG-4 Visual
    Format profile : Advanced [email protected]
    Format settings, BVOP : 1
    Format settings, QPel : No
    Format settings, GMC : No warppoints
    Format settings, Matrix : Custom
    Codec ID : XVID
    Codec ID/Hint : XviD
    Duration : 1 h 6 min
    Bit rate : 1 590 kb/s
    Width : 720 pixels
    Height : 544 pixels
    Display aspect ratio : 4:3
    Frame rate : 25.000 FPS
    Color space : YUV
    Chroma subsampling : 4:2:0
    Bit depth : 8 bits
    Scan type : Progressive
    Compression mode : Lossy
    Bits/(Pixel*Frame) : 0.162
    Stream size : 753 MiB (86%)
    Writing library : XviD 1.2.1 (UTC 2008-12-04)
    Audio #1
    ID : 1
    Format : MPEG Audio
    Format version : Version 1
    Format profile : Layer 3
    Mode : Joint stereo
    Mode extension : MS Stereo
    Codec ID : 55
    Codec ID/Hint : MP3
    Duration : 1 h 6 min
    Bit rate mode : Constant
    Bit rate : 128 kb/s
    Channel(s) : 2 channels
    Sampling rate : 48.0 kHz
    Compression mode : Lossy
    Stream size : 60.6 MiB (7%)
    Alignment : Aligned on interleaves
    Interleave, duration : 80 ms (2.00 video frames)
    Interleave, preload duration : 504 ms
    Writing library : LAME3.98r
    Encoding settings : -m j -V 4 -q 2 -lowpass 17 -b 128
    Audio #2
    ID : 2
    Format : MPEG Audio
    Format version : Version 1
    Format profile : Layer 3
    Mode : Joint stereo
    Mode extension : MS Stereo
    Codec ID : 55
    Codec ID/Hint : MP3
    Duration : 1 h 6 min
    Bit rate mode : Constant
    Bit rate : 128 kb/s
    Channel(s) : 2 channels
    Sampling rate : 48.0 kHz
    Compression mode : Lossy
    Stream size : 60.6 MiB (7%)
    Alignment : Aligned on interleaves
    Interleave, duration : 80 ms (2.00 video frames)
    Interleave, preload duration : 504 ms
    Writing library : LAME3.98r
    Encoding settings : -m j -V 4 -q 2 -lowpass 17 -b 128

    Rejtett tartalom:
    **Rejtett tartalom: A tartalom megjelenítéséhez kattints a 'Tetszik' gombra.**
    vagy free
    Rejtett tartalom:
    **Rejtett tartalom: A tartalom megjelenítéséhez kattints a 'Tetszik' gombra.**
     
    hegyisas, aaaaaaaaaaaaaaaa és repavary kedveli ezt.
  19. lacylla

    lacylla Állandó Tag



    Tréfa (2009) DVDRip XviD HUN

    [​IMG]

    magyar játékfilm, 93 perc

    [​IMG]
    producer: Szekeres Dénes
    jelmeztervező: Jánoskúti Márta, Balai Zsuzsa
    díszlettervező: Horgas Péter
    operatőr: Seregi László
    forgatókönyvíró: Bíró Zsuzsa
    író: Kosztolányi Dezső
    rendező: Gárdos Péter
    vágó: Miklós Mari


    [​IMG]
    Zoltán atya: Váta Lóránd
    Weigl atya: Lengyel Tamás
    Igazgató: Kovács Zsolt
    Damián atya: Kovács Mihály
    Ágoston atya: M. Kecskés András
    Szebeni: Kiss Márton
    Simon: Timon Barnabás
    Bromberg: Veréb Tamás
    Beck: Csonka András


    [​IMG]
    Show Spoiler
    1912-ben járunk. Egy kisvárosi, papok vezette felekezeti iskolában a hagyományok szellemében kezdődik a tanév.
    A gyerekeken ezen az őszön valami különös vadság vesz erőt, egymás után eszelik ki a bolondnál bolondabb tréfákat.

    A fiatal Weigl atya - a kollégiumba érkező új tornatanár - megütközik
    azon a liberális gondolkodásmódon, ahogy a tanárok többsége viszonyul a kamaszok szertelenségéhez.
    Zoltán atya, a hetedikesek osztályfőnöke is egyre kevésbé tud a körülötte zajló eseményekre figyelni.
    Öccsét, akit egy bokszmeccsen megsüketítettek, néhány hónapja rábeszélte egy bostoni műtétre.
    A testvére a jéghegynek ütköző Titanicon utazott az orvoshoz,
    de a hivatalos lista - megmenekültekről, halottakról - egyre késik.
    Az események egy napon döntő fordulatot vesznek.

    port.hu


    [​IMG]
    Show Spoiler
    [​IMG]

    [​IMG]

    [​IMG]



    [​IMG]
    Név: Tréfa (Péter Gárdos, 2009)
    Típus: AVI

    Méret: 700 MiB
    Hossz: 1 óra 33 perc 34 mp 880 emp

    Képsáv #0: at 905 kb/s
    Felbontás: 624 x 352 (1.773)
    Képkockák száma: 25.000 fps

    Hang #0: at 128 kb/s
    Hangsáv: 2 csatorna, 48,0 kHz



    [​IMG]
    Rejtett tartalom:
    **Rejtett tartalom: A tartalom megjelenítéséhez kattints a 'Tetszik' gombra.**
     
    hegyisas, xixi.xixi és őrszem kedveli ezt.
  20. papadi

    papadi Állandó Tag

    Mephisto - magyar-német játékfilm (1981)
    iso + dvdrip/avi,dual

    [​IMG]

    Mephisto
    magyar-német játékfilm (1981)
    Főszereplők: Klaus Maria Brandauer, Rolf Hoppe, Bánsági Ildikó, Krystyna Janda, Karin Boyd, Christine Harbort, Cserhalmi György, Andorai Péter
    Rendezte: Szabó István
    MANDA. 2012. január 10.
    MANDA Magyar filmtörténeti sorozata 25
    Hang: magyar, német
    Felirat: angol (csak a dvd-n)

    A Klaus Mann azonos című regénye nyomán készült Oscar-díjas film az örök fausti kérdésre keresi a választ: mivé formálódik a személyiség Közép-Európában a történelem nyomása alatt. Hendrik Höfgen, a rendkívüli tehetségű, megfelelni vágyó színész pályája magasan ível a 30-as évek Németországában... (a borítóról)

    Extrák: csak a dvd-n
    Egy nemzedék története - Születésnapi beszélgetés Szabó Istvánnal.
    Szerkesztő-riporter: Wisinger István - részletek (1988) - 18:22

    Média információ:
    Video:
    Kodek: MPEG-1/2 Video (mpgv)
    Felbontás: 720x576
    Képkockasebesség: 25
    Képformátum: 1.66:1 (16:9)
    Hang:
    Kodek: A52 Audio (aka AC3) (a52)
    Csatornák: Dual-mono
    Mintavételi frekvencia: 48000 Hz
    Bitsebesség: 224 kb/mp
    Formátum: iso
    Méret: 7,75 GB
    Műsoridő: 2:19:00 (2:37:22)
    (prémium)
    Rejtett tartalom:
    **Rejtett tartalom: A tartalom megjelenítéséhez kattints a 'Tetszik' gombra.**
    [​IMG]
    Formátum: dvdrip/avi
    Méret: 1,80 GB
    Felbontás: 720x432
    Mintavételi frekvencia: 48000 Hz
    Bitsebesség: 128 kbps
    Műsoridő: 2:19:00
    Részletes média információ:
    Show Spoiler

    I:\Video\Mephisto.avi
    General
    Complete name : I:\Video\Mephisto.avi
    Format : AVI
    Format/Info : Audio Video Interleave
    File size : 1.81 GiB
    Duration : 2 h 19 min
    Overall bit rate : 1 860 kb/s
    Writing application : VirtualDubMod 1.5.4.1 (build 2178/release)
    Writing library : VirtualDubMod build 2178/release
    Video #0
    ID : 0
    Format : MPEG-4 Visual
    Format profile : Advanced [email protected]
    Format settings, BVOP : 1
    Format settings, QPel : No
    Format settings, GMC : No warppoints
    Format settings, Matrix : Custom
    Codec ID : XVID
    Codec ID/Hint : XviD
    Duration : 2 h 19 min
    Bit rate : 1 594 kb/s
    Width : 720 pixels
    Height : 432 pixels
    Display aspect ratio : 5:3
    Frame rate : 25.000 FPS
    Color space : YUV
    Chroma subsampling : 4:2:0
    Bit depth : 8 bits
    Scan type : Progressive
    Compression mode : Lossy
    Bits/(Pixel*Frame) : 0.205
    Stream size : 1.55 GiB (86%)
    Writing library : XviD 1.2.1 (UTC 2008-12-04)
    Audio #1
    ID : 1
    Format : MPEG Audio
    Format version : Version 1
    Format profile : Layer 3
    Mode : Joint stereo
    Mode extension : MS Stereo
    Codec ID : 55
    Codec ID/Hint : MP3
    Duration : 2 h 19 min
    Bit rate mode : Constant
    Bit rate : 128 kb/s
    Channel(s) : 2 channels
    Sampling rate : 48.0 kHz
    Compression mode : Lossy
    Stream size : 127 MiB (7%)
    Alignment : Aligned on interleaves
    Interleave, duration : 80 ms (2.00 video frames)
    Interleave, preload duration : 504 ms
    Writing library : LAME3.98r
    Encoding settings : -m j -V 4 -q 2 -lowpass 17 -b 128
    Audio #2
    ID : 2
    Format : MPEG Audio
    Format version : Version 1
    Format profile : Layer 3
    Mode : Joint stereo
    Mode extension : MS Stereo
    Codec ID : 55
    Codec ID/Hint : MP3
    Duration : 2 h 19 min
    Bit rate mode : Constant
    Bit rate : 128 kb/s
    Channel(s) : 2 channels
    Sampling rate : 48.0 kHz
    Compression mode : Lossy
    Stream size : 127 MiB (7%)
    Alignment : Aligned on interleaves
    Interleave, duration : 80 ms (2.00 video frames)
    Interleave, preload duration : 504 ms
    Writing library : LAME3.98r
    Encoding settings : -m j -V 4 -q 2 -lowpass 17 -b 128

    Rejtett tartalom:
    **Rejtett tartalom: A tartalom megjelenítéséhez kattints a 'Tetszik' gombra.**
    vagy free
    Rejtett tartalom:
    **Rejtett tartalom: A tartalom megjelenítéséhez kattints a 'Tetszik' gombra.**
     
    hegyisas és nandus kedveli ezt.

Megosztás