Magyar filmek III itt nincs kérés

FLAMINGO témája a 'Film, színház, tánc' fórumban , 2018 Február 3.

  1. papadi

    papadi Állandó Tag

    Mephisto - magyar-német játékfilm (1981)
    iso + dvdrip/avi,dual

    [​IMG]

    Mephisto
    magyar-német játékfilm (1981)
    Főszereplők: Klaus Maria Brandauer, Rolf Hoppe, Bánsági Ildikó, Krystyna Janda, Karin Boyd, Christine Harbort, Cserhalmi György, Andorai Péter
    Rendezte: Szabó István
    MANDA. 2012. január 10.
    MANDA Magyar filmtörténeti sorozata 25
    Hang: magyar, német
    Felirat: angol (csak a dvd-n)

    A Klaus Mann azonos című regénye nyomán készült Oscar-díjas film az örök fausti kérdésre keresi a választ: mivé formálódik a személyiség Közép-Európában a történelem nyomása alatt. Hendrik Höfgen, a rendkívüli tehetségű, megfelelni vágyó színész pályája magasan ível a 30-as évek Németországában... (a borítóról)

    Extrák: csak a dvd-n
    Egy nemzedék története - Születésnapi beszélgetés Szabó Istvánnal.
    Szerkesztő-riporter: Wisinger István - részletek (1988) - 18:22

    Média információ:
    Video:
    Kodek: MPEG-1/2 Video (mpgv)
    Felbontás: 720x576
    Képkockasebesség: 25
    Képformátum: 1.66:1 (16:9)
    Hang:
    Kodek: A52 Audio (aka AC3) (a52)
    Csatornák: Dual-mono
    Mintavételi frekvencia: 48000 Hz
    Bitsebesség: 224 kb/mp
    Formátum: iso
    Méret: 7,75 GB
    Műsoridő: 2:19:00 (2:37:22)
    (prémium)
    Rejtett tartalom:
    **Rejtett tartalom: A tartalom megjelenítéséhez kattints a 'Tetszik' gombra.**
    [​IMG]
    Formátum: dvdrip/avi
    Méret: 1,80 GB
    Felbontás: 720x432
    Mintavételi frekvencia: 48000 Hz
    Bitsebesség: 128 kbps
    Műsoridő: 2:19:00
    Részletes média információ:
    Show Spoiler

    I:\Video\Mephisto.avi
    General
    Complete name : I:\Video\Mephisto.avi
    Format : AVI
    Format/Info : Audio Video Interleave
    File size : 1.81 GiB
    Duration : 2 h 19 min
    Overall bit rate : 1 860 kb/s
    Writing application : VirtualDubMod 1.5.4.1 (build 2178/release)
    Writing library : VirtualDubMod build 2178/release
    Video #0
    ID : 0
    Format : MPEG-4 Visual
    Format profile : Advanced [email protected]
    Format settings, BVOP : 1
    Format settings, QPel : No
    Format settings, GMC : No warppoints
    Format settings, Matrix : Custom
    Codec ID : XVID
    Codec ID/Hint : XviD
    Duration : 2 h 19 min
    Bit rate : 1 594 kb/s
    Width : 720 pixels
    Height : 432 pixels
    Display aspect ratio : 5:3
    Frame rate : 25.000 FPS
    Color space : YUV
    Chroma subsampling : 4:2:0
    Bit depth : 8 bits
    Scan type : Progressive
    Compression mode : Lossy
    Bits/(Pixel*Frame) : 0.205
    Stream size : 1.55 GiB (86%)
    Writing library : XviD 1.2.1 (UTC 2008-12-04)
    Audio #1
    ID : 1
    Format : MPEG Audio
    Format version : Version 1
    Format profile : Layer 3
    Mode : Joint stereo
    Mode extension : MS Stereo
    Codec ID : 55
    Codec ID/Hint : MP3
    Duration : 2 h 19 min
    Bit rate mode : Constant
    Bit rate : 128 kb/s
    Channel(s) : 2 channels
    Sampling rate : 48.0 kHz
    Compression mode : Lossy
    Stream size : 127 MiB (7%)
    Alignment : Aligned on interleaves
    Interleave, duration : 80 ms (2.00 video frames)
    Interleave, preload duration : 504 ms
    Writing library : LAME3.98r
    Encoding settings : -m j -V 4 -q 2 -lowpass 17 -b 128
    Audio #2
    ID : 2
    Format : MPEG Audio
    Format version : Version 1
    Format profile : Layer 3
    Mode : Joint stereo
    Mode extension : MS Stereo
    Codec ID : 55
    Codec ID/Hint : MP3
    Duration : 2 h 19 min
    Bit rate mode : Constant
    Bit rate : 128 kb/s
    Channel(s) : 2 channels
    Sampling rate : 48.0 kHz
    Compression mode : Lossy
    Stream size : 127 MiB (7%)
    Alignment : Aligned on interleaves
    Interleave, duration : 80 ms (2.00 video frames)
    Interleave, preload duration : 504 ms
    Writing library : LAME3.98r
    Encoding settings : -m j -V 4 -q 2 -lowpass 17 -b 128

    Rejtett tartalom:
    **Rejtett tartalom: A tartalom megjelenítéséhez kattints a 'Tetszik' gombra.**
    vagy free
    Rejtett tartalom:
    **Rejtett tartalom: A tartalom megjelenítéséhez kattints a 'Tetszik' gombra.**
     
    kron, hegyisas és nandus kedveli ezt.
  2. Zauberfl

    Zauberfl Állandó Tag

    Doktor Senki 1977
    Magyar tévéfilm 83 perc

    [​IMG]

    Gábor Andor regényét
    Televízióra alkalmazta: Málnay Levente
    Szántó Erika
    Dramaturg: Schulze Éva
    Zeneszerző: Petrovics Emil
    Díszlettervező: Ruttka Ferenc
    Jelmeztervező: D. Forgó Teréz
    Rendező: Málnay Levente

    Szereplők:
    Schenk I.János - Oszter Sándor
    Czillérné, Adél - Małgorzata Braunek (Andai Györgyi)
    Elza - Małgorzata Kszevinszka (Zsurzs Kati)
    Porgesz - Páger Antal
    Prokesch - Márkus László
    Mlle. Nitouche - Békés Rita
    Emma - Soproni Ági
    Füredi Fábián - Benkő Gyula
    Szenitzey - Balázs Péter
    Rózsa Rezső - Sinkó László
    Csopaki - Horesnyi László
    Vámoscher - Mécs Károly
    báró Friedszky - Pethes Sándor
    Czeglédi Sándor
    Szénási Ernő
    Ruttka Ferenc
    Horkay János
    Kollár Béla
    Tyll Attila
    Adamcsák Ágnes
    Bessenyei Emma
    Kalmár Zsuzsa
    Kölgyesi György
    Ambrus András
    Bálint György
    Sárosi Gábor
    Sörös Sándor


    Schenk I. János kistisztviselő életének nagy álma az újságírás. Egy napon - különös véletlen következtében - teljesül az álom és Schenk I. János - alias Doktor Senki - a Függetlenség című ellenzéki orgánum tulajdonosa és főszerkesztője lesz. Az események viharos gyorsasággal peregnek, Dr. Senki - céljai eléréséhez minden lehetséges eszközt felhasználva - egyre magasabbra jut a társadalmi ranglétrán. A múlt század elején játszódó karriertörténet pontos látlelet, de nemcsak saját koráról.

    Format: Matroska at 2 051 kb/s
    Length: 1,20 GiB for 1 óra 23 perc 25 mp 840emp
    Video: AVC
    Aspect: 720 x 576 (1.250) at 25.000 fps
    Audio: AAC
    Infos: 2 csatorna, 48,0 kHz

    Rejtett tartalom:
    **Rejtett tartalom: A tartalom megjelenítéséhez kattints a 'Tetszik' gombra.**
     
  3. Zauberfl

    Zauberfl Állandó Tag

    A kertész kutyája 1984
    Magyar tévéjáték 85 perc

    [​IMG]

    Írta: Lope de Vega
    Fordította: Gáspár Endre
    Dramaturg: Lehel Judit
    Zene: Novák János
    Díszlet: Juhász Katalin
    Építész: Polgár Béla
    Jelmez: Witz Éva
    Maszk: Tomola Katalin
    Rendezte: Lengyel György

    Szereplők:
    Almási Éva
    Vass Gábor
    Cseke László
    Márkus László
    Tóth Enikő
    Mányai Zsuzsa
    Miklósy György
    Nagy Zoltán
    Székhelyi József
    Kerekes József
    Kováts Adél
    Likkai László
    Puskás Tamás


    Diana grófnő minden gazdag kérőjét elutasítja, de beleszeret saját írnokába, Teodoróba. A grófnő megtudja, hogy Teodoró titkon szobalányát, Marcellát látogatja és ekkor döbben rá, hogy szereti a férfit. Diana ügyes praktikákkal közli az érzelmeit az írnokkal. Teodoró gyorsan felejti a szobalányt és szerelemre gyullad a grófnő iránt, aki a gőg és a féltékenység között, a szerelem és büszkeség között ingadozik. Teodoró szolgája addig mesterkedik, míg talál urának egy grófi atyát, így végül is elhárul a köztük levő akadály és szabadon szerethetik egymást.

    Format: Matroska at 1 729 kb/s
    Length: 1,02 GiB for 1 óra 24 perc 26 mp 820emp
    Video: AVC at 1 500 kb/s
    Aspect: 720 x 576 (1.250) at 50.000 fps
    Audio: AC-3 at 224 kb/s
    Infos: 2 csatorna, 48,0 kHz

    Rejtett tartalom:
    **Rejtett tartalom: A tartalom megjelenítéséhez kattints a 'Tetszik' gombra.**
     
  4. Zauberfl

    Zauberfl Állandó Tag

    Egy hónap falun (Месяц в деревне)1980
    Magyar tévéjáték 83 perc

    [​IMG]

    Írta: Ivan Szergejevics Turgenyev
    Fordította: Elbert János
    Dramaturg: Szántó Erika
    Díszlettervező: Langmár András
    Jelmeztervező: Wieber Marianne
    Rendezte: Szirtes Tamás

    Szereplők
    Schaaf, német nevelő: Benedek Miklós
    Anna Szemjonovna, Iszlajev édesanyja: Gobbi Hilda
    Lizaveta, társalkodónő: Gyöngyössy Katalin
    Spiegelszkij: Haumann Péter
    Beljajev: Hegedűs D. Géza
    Iszlajev földbirtokos: Koltai János
    Vera, nevelt lányuk: Leviczky Klára
    Rakityin: Mensáros László
    Kátya, szolgálólány: Pap Vera
    Natalja, a felesége: Ruttkai Éva
    Matvej, szolga: Szénási Ernő
    Bolsincov, szomszéd: Vajda László

    Új tanító érkezik a birtokra Beljajev személyében. Natalja és Vera, a nevelt lánya is beleszeret az ifjúba. Natalját Rakityin is szereti. Kisebb-nagyobb bonyodalmak után Rakityin is, Beljajev is elutazik. Vera igent mond a szomszéd földbirtokosnak, pedig nem szereti. Iszlajev tud Rakatyin szerelméről, ezért örül a távozásnak, nem tudja, hogy felesége Beljajev miatt zokog.

    Format: Matroska at 2 051 kb/s
    Length: 1,18 GiB for 1 óra 22 perc 40 mp 128emp
    Video: AVC
    Aspect: 720 x 576 (1.250) at 25.000 fps
    Audio: AAC
    Infos: 2 csatorna, 48,0 kHz


    Rejtett tartalom:
    **Rejtett tartalom: A tartalom megjelenítéséhez kattints a 'Tetszik' gombra.**
     
  5. Zauberfl

    Zauberfl Állandó Tag

    Névtelen csillag (Steaua fără nume) 1971
    Magyar ff. tévéjáték 124 perc

    [​IMG]

    Írta: Mihail Sebastian
    Fordította, tévére alkalmazta: Ádám Ottó
    Dramaturg: Mészöly Dezső
    Díszlettervező: Mátay Lívia
    Jelmeztervező: Wieber Mariann
    Operatőr: Darvas Máté
    Rendezte: Ádám Ottó

    Szereplők:
    Haumann Péter - Marin Miroiu
    Almási Éva - Mona
    Szacsvay László - Udrea
    Lőte Attila - Mona barátja
    Muszte Anna fh. - Diáklány
    Békés Itala - Cucu kisasszony
    Basilides Zoltán - Állomásfőnök
    Szénási Ernő
    Horesnyi László
    Gyenge Árpád
    Bányai János

    A poros román kisváros vasútállomásán leszállítanak egy estélyi ruhás, nagyvilági hölgyet a vonatról, mert nincs sem jegye, sem pénze. A helybeli gimnázium tanára felajánlja a rendkívüli nőnek, hogy töltse az éjszakát a lakásán..

    Format: Matroska at 2 051 kb/s
    Length: 1,78 GiB for 2 óra 4 perc 25 mp 685emp
    Video: AVC
    Aspect: 720 x 576 (1.250) at 25.000 fps
    Audio: AAC
    Infos: 2 csatorna, 48,0 kHz


    Rejtett tartalom:
    **Rejtett tartalom: A tartalom megjelenítéséhez kattints a 'Tetszik' gombra.**
     
  6. csoroge

    csoroge Aktív tag

    A viszkis rabló balladája - Szökésben , dokumentum film

    (2005)



    [​IMG] [​IMG] [​IMG]
    Ambrus Attila nem tudott megélni hoki kapus fizetéséből. Ezért egy jóval veszélyesebb, ám annál jövedelmezőbb foglalkozás után nézett. Ő lett a rendszerváltás utáni Magyarország leghíresebb bűnözője.
    Több mint hét éven keresztül fosztogatta a pénzintézeteket, és borzolta a hatóságok idegeit. A Viszkis rablóként elhíresült bűnözőt a lakosság hamarosan egyfajta nemzeti hősnek tekintette. Annyira népszerűvé vált, hogy az emberek egyszerűen nem segítették a rendőrség munkáját. Így aztán a bűnüldöző hatóságoknak sokáig fogalmuk sem volt róla, kit is keresnek valójában.


    Rendező:Dean Balser
    Szereplők:
    Norman McIsaac


    Format : AVI at 1 810 kb/s
    Length : 670 MiB for 51 perc 44 mp 840emp
    Video #0 : MPEG-4 Visual at 1 672 kb/s
    Aspect : 704 x 448 (1.571) at 25.000 fps
    Audio #0 : MPEG Audio at 128 kb/s
    Infos : 2 csatorna, 48,0 kHz


    Letöltés:
    Rejtett tartalom:
    **Rejtett tartalom: A tartalom megjelenítéséhez kattints a 'Tetszik' gombra.**
     
    Utoljára módosítva: 2019 Január 12
    Speederke és hegyisas kedveli ezt.
  7. Zauberfl

    Zauberfl Állandó Tag

    Gogol: A revizor
    magyar tévéfilm, 93 perc, 1984

    [​IMG]

    rendező: Gothár Péter
    zeneszerző: Selmeczi György
    dramaturg: Gothár Péter, Spiró György

    szereplő(k):
    Máté Gábor (Ivan A. Hlesztakov)
    Koltai Róbert
    Lázár Kati (a polgármester felesége)
    Csákányi Eszter (a polgármster lánya)
    Tóth Béla
    Spindler Béla
    Bezerédi Zoltán
    Lukáts Andor
    Gyuricza István
    Kósa Béla
    Karácsony Tamás
    Krum Ádám
    Lugosi György
    Serf Egyed

    Egy vidéki kisváros korrupt vezetői megtudják, hogy revizor érkezik Pétervárról. Ijedten próbálnak rendet teremteni. Hlesztakov, a pétervári tisztviselő napok óta éhezik a kisváros fogadójában, mivel minden pénzét elkártyázta, hitelt nem kap. Egy félreértés, és némi rájátszás folytán a város korrupt vezetői őt vélik revizornak. A hivatalok vezetői lesik minden gondolatát, a polgármester lányánál is sikere van. Mikor távozik, az egész város ünnepli és esküvőre várják vissza. Egy levélből azonban kiderül a csalás, s ugyanakkor érkezik meg a valódi revizor is.

    Format: Matroska at 1 869 kb/s
    Length: 1,21 GiB for 1 óra 32 perc 57 mp 560emp
    Video: AVC
    Aspect: 720 x 540 (1.333) at 25.000 fps
    Audio: AAC
    Infos: 2 csatorna, 48,0 kHz

    Rejtett tartalom:
    **Rejtett tartalom: A tartalom megjelenítéséhez kattints a 'Tetszik' gombra.**
     
  8. Zauberfl

    Zauberfl Állandó Tag

    Nem értem a nőket 1963
    Magyar fekete-fehér tvfilm 59 perc

    [​IMG]

    Szövegíró: Fedor Ágnes
    Forgatókönyv: Kertész Magda
    Díszlettervező: Barta László
    Jelmeztervező: Rimanóczy Yvonne
    Zeneszerző: Nádas Gábor
    Rendezte: Kalmár Tibor

    Szereplők:
    Kazal László (A férfi aki nem érti... Pincér, Postás, Hordár, Fodrász, stb.)
    Bársony Irén (Nő a fodrásznál II.)
    Berényi Ottó (Pincér)
    Békés Itala (Bejárónő)
    Bocskay Izabella (Nő a fodrásznál III.)
    Csala Zsuzsa (Az édesszájú nő)
    Dévay Hédi (Feleség aki nem féltékeny)
    Dévényi Cecília (Gépírónő IV.)
    Erdődy Kálmán (A férj akire nem féltékenyek)
    Felföldi Anikó (A végzet aszonya)
    Fónay Márta (Zsuzsa)
    Gobbi Hilda (Kozmetikai tanácsadó)
    Hacser Józsa (Eladónő I.)
    Kállay Ilona (Terike)
    Keleti László (Zsuzsa férje)
    Lehoczky Zsuzsa (Angyal)
    Lorán Lenke (Pénztárosnő)
    Magda Gabi (Gépírónő II.)
    Margitai Ági (Gépírónő I.)
    Máthé Erzsi (Feleség)
    Pagonyi János (Férj)
    Simonyi Magda (Kropacsek Malvin)
    Sólyom Ildikó (A művelt nő)
    Soós Edit (Eladónő II.)
    Szabó Ibolya (Mama)
    Szántó Klári (Nő a fodrásznál I.)
    Tímár Éva (Gépírónő III.)
    Vay Ilus (Barátnő)
    Velenczey István (A tudós férfi)
    Kovács P. József (Bemondó)
    Viola Mihály (Barát)

    Nádas Gábor és kisegyüttese

    Ha nőként tekintünk rájuk, megsértődnek. Ha nem nőként tekintünk rájuk, akkor is. Ki érti őket?

    Format: Matroska at 1 869 kb/s
    Length: 795 MiB for 59 perc 26 mp 800emp
    Video: AVC
    Aspect: 720 x 552 (1.304) at 25.000 fps
    Audio: AAC
    Infos: 2 csatorna, 48,0 kHz

    Rejtett tartalom:
    **Rejtett tartalom: A tartalom megjelenítéséhez kattints a 'Tetszik' gombra.**
     
  9. Zauberfl

    Zauberfl Állandó Tag

    Ember a vízben 1971
    Fekete-fehér tvfilm 80 perc

    [​IMG]

    Írta: Bánhidi László
    Dramaturg: Sipos Tamás
    Operatőr: Ráday Mihály
    Rendezte: Szőnyi G. Sándor

    Szereplők: Ambrus András (román hajós)
    Bánhidi László (Zács Gergely, kapitány)
    Baranyai Ibolya (Havas Mária)
    Fónay Márta (Mária anyja)
    Koncz Gábor (Molnár Károly, az új hajós)
    Máriáss József (Karl, Gergely sváb jobbkeze)
    Máthé Erzsi (osztrák hajós hölgy)
    Rákosi Mária (Prücsök, Mária huga)
    Siménfalvy Sándor (Mária nagyapja)
    Szirtes Ádám (Mária apja)
    Surányi Imre

    A zárkózott, szűkszavú, érdes modorú öreg Gergely hajós, miután kimenti a vízből és hajóján munkát ad az öngyilkosjelölt leányanyának, a külvilág szemének bekötésére eljátssza a szerető férj szerepét. Csakhogy a fiatal lány és az öreg hajós tisztessége nem tűrheti az őszintétlenséget. A természetellenes kapcsolat menthetetlenül életképtelen, az ideiglenesen összefonódó életutaknak el kell válniuk egymástól.

    Format: Matroska at 1 869 kb/s
    Length: 1,04 GiB for 1 óra 19 perc 19 mp 520emp
    Video: AVC
    Aspect: 720 x 548 (1.314) at 25.000 fps
    Audio: AAC
    Infos: 2 csatorna, 48,0 kHz

    Rejtett tartalom:
    **Rejtett tartalom: A tartalom megjelenítéséhez kattints a 'Tetszik' gombra.**
     
  10. Zauberfl

    Zauberfl Állandó Tag

    Prés 1971
    Fekete-fehér magyar film 67 perc

    [​IMG]

    Írta: Maár Gyula
    Operatőr: Koltai Lajos
    Rendezte: Maár Gyula

    Szereplők:
    Szilárdy István - Fiú
    Törőcsik Mari - Teréz
    Szilágyi Tibor - Bálint
    Kőmíves Sándor - Tábornok
    Gór Nagy Mária - Juli
    Farády István - Bőrkabátos
    Kalocsay Miklós
    Maróti Gábor
    Pelsőczy László - Levente

    Egy kastélyban különös kiképzésre gyűjtött össze fiúkat a Tábornok és Bálint. A leendő nagy akcióhoz akarják kiválasztani közülük a leginkább rátermettet. A választás a Fiúra esik, akinek küldetése előtt ki kell állnia az utolsó próbát. Verni fogják, de nem árulhatja el összekötője nevét. A Fiú a verés alatt nem törik meg, utána azonban apátiába esik, nem hajlandó kimozdulni a szobájából. Teréz beszél vele érzelmesen, fenyegetően, logikusan - de hiába. Mikor Teréz elmondja Bálintnak, hogy a Fiú nem fog felkelni, a férfi kegyetlen parancsot ad neki...

    Format: Matroska at 1 869 kb/s
    Length: 899 MiB for 1 óra 7 perc 13 mp 450emp
    Video: AVC
    Aspect: 720 x 576 (1.250) at 25.000 fps
    Audio: AAC
    Infos: 2 csatorna, 48,0 kHz


    Rejtett tartalom:
    **Rejtett tartalom: A tartalom megjelenítéséhez kattints a 'Tetszik' gombra.**
     
  11. csoroge

    csoroge Aktív tag

    Kincsem

    magyar romantikus kalandfilm, 121 perc, 2017




    [​IMG]


    Kritika: Kincsem - Megszelídíteni, nem betörni

    Blaskovich Ernő mindenét elvesztette a szabadságharc után. Céltalan, kicsapongó életet él, amikor egy nap megjelenik élete nagy lehetősége, Kincsem, a csodaló, akivel sikert sikerre halmoz az európai lóversenypályákon. Ezzel a sors tálcán kínálja neki az elégtételt, hogy nemes küzdelemben győzze le ősi ellenségét, von Oettingen bárót. Egyre durvuló rivalizálásukat azonban bonyolítja, hogy Ernő menthetetlenül beleszeret Klara von Oettingenbe, apja gyilkosának lányába. Vajon mi a fontosabb, a szerelem vagy a bosszú?


    Rendező:Gábor Herendi

    Szereplők:Ervin Nagy, Andrea Petrik, Tibor Gáspár, József Gyabronka

    Format : Matroska at 1 357 kb/s

    Length : 1,16 GiB for 2 óra 2 perc 4 mp 928emp

    Video #0 : AVC

    Aspect : 640 x 360 (1.778) at 24.000 fps

    Audio #0 : AAC

    Infos : 2 csatorna, 48,0 kHz


    Letöltés:

    Rejtett tartalom:
    **Rejtett tartalom: A tartalom megjelenítéséhez kattints a 'Tetszik' gombra.**



     
    eylo, datar, wagnerur100 és 1 másik tag kedveli ezt.
  12. Zauberfl

    Zauberfl Állandó Tag

    Ez a Józsi, ez a Józsi... 1978
    Magyar filmszatíra 57 perc

    [​IMG]

    Karinthy Ferenc Aranyidők c. kisregényéből
    Írta: SzŐnyi G. Sándor
    Dramaturg: Szántó Erika
    Díszlet: Varga Mátyás
    Jelmez: Szekulesz Judit
    Operatőr: Ráday Mihály
    Rendező: SzŐnyi G. Sándor

    Szereplők:
    Bede László
    Foda Márta (Adri Ferenczyné lánya)
    Gelecsényi Sára
    Gosztonyi János
    Hámori Ildikó (Nelli)
    Kádár Flóra (Cselédlány)
    Kerekes József
    Mitru Alice
    Patassy Imre (Gyulavári)
    Pécsi Ildikó (Mikuczné)
    Rákosi Mária (Huszárné)
    Rátonyi Róbert (Alezredes)
    Sütő Irén (Alezredesné)
    Sztankay István (Józsi)
    Tordai Teri (Ferenczyné)
    Varga Irén (Házmesterné)
    Zoltay Miklós

    Filmszatíra egy jóképű nőcsábászról, Józsiról (Sztankay István) aki minden sármját latba vetve próbálja túlélni Budapest ostromát.

    Format: Matroska at 1 927 kb/s
    Length: 789 MiB for 57 perc 13 mp 568emp
    Video: AVC at 1 700 kb/s
    Aspect: 720 x 576 (1.250) at 25.000 fps
    Audio: AC-3 at 224 kb/s
    Infos: 2 csatorna, 48,0 kHz

    Rejtett tartalom:
    **Rejtett tartalom: A tartalom megjelenítéséhez kattints a 'Tetszik' gombra.**
     
  13. Zauberfl

    Zauberfl Állandó Tag

    A nagy képmás 1988
    Magyar tévéfilm 57 perc

    [​IMG]

    Írta: Dino Buzzati
    Fordította: Szabolcsi Éva
    Forgatókönyv: Liska Dénes
    Dramaturg: Jánosi Antal
    Díszlettervező: Nagy Sándor
    Jelmeztervező: Szekulesz Judit
    Vezető operatőr: Bónis Gyula
    Rendezte: Rajnai András

    Szereplők:
    Győrffy György (Ezredes)
    Inke László (Endriade professzor)
    Juhász Jácint (Strobele professzor)
    Láng József (Vestro százados)
    Némethy Ferenc (Manunta)
    Sáfár Anikó (Olga)
    Sós László (Katona)
    Szalay Edit (Elisa)
    Tordai Teri (Laura)
    Velenczey István (Ismoni professzor)

    Lehet-e a valóságban találkozni egy elhagyott erdőszélen zavart tekintetű középkorú férfiakkal? Lehetséges, állítja A nagy képmás írója, Dino Buzzatti 1960-ban, csak legyünk vele óvatosak. Történetesen olyan telephelyről is menekülhet, ahol éppen Frankenstein - szerű kísérleteket folytatnak, akkor meg okosabb ha óvatos az erdőjáró.

    Format: Matroska at 1 869 kb/s
    Length: 757 MiB for 56 perc 36 mp 400emp
    Video: AVC
    Aspect: 720 x 576 (1.250) at 25.000 fps
    Audio: AAC
    Infos: 2 csatorna, 48,0 kHz

    Rejtett tartalom:
    **Rejtett tartalom: A tartalom megjelenítéséhez kattints a 'Tetszik' gombra.**
     
  14. Zauberfl

    Zauberfl Állandó Tag

    Élő holttest 1984
    Tévéjáték 107 perc

    [​IMG]

    Írta: Lev Nyikolajevics Tolsztoj
    Fordította: Haimann HugÓ
    Dramaturg: Fáy László
    Díszlet: Zörgő János
    Jelmez: Csordás Ágnes
    Maszk: Tolnai András
    Dalszöveg: Rapai Ágnes
    Zene: Wolf Péter
    Vezető operatőr: Szalay László
    Rendezte: Havas Péter

    Szereplők:
    Bakó Márta
    Bencze Ferenc
    Benkóczy Zoltán
    Benkő Gyula
    Bessenyei Emma
    Cser Tamás
    Cserhalmi György
    Gelley Kornél
    Gera Zoltán
    Győri Ilona
    Hídvégi Miklós
    Hollósi Frigyes
    Jankovits József
    Kádár Flóra
    Koltai János
    Koncz Gábor
    Marton Katalin
    Papadimitriu Athina
    Raksányi Gellért
    Szerencsi Hugó
    Temessy Hédi
    Tordai Teri
    Udvarias Katalin
    Vajda László
    Velenczey István

    Fegya Protaszov válna Lizától, de az asszony nem akar. Fegya a cigányokhoz szökik, mert beleszeret Másába, s mert feleslegesnek érzi magát otthonában. Viktor Karenyin szereti Lizát s a nő kérésére elmegy Fegyáért, de Fegya nem tér haza. Viktor feleségül akarja venni Lizát, de anyja ellenzi a házasságkötést egy elvált asszonnyal...

    Format: Matroska at 1 870 kb/s
    Length: 1,40 GiB for 1 óra 46 perc 54 mp 920emp
    Video: AVC
    Aspect: 720 x 576 (1.250) at 25.000 fps
    Audio: AAC
    Infos: 2 csatorna, 48,0 kHz

    Rejtett tartalom:
    **Rejtett tartalom: A tartalom megjelenítéséhez kattints a 'Tetszik' gombra.**
     
  15. papadi

    papadi Állandó Tag

    [​IMG]
    Sose halunk meg
    Magyar film (1993)
    Főszereplők: Koltai Róbert, Szabados Mihály, Máté Gábor, Jordán Tamás, Kathleen Gáti, Lukáts Andor, Pogány Judit, Csákányi László, Lontay Margit
    Rendezte: Koltai Róbert
    Hunnia Filmstúdió / Arriel International, 2002, november 22.
    Hang: magyar
    Felirat: angol, német (csak a dvd-n)

    Tordai Imre színész munkája végeztével rohan az ügetőre. Szokása szerint veszít, de hirtelen felidéződik benne a kamaszkora, a hatvanas évek, amikor egyszer Gyuszi bácsival egyszer rengeteg pénzt nyertek. Vásározó vállfaárus nagybátyja vitte először lóversenyre, vidékre, vásárba, ő ismertette meg vele a szabadság, a nők, az élet ízeit néhány szertelen, furcsa nap alatt. Imi gátlásos, szorongó lénye értetlenül figyelte a nagy álmokat és kockázatot kergető nagybácsit...
    Koltai Róbert első filmjét kitörő lelkesedéssel fogadta a kritika és - ami a lényeg - a közönség!
    "Szívmelengető, szeretetreméltó utazás" - Kevin Thomas - Los Angeles Times
    "A Sose halunk meg bemutatja, milyen is volt az élet Magyarországon a 60-as években. Jack Nicholson vagy Gene Hackman legnagyobb alakításaihoz hasonlóan Koltai Róbert Gyuszi bácsijából is sugárzik az élet szeretete a mostoha körülmények közepette is." - Michael Wilmington - Chicago Tribune
    "A nevetés a legjobb orvosság. A Sose halunk meg milliónyi mosolyt ér." - Emily Mitchell - TIME
    "Az utóbbi évek egyik legfelhőtlenebb szórakoztatást nyújtó vígjátéka Kelet-Európából" - Lloyd Sachs - Chicago Sun Times
    "Régi szép idők, amikor lyukat rúghattunk az oroszok gólvonalán!..." - Farkasházy Tivadar


    Extrák: (csak a dvd-n)
    Koltai Róbert audiókommentárja
    Vállfát (filmet) vegyenek! - werkfilm (59:56)

    Média információ:
    Video:
    Kodek: MPEG-1/2 Video (mpgv)
    Felbontás: 720x576
    Képkockasebesség: 25
    Képformátum: 1.78:1 (16:9)
    Hang:
    Kodek: A52 Audio (aka AC3) (a52)
    Csatornák: Sztereó
    Mintavételi frekvencia: 48000 Hz
    Bitsebesség: 192 kb/mp
    Formátum: iso
    Méret: 7,11 GB
    Műsoridő: 1:25:19 (2:25:35)
    (prémium)
    Rejtett tartalom:
    **Rejtett tartalom: A tartalom megjelenítéséhez kattints a 'Tetszik' gombra.**
    [​IMG]
    Formátum: dvdrip/avi
    Méret: 1,10 MB
    Felbontás: 720x416
    Mintavételi frekvencia: 48000 Hz
    Bitsebesség: 128 kbps
    Műsoridő: 1:25:19
    Részletes média információ:
    Show Spoiler

    I:\Video\Sose halunk meg.avi
    General
    Complete name : I:\Video\Sose halunk meg.avi
    Format : AVI
    Format/Info : Audio Video Interleave
    File size : 1.11 GiB
    Duration : 1 h 25 min
    Overall bit rate : 1 860 kb/s
    Writing application : VirtualDubMod 1.5.4.1 (build 2178/release)
    Writing library : VirtualDubMod build 2178/release
    Video #0
    ID : 0
    Format : MPEG-4 Visual
    Format profile : Advanced [email protected]
    Format settings, BVOP : 1
    Format settings, QPel : No
    Format settings, GMC : No warppoints
    Format settings, Matrix : Custom
    Codec ID : XVID
    Codec ID/Hint : XviD
    Duration : 1 h 25 min
    Bit rate : 1 594 kb/s
    Width : 720 pixels
    Height : 416 pixels
    Display aspect ratio : 1.731
    Frame rate : 25.000 FPS
    Color space : YUV
    Chroma subsampling : 4:2:0
    Bit depth : 8 bits
    Scan type : Progressive
    Compression mode : Lossy
    Bits/(Pixel*Frame) : 0.213
    Stream size : 973 MiB (86%)
    Writing library : XviD 1.2.1 (UTC 2008-12-04)
    Audio #1
    ID : 1
    Format : MPEG Audio
    Format version : Version 1
    Format profile : Layer 3
    Mode : Joint stereo
    Mode extension : MS Stereo
    Codec ID : 55
    Codec ID/Hint : MP3
    Duration : 1 h 25 min
    Bit rate mode : Constant
    Bit rate : 128 kb/s
    Channel(s) : 2 channels
    Sampling rate : 48.0 kHz
    Compression mode : Lossy
    Stream size : 78.0 MiB (7%)
    Alignment : Aligned on interleaves
    Interleave, duration : 80 ms (2.00 video frames)
    Interleave, preload duration : 504 ms
    Writing library : LAME3.98r
    Encoding settings : -m j -V 4 -q 2 -lowpass 17 -b 128
    Audio #2
    ID : 2
    Format : MPEG Audio
    Format version : Version 1
    Format profile : Layer 3
    Mode : Joint stereo
    Mode extension : MS Stereo
    Codec ID : 55
    Codec ID/Hint : MP3
    Duration : 1 h 25 min
    Bit rate mode : Constant
    Bit rate : 128 kb/s
    Channel(s) : 2 channels
    Sampling rate : 48.0 kHz
    Compression mode : Lossy
    Stream size : 78.0 MiB (7%)
    Alignment : Aligned on interleaves
    Interleave, duration : 80 ms (2.00 video frames)
    Interleave, preload duration : 504 ms
    Writing library : LAME3.98r
    Encoding settings : -m j -V 4 -q 2 -lowpass 17 -b 128

    Rejtett tartalom:
    **Rejtett tartalom: A tartalom megjelenítéséhez kattints a 'Tetszik' gombra.**
    vagy free
    Rejtett tartalom:
    **Rejtett tartalom: A tartalom megjelenítéséhez kattints a 'Tetszik' gombra.**
     
  16. Zauberfl

    Zauberfl Állandó Tag

    33 névtelen levél 1985
    magyar tévéfilm 68 perc

    [​IMG]

    rendező: Radó Gyula
    forgatókönyvíró: Méhes György
    gyártásvezető: Lettner Lajos
    zeneszerző: Binder Károly
    operatőr: Kazinczky László
    vágó: Biksza Miklós

    Szereplők:
    Sunyovszky Szilvia (Zsóka)
    Bács Ferenc (Tamás)
    Tanay Bella (Terézia)
    Biluska Annamária (Irén)
    Borbáth Ottilia (Borika)
    Kun Vilmos (Lajos bácsi)
    Horváth Sándor (Iksz Mihály)
    Zsíros Ágnes (Iksz Zsuzsika)
    Paudits Béla (Kornél)
    Nagy Zoltán (Jánoska)
    Jáki Béla (Elemér)
    Szabó Imre (pedellus)
    Orbán Károly (laboráns)

    A harminchárom névtelen levél főhőse Tamás, a gimnáziumi igazgató becsületes, elvekkel rendelkező ember. Úgy tűnik, mégis megalkuvásra kényszerül. El tudja-e ezt kerülni és hogyan birkózik meg a ténnyel, hogy kollégái ismeretlen levelekkel kezdik bombázni őt és véleményét szintén bátran vállaló fizika tanárnő kedvesét, a karakán Zsókát? Változnak az idők, a helyszínek, de bizonyos elvi kérdések melletti kitartás, emberi tartás, és bizony a folyamatosan jelen lévő munkahelyi irigységek és áskálódások örökre életünk részei maradnak.

    Format: Matroska at 1 929 kb/s
    Length: 936 MiB for 1 óra 7 perc 50 mp 880emp
    Video: AVC at 1 700 kb/s
    Aspect: 720 x 576 (1.250) at 50.000 fps
    Audio: AC-3 at 224 kb/s
    Infos: 2 csatorna, 48,0 kHz


    Rejtett tartalom:
    **Rejtett tartalom: A tartalom megjelenítéséhez kattints a 'Tetszik' gombra.**
     
  17. Zauberfl

    Zauberfl Állandó Tag

    Budapesti mesék 1986
    magyar tévéfilm 58 perc

    [​IMG]

    Ambrus Zoltán (író, költő)
    Nagypál Endre (rendező)
    Jankovich Júlia (szerkesztő)
    Jánosa Lajos (díszlet)
    Mátai Lászlóné (gyártásvezető)
    Becsy Zoltán (operatőr)
    Jankovich Júlia (dramaturg)
    Juhász István (forgatókönyvíró)

    Szereplők:
    Horváth József ügyvédjelölt - Benkő Péter
    Rendőrkapitány - Csernák János
    Elemér - Márton András
    Őrnagy úr - Sinkovits Imre
    Tomanek Gábor
    Lenke/Ida - Takács Katalin
    Irma - Császár Angéla
    Terka - Eszenyi Enikő
    Máli - Göndör Klára
    Lotti - Komlós Juci
    Régiségkereskedő - Körmendi János
    János inas - Szilágyi István
    Tolvaj - Venczel Vera

    Ambrus Zoltán - nagyvárosi polgári életet ábrázoló - novelláiból készült tévéjáték kerettörténetét a Joker Klub kártyavendégeinek esti találkozói adják. Öt novella, melynek szereplői a társaság tagjai, kiegészülve a korra jellemző, karakteres hölgyekkel és urakkal: 1. A házibarát, 2. A porcelán, 3. Nicaragua őrnagy , 4. Eleöd kapitány kalandja, 5. A Montbars vívócsel.

    Format: Matroska at 1 929 kb/s
    Length: 798 MiB for 57 perc 49 mp 984emp
    Video: AVC at 1 700 kb/s
    Aspect: 720 x 576 (1.250) at 50.000 fps
    Audio: AC-3 at 224 kb/s
    Infos: 2 csatorna, 48,0 kHz


    Rejtett tartalom:
    **Rejtett tartalom: A tartalom megjelenítéséhez kattints a 'Tetszik' gombra.**
     
  18. Zauberfl

    Zauberfl Állandó Tag

    Szerencsétlen flótás 1979
    Magyar tévéfilm 52 perc

    [​IMG]

    Gaál Albert (rendező)
    Gaál Albert (forgatókönyvíró)
    Zeichán Béla (díszlet)
    Horányi Mária (jelmez)
    Boldizsár Károly (operatőr)

    Szereplők:
    Balogh Bodor Attila
    Báró Anna
    Benkő Gyula (Szoboszlay főorvos)
    Besztercei Zsuzsa
    Dávid Ágnes
    Dombóvári Ferenc
    Dunai Tamás (Jankovszky Jenő)
    Fenyvesi Balázs
    Fillár István
    Garamszegi Mária
    Hegedűs Erzsébet
    Horkai János
    Kádár Flóra
    Kárpáti Magda
    Kocsis Mária
    Lendvai Gyula
    Létai Klára
    Mányai Zsuzsa
    Pataki Ági
    Simon Géza
    Simon Zsuzsa
    Simorjai Éva
    Szimics Mihály
    Szoó György
    Telessy Györgyi
    Tóth Zsuzsa (Kovácsné)
    Újvári Nettka
    Venczel Vera (Ági)
    Vidó János
    Zoltay Miklós

    Jenőt, a közszeretetnek örvendő műtőst távollétében megválasztják szakszervezeti bizalminak. Ezután derül ki, hogy nem tagja a szakszervezetnek, sőt nem is dolgozója a kórháznak. A kémia-fizika szakos tanárból lett műtős, majd milliomossá váló vállalkozó groteszk életútján keresztül mutatja be a szatíra a társadalom fonákságát.

    Format: Matroska at 1 929 kb/s
    Length: 719 MiB for 52 perc 7 mp 840emp
    Video: AVC at 1 700 kb/s
    Aspect: 720 x 576 (1.250) at 50.000 fps
    Audio: AC-3 at 224 kb/s
    Infos: 2 csatorna, 48,0 kHz


    Rejtett tartalom:
    **Rejtett tartalom: A tartalom megjelenítéséhez kattints a 'Tetszik' gombra.**
     
  19. Zauberfl

    Zauberfl Állandó Tag

    Sok hűség semmiért 1966
    Fekete-fehér játékfilm 76 perc

    [​IMG]

    Palásthy György (rendező)
    Gyárfás Miklós (forgatókönyvíró)
    Forgács Ottó (operatőr)
    Rényi Tamás (dramaturg)
    Lovas Ferenc (zeneszerző)

    Szereplők:
    Tordai Teri (Éva)
    Ajtay Andor (A férje)
    Darvas Iván (A pilóta)
    Balázs Samu (Óbori igazgató)
    Garas Dezső (Gyulus, a futballcsillag)
    Latinovits Zoltán (A szobrászművész)
    Sulyok Mária (Jolánka)
    Bessenyei Ferenc (Az orvos)

    Az öregedő Andorka professzor szerencsére gyakran utazik külföldi konferenciákra, lehetőséget teremtve ezzel felesége hódolóinak az udvarlásra. Ám hiába minden, az asszonyka hűséges. De a szerelem, mint az alkohol öl, legalábbis ezt mondhatjuk Éva asszony udvarlóiról, akik sorban elhunynak... Így a szép asszonykát lassan sorozatgyilkossággal lehet gyanúsítani még akkor is, ha semmi mást nem tesz, csak hűséges. Ám lehet, egyszer az ő szíve is megesik valakin. De ki lesz a szerencsés...?

    Format: Matroska at 1 869 kb/s
    Length: 1 019 MiB for 1 óra 16 perc 12 mp 821emp
    Video: AVC
    Aspect: 720 x 576 (1.250) at 25.000 fps
    Audio: AAC
    Infos: 2 csatorna, 48,0 kHz


    Rejtett tartalom:
    **Rejtett tartalom: A tartalom megjelenítéséhez kattints a 'Tetszik' gombra.**
     
  20. Zauberfl

    Zauberfl Állandó Tag

    Hetedik év 1982
    Magyar játékfilm 85 perc

    [​IMG]

    Nemere László (rendező)
    Szántó Erika (dramaturg)
    Palotai Boris (író, költő)
    Szenteczky András (gyártásvezető)
    Czabarka György (operatőr)

    Szereplők:
    Bács Ferenc (Korbuly Miklós mérnök úr)
    Bodnár Erika (Piri)
    Horváth Sándor (Gaskó elvtárs)
    Komlós Juci (Korbuly anyja)
    Sinkovits Imre (Baróti)
    Tábori Nóra (Maca)
    Békés Itala (Richterné)
    Farkas Antal (Zámbó)
    Horváth József (özvegy Ács)
    Mányai Zsuzsa
    Venczel Vera (Barótiné Éva)
    Balogh Emese
    Balogh Erika
    Csányi János
    Csurka László
    Gonda György
    Kádár Flóra
    Kalocsai Ferenc
    Kollár Béla
    Kovács Károly
    Nagy István
    Pádua Ildikó
    Polgár Géza (vízvezetékszerelő)
    Sipeki Tibor
    Szekeres Ilona
    Szilágyi Eta
    Vidó János

    Az ötvenes években találkozik Korbuly Miklós mérnök a kétes előéletű Pirivel, akibe menthetetlenül beleszeret. Piri tőle telhetően alkalmazkodik az értelmiségi család életviteléhez, amíg egy véletlen fel nem kavarja az elfelejthetőnek hitt múltat...

    Format: Matroska at 1 929 kb/s
    Length: 1,15 GiB for 1 óra 25 perc 22 mp 0emp
    Video: AVC at 1 700 kb/s
    Aspect: 720 x 576 (1.250) at 50.000 fps
    Audio: AC-3 at 224 kb/s
    Infos: 2 csatorna, 48,0 kHz


    Rejtett tartalom:
    **Rejtett tartalom: A tartalom megjelenítéséhez kattints a 'Tetszik' gombra.**
     

Megosztás