Magyar filmek III itt nincs kérés

papadi

Állandó Tag
Állandó Tag
3022635-20190102-OgO9Ho.jpg

A skorpió megeszi az ikreket reggelire
Magyar filmvígjáték (1991)
Főszereplők: Rudolf Péter, Eszenyi Enikő, Törőcsik Mari, Garas Dezső
Rendezte: Gárdos Péter
Magyar filmek gyűjteménye 17.
Fantasy Film, 2007. január 12.
Tartalom a borítóról:
Tamás mintaférj. Ő a világ legboldogabb embere, mikor megszületik a kislánya. Egy telefonfülkéből akarja közölni az örömhírt szeretett nagyanyjával, de félretárcsáz. Panni, a gyönyörű fényképésznő veszi fel a telefont, s Tamás tíz perc múlva már ott csókolódzik a szőke ciklonnal a fülkében. Mindketten tudják, hogy ez a kapcsolat tönkre fogja tenni őket, s ráadásul a családjukat is. Még sincs megállás. Tamás élete fenekestül felfordul. Az ikrek szülöttjét magával rántja a skorpió lány viharos szerelme, a vad féltékenység, a pokoli szenvedés és a földöntúli boldogság. Tamás családja Ausztráliába költözik, nagyanyja meghal. Ő pedig magára marad, mert - ahogy mindig is tudta - Panni végül nem lesz az övé.
Extrák:
angol és magyar felirat
Interjú Gárdos Péter rendezővel pályafutásáról (14:50)
Interjú Rudolf Péterrel, a film főszereplőjével (12:31)
Gárdos Péter - Teljes rendezői filmográfia
Ajánló (2:31)
Média információ:
Video:
Kodek: MPEG-1/2 Video (mpgv)
Felbontás: 720x576
Képkockasebesség: 25
Képformátum: 1.37:1 (4:3)
Hang:
Kodek: A52 Audio (aka AC3) (a52)
Csatornák: 3F2R/LFE
Mintavételi frekvencia: 48000 Hz
Bitsebesség: 448 kb/mp
Formátum: iso
Méret: 5,49 GB
Műsoridő: 1:29:15 (1:59:08)
(prémium)
[HIDE-THANKS]
Kód:
https://data.hu/get/11606583/D2057i.part1.rar
https://data.hu/get/11606582/D2057i.part2.rar
https://data.hu/get/11606584/D2057i.part3.rar
https://data.hu/get/11606578/D2057i.part4.rar
https://data.hu/get/11606571/D2057i.part5.rar
https://data.hu/get/11606580/D2057i.part6.rar
[/HIDE-THANKS]

3022636-20190102-OXvqv0.jpg

Formátum: dvdrip/avi
Méret: 892 MB
Felbontás: 720x544
Mintavételi frekvencia: 48000 Hz
Bitsebesség: 128 kbps
Műsoridő: 1:29:15
Részletes média információ:
I:\Video\17 - A skorpió megeszi az ikreket reggelire.avi
General
Complete name : I:\Video\17 - A skorpió megeszi az ikreket reggelire.avi
Format : AVI
Format/Info : Audio Video Interleave
File size : 891 MiB
Duration : 1 h 29 min
Overall bit rate : 1 396 kb/s
Writing application : VirtualDubMod 1.5.4.1 (build 2178/release)
Writing library : VirtualDubMod build 2178/release
Video #0
ID : 0
Format : MPEG-4 Visual
Format profile : Advanced [email protected]
Format settings, BVOP : 1
Format settings, QPel : No
Format settings, GMC : No warppoints
Format settings, Matrix : Custom
Codec ID : XVID
Codec ID/Hint : XviD
Duration : 1 h 29 min
Bit rate : 1 261 kb/s
Width : 720 pixels
Height : 544 pixels
Display aspect ratio : 4:3
Frame rate : 25.000 FPS
Color space : YUV
Chroma subsampling : 4:2:0
Bit depth : 8 bits
Scan type : Progressive
Compression mode : Lossy
Bits/(Pixel*Frame) : 0.129
Stream size : 805 MiB (90%)
Writing library : XviD 1.2.1 (UTC 2008-12-04)
Audio #1
ID : 1
Format : MPEG Audio
Format version : Version 1
Format profile : Layer 3
Mode : Joint stereo
Mode extension : MS Stereo
Codec ID : 55
Codec ID/Hint : MP3
Duration : 1 h 29 min
Bit rate mode : Constant
Bit rate : 128 kb/s
Channel(s) : 2 channels
Sampling rate : 48.0 kHz
Compression mode : Lossy
Stream size : 81.7 MiB (9%)
Alignment : Aligned on interleaves
Interleave, duration : 80 ms (2.00 video frames)
Interleave, preload duration : 504 ms
Writing library : LAME3.98r
Encoding settings : -m j -V 4 -q 2 -lowpass 17 -b 128
[HIDE-THANKS]
Kód:
https://data.hu/get/11606581/D2057a.rar
[/HIDE-THANKS]
vagy free
[HIDE-THANKS]
Kód:
https://data.hu/get/11606579/D2057av.part1.rar
https://data.hu/get/11606568/D2057av.part2.rar
https://data.hu/get/11606573/D2057av.part3.rar
https://data.hu/get/11606574/D2057av.part4.rar
https://data.hu/get/11606572/D2057av.part5.rar
[/HIDE-THANKS]
 

papadi

Állandó Tag
Állandó Tag
3022637-20190102-Q9AhIW.jpg

Én vagyok Jeromos
Magyar vígjáték (1970)
Főszereplők: Alfonzó, Kállai Ferenc, Psota Irén, Harsányi Gábor, Pálos Zsuzsa, Bujtor István
Rendezte: Tímár István
Magyar filmek gyűjteménye 18.
Fantasy Film, 2007. január 12.
Tartalom a borítóról:
A Katona-házaspár régi álma, hogy végre valaki rendbe hozza a kertjük végében éktelenkedő pöcegödröt. Amikor egy reggel arra ébrednek, hogy a Fenntartó Vállalat dolgozója csönget be hozzájuk, felcsillan a remény. Jeromos úr és fia, Zserom munkamorálja azonban siralmas, hiába birtokolják már évek óta az állami vándorzászlót. A sör fogy, a táskarádióból üvölt a zene, a fű pedig lassacskán kikopik a pihenő munkások alatt, akik "modellt alszanak" az amatőr festő Katonánénak. A gödör viszont marad. Végül Katonáné és az asszisztens, Juditka bevetik magukat az ügy érdekében. Divatos bikinijük és kitűnő csirkepaprikásuk - némi jóféle házi pálinkával kísérve persze - meghozza a várt eredményt. A dolgozók munkakedve oly mértékben megjavul, hogy egyetlen éjszaka leforgása alatt elkészül a vadonatúj pöcegödör.
Extrák:
angol és magyar felirat
Ajánló (1:41)
Média információ:
Video:
Kodek: MPEG-1/2 Video (mpgv)
Felbontás: 720x576
Képkockasebesség: 25
Képformátum: 1.85:1 (16:9)
Hang:
Kodek: A52 Audio (aka AC3) (a52)
Csatornák: 3F2R/LFE
Mintavételi frekvencia: 48000 Hz
Bitsebesség: 448 kb/mp
Formátum: iso
Méret: 4,10 GB
Műsoridő: 1:13:12
(prémium)
[HIDE-THANKS]
Kód:
https://data.hu/get/11607129/D2413i.part1.rar
https://data.hu/get/11607132/D2413i.part2.rar
https://data.hu/get/11607127/D2413i.part3.rar
https://data.hu/get/11607130/D2413i.part4.rar
https://data.hu/get/11607128/D2413i.part5.rar
[/HIDE-THANKS]

3022638-20190102-PxNilt.jpg

Formátum: dvdrip/avi
Méret: 733 MB
Felbontás: 720x416
Mintavételi frekvencia: 48000 Hz
Bitsebesség: 128 kbps
Műsoridő: 1:13:12
Részletes média információ:
I:\Video\18 - Én vagyok Jeromos.avi
General
Complete name : I:\Video\18 - Én vagyok Jeromos.avi
Format : AVI
Format/Info : Audio Video Interleave
File size : 732 MiB
Duration : 1 h 13 min
Overall bit rate : 1 398 kb/s
Writing application : VirtualDubMod 1.5.4.1 (build 2178/release)
Writing library : VirtualDubMod build 2178/release
Video #0
ID : 0
Format : MPEG-4 Visual
Format profile : Advanced [email protected]
Format settings, BVOP : 1
Format settings, QPel : No
Format settings, GMC : No warppoints
Format settings, Matrix : Custom
Codec ID : XVID
Codec ID/Hint : XviD
Duration : 1 h 13 min
Bit rate : 1 263 kb/s
Width : 720 pixels
Height : 416 pixels
Display aspect ratio : 1.731
Frame rate : 25.000 FPS
Color space : YUV
Chroma subsampling : 4:2:0
Bit depth : 8 bits
Scan type : Progressive
Compression mode : Lossy
Bits/(Pixel*Frame) : 0.169
Stream size : 661 MiB (90%)
Writing library : XviD 1.2.1 (UTC 2008-12-04)
Audio #1
ID : 1
Format : MPEG Audio
Format version : Version 1
Format profile : Layer 3
Mode : Joint stereo
Mode extension : MS Stereo
Codec ID : 55
Codec ID/Hint : MP3
Duration : 1 h 13 min
Bit rate mode : Constant
Bit rate : 128 kb/s
Channel(s) : 2 channels
Sampling rate : 48.0 kHz
Compression mode : Lossy
Stream size : 67.0 MiB (9%)
Alignment : Aligned on interleaves
Interleave, duration : 80 ms (2.00 video frames)
Interleave, preload duration : 504 ms
Writing library : LAME3.98r
Encoding settings : -m j -V 4 -q 2 -lowpass 17 -b 128
[HIDE-THANKS]
Kód:
https://data.hu/get/11606924/D2413a.rar
[/HIDE-THANKS]
vagy free
[HIDE-THANKS]
Kód:
https://data.hu/get/11606920/D2413av.part1.rar
https://data.hu/get/11606919/D2413av.part2.rar
https://data.hu/get/11606921/D2413av.part3.rar
https://data.hu/get/11606927/D2413av.part4.rar
[/HIDE-THANKS]
 

papadi

Állandó Tag
Állandó Tag
3022640-20190102-h62Fjp.jpg

Falfúró
Magyar filmszatíra (1985)
Főszereplők: Bán János, Szatler Renáta, Szirtes Ági, Andorai Péter, Ujlaki Dénes
Rendezte: Szomjas György
Magyar filmek gyűjteménye 19.
Fantasy Film, 2006. október 26.
Tartalom a borítóról:
Géza (Bán János) egy lakótelepen él feleségével és két gyermekével. Egy napon elhatározza, hogy szakít minden kötöttséggel és új életet kezd. Még aznap ráborítja a művezetőjére az asztalt és kilép a gyárból. Önálló vállalkozásba kezd a lakótelepen, mint falfúró kisiparos. Így jut be könnyűvérű szomszédasszonya lakásába is, akivel szexuális viszonyt kezd és miatta a családját is otthagyja.
Extrák:
magyar felirat
Ajánló (1:41)
Média információ:
Video:
Kodek: MPEG-1/2 Video (mpgv)
Felbontás: 720x576
Képkockasebesség: 25
Képformátum: 1.37:1 (4:3)
Hang:
Kodek: A52 Audio (aka AC3) (a52)
Csatornák: 3F2R/LFE
Mintavételi frekvencia: 48000 Hz
Bitsebesség: 448 kb/mp
Formátum: iso
Méret: 4,16 GB
Műsoridő: 1:32:31
(prémium)
[HIDE-THANKS]
Kód:
https://data.hu/get/11607249/D2414i.part1.rar
https://data.hu/get/11607244/D2414i.part2.rar
https://data.hu/get/11607239/D2414i.part3.rar
https://data.hu/get/11607238/D2414i.part4.rar
https://data.hu/get/11607250/D2414i.part5.rar
[/HIDE-THANKS]

3022641-20190102-Fudh0V.jpg

Formátum: dvdrip/avi
Méret: 925 MB
Felbontás: 720x544
Mintavételi frekvencia: 48000 Hz
Bitsebesség: 128 kbps
Műsoridő: 1:32:30
Részletes média információ:
I:\Video\19 - Falfúró.avi
General
Complete name : I:\Video\19 - Falfúró.avi
Format : AVI
Format/Info : Audio Video Interleave
File size : 924 MiB
Duration : 1 h 32 min
Overall bit rate : 1 396 kb/s
Writing application : VirtualDubMod 1.5.4.1 (build 2178/release)
Writing library : VirtualDubMod build 2178/release
Video #0
ID : 0
Format : MPEG-4 Visual
Format profile : Advanced [email protected]
Format settings, BVOP : 1
Format settings, QPel : No
Format settings, GMC : No warppoints
Format settings, Matrix : Custom
Codec ID : XVID
Codec ID/Hint : XviD
Duration : 1 h 32 min
Bit rate : 1 260 kb/s
Width : 720 pixels
Height : 544 pixels
Display aspect ratio : 4:3
Frame rate : 25.000 FPS
Color space : YUV
Chroma subsampling : 4:2:0
Bit depth : 8 bits
Scan type : Progressive
Compression mode : Lossy
Bits/(Pixel*Frame) : 0.129
Stream size : 834 MiB (90%)
Writing library : XviD 1.2.1 (UTC 2008-12-04)
Audio #1
ID : 1
Format : MPEG Audio
Format version : Version 1
Format profile : Layer 3
Mode : Joint stereo
Mode extension : MS Stereo
Codec ID : 55
Codec ID/Hint : MP3
Duration : 1 h 32 min
Bit rate mode : Constant
Bit rate : 128 kb/s
Channel(s) : 2 channels
Sampling rate : 48.0 kHz
Compression mode : Lossy
Stream size : 84.7 MiB (9%)
Alignment : Aligned on interleaves
Interleave, duration : 80 ms (2.00 video frames)
Interleave, preload duration : 504 ms
Writing library : LAME3.98r
Encoding settings : -m j -V 4 -q 2 -lowpass 17 -b 128
[HIDE-THANKS]
Kód:
https://data.hu/get/11607247/D2414a.rar
[/HIDE-THANKS]
vagy free
[HIDE-THANKS]
Kód:
https://data.hu/get/11607248/D2414av.part1.rar
https://data.hu/get/11607246/D2414av.part2.rar
https://data.hu/get/11607240/D2414av.part3.rar
https://data.hu/get/11607241/D2414av.part4.rar
https://data.hu/get/11607245/D2414av.part5.rar
[/HIDE-THANKS]
 

papadi

Állandó Tag
Állandó Tag
3022642-20190102-Juucmu.jpg

A turné
Magyar filmvígjáték (1993)
Főszereplők: Eperjes Károly, Törőcsik Mari, Benedek Miklós, Bordán Irén, Ternyák Zoltán, Börcsök Enikő, Bezerédi Zoltán, Cseh Tamás
Rendezte: Bereményi Géza
Magyar filmek gyűjteménye 20.
Fantasy Film, 2007. január 12.
Tartalom a borítóról:
Vége az évadnak, közeleg a nyár. A színtársulatból páran úgy gondolják, csinos extrapénzre tehetnek szert, ha 40 nap alatt végigszáguldanak az országon, és lenyomnak 90 előadást. Hogy kemény menet lesz, azt mind sejtik. "Ha szerettek, én végig tudom csinálni." - mondja a társulat sztárja, Tibor (Eperjes Károly). De úgy tűnik, túl hosszú a negyven nap, és főleg a negyven éjszaka, túl zűrös a színészek lelkivilága. Kuszák a viszonyok, hiányzik a szeretet és szorít az idő. Tibor megérzi: ebbe az útba fog beledögleni.
Extrák:
magyar felirat
Interjú Beremányi Géza rendezővel pályafutásáról (22:46)
Bereményi Géza "A turné" forgatásáról (14:10)
Bereményi Géza - Teljes rendezői és forgatóókönyvírói filmográfia
Ajánló (2:31)
Média információ:
Video:
Kodek: MPEG-1/2 Video (mpgv)
Felbontás: 720x576
Képkockasebesség: 25
Képformátum: 1.37:1 (4:3)
Hang:
Kodek: A52 Audio (aka AC3) (a52)
Csatornák: 3F2R/LFE
Mintavételi frekvencia: 48000 Hz
Bitsebesség: 448 kb/mp
Formátum: iso
Méret: 5,67 GB
Műsoridő: 1:29:30 (2:08:59)
(prémium)
[HIDE-THANKS]
Kód:
https://data.hu/get/11607611/D2415i.part1.rar
https://data.hu/get/11607607/D2415i.part2.rar
https://data.hu/get/11607609/D2415i.part3.rar
https://data.hu/get/11607613/D2415i.part4.rar
https://data.hu/get/11607612/D2415i.part5.rar
https://data.hu/get/11607604/D2415i.part6.rar
[/HIDE-THANKS]

3022643-20190102-XZFR9X.jpg

Formátum: dvdrip/avi
Méret: 896 MB
Felbontás: 720x544
Mintavételi frekvencia: 48000 Hz
Bitsebesség: 128 kbps
Műsoridő: 1:29:29
Részletes média információ:
I:\Video\20 - A turné.avi
General
Complete name : I:\Video\20 - A turné.avi
Format : AVI
Format/Info : Audio Video Interleave
File size : 895 MiB
Duration : 1 h 29 min
Overall bit rate : 1 398 kb/s
Writing application : VirtualDubMod 1.5.4.1 (build 2178/release)
Writing library : VirtualDubMod build 2178/release
Video #0
ID : 0
Format : MPEG-4 Visual
Format profile : Advanced [email protected]
Format settings, BVOP : 1
Format settings, QPel : No
Format settings, GMC : No warppoints
Format settings, Matrix : Custom
Codec ID : XVID
Codec ID/Hint : XviD
Duration : 1 h 29 min
Bit rate : 1 262 kb/s
Width : 720 pixels
Height : 544 pixels
Display aspect ratio : 4:3
Frame rate : 25.000 FPS
Color space : YUV
Chroma subsampling : 4:2:0
Bit depth : 8 bits
Scan type : Progressive
Compression mode : Lossy
Bits/(Pixel*Frame) : 0.129
Stream size : 808 MiB (90%)
Writing library : XviD 1.2.1 (UTC 2008-12-04)
Audio #1
ID : 1
Format : MPEG Audio
Format version : Version 1
Format profile : Layer 3
Mode : Joint stereo
Mode extension : MS Stereo
Codec ID : 55
Codec ID/Hint : MP3
Duration : 1 h 29 min
Bit rate mode : Constant
Bit rate : 128 kb/s
Channel(s) : 2 channels
Sampling rate : 48.0 kHz
Compression mode : Lossy
Stream size : 81.9 MiB (9%)
Alignment : Aligned on interleaves
Interleave, duration : 80 ms (2.00 video frames)
Interleave, preload duration : 504 ms
Writing library : LAME3.98r
Encoding settings : -m j -V 4 -q 2 -lowpass 17 -b 128
[HIDE-THANKS]
Kód:
https://data.hu/get/11607614/D2415a.rar
[/HIDE-THANKS]
vagy free
[HIDE-THANKS]
Kód:
https://data.hu/get/11607610/D2415av.part1.rar
https://data.hu/get/11607606/D2415av.part2.rar
https://data.hu/get/11607615/D2415av.part3.rar
https://data.hu/get/11607605/D2415av.part4.rar
https://data.hu/get/11607608/D2415av.part5.rar
[/HIDE-THANKS]
 

papadi

Állandó Tag
Állandó Tag
3022654-20190102-UuCCUk.jpg

Ripacsok
Magyar film (1980)
Főszereplők: Garas Dezső, Kern András, Udvaros Dorottya, Bárdi György, Major Tamás, Temessy Hédi
Rendezte: Sándor Pál
Magyar filmek gyűjteménye 21.
Fantasy Film, 2006 október 26.
Tartalom a borítóról:
Stock Ede (Garas Dezső) és Salamon András (Kern András) már évek óta ugyanazt a giccses kuplét adja elő estéről estére a "légnadrágban". András azonban hirtelen gondol egyet és lecseréli Edét Bogárkára (Udvaros Dorottya), a főnök szeretőjére. A csere nem váltja be András reményeit, az élet Bogárkával sem boldogabb. Ede is szenved, olyannyira, hogy kétszer is András életére tör. Családjuk és barátaik aggódva figyelik, ahogy kapcsolatuk elmérgesedik, de tehetetlenek. A szakítás mindkettőjüket rákényszeríti, hogy végiggondolják, mit tartanak igazán fontosnak az életben, és végül az elcsépelt dal is új tartalommal telik meg...
Extrák:
angol és magyar felirat
Exluzív interjú Sándor Pállal pályájáról, filmjeiről (17:32)
Sándor Pál a Ripacsok forgatásáról (12:55)
Sándor Pál életrajz és teljes filmográfia
Ajánló (2:31)
Média információ:
Video:
Kodek: MPEG-1/2 Video (mpgv)
Felbontás: 720x576
Képkockasebesség: 25
Képformátum: 1.37:1 (4:3)
Hang:
Kodek: A52 Audio (aka AC3) (a52)
Csatornák: 3F2R/LFE
Mintavételi frekvencia: 48000 Hz
Bitsebesség: 448 kb/mp
Formátum: iso
Méret: 5,71 GB
Műsoridő: 1:29:21 (2:02:23)
(prémium)
[HIDE-THANKS]
Kód:
https://data.hu/get/11607811/D2112i.part1.rar
https://data.hu/get/11607816/D2112i.part2.rar
https://data.hu/get/11607804/D2112i.part3.rar
https://data.hu/get/11607825/D2112i.part4.rar
https://data.hu/get/11607806/D2112i.part5.rar
https://data.hu/get/11607820/D2112i.part6.rar
[/HIDE-THANKS]

3022655-20190102-VRElTa.jpg

Formátum: dvdrip/avi
Méret: 895 MB
Felbontás: 720x544
Mintavételi frekvencia: 48000 Hz
Bitsebesség: 128 kbps
Műsoridő: 1:29:20
Részletes média információ:
I:\Video\21 - Ripacsok.avi
General
Complete name : I:\Video\21 - Ripacsok.avi
Format : AVI
Format/Info : Audio Video Interleave
File size : 893 MiB
Duration : 1 h 29 min
Overall bit rate : 1 398 kb/s
Writing application : VirtualDubMod 1.5.4.1 (build 2178/release)
Writing library : VirtualDubMod build 2178/release
Video #0
ID : 0
Format : MPEG-4 Visual
Format profile : Advanced [email protected]
Format settings, BVOP : 1
Format settings, QPel : No
Format settings, GMC : No warppoints
Format settings, Matrix : Custom
Codec ID : XVID
Codec ID/Hint : XviD
Duration : 1 h 29 min
Bit rate : 1 263 kb/s
Width : 720 pixels
Height : 544 pixels
Display aspect ratio : 4:3
Frame rate : 25.000 FPS
Color space : YUV
Chroma subsampling : 4:2:0
Bit depth : 8 bits
Scan type : Progressive
Compression mode : Lossy
Bits/(Pixel*Frame) : 0.129
Stream size : 807 MiB (90%)
Writing library : XviD 1.2.1 (UTC 2008-12-04)
Audio #1
ID : 1
Format : MPEG Audio
Format version : Version 1
Format profile : Layer 3
Mode : Joint stereo
Mode extension : MS Stereo
Codec ID : 55
Codec ID/Hint : MP3
Duration : 1 h 29 min
Bit rate mode : Constant
Bit rate : 128 kb/s
Channel(s) : 2 channels
Sampling rate : 48.0 kHz
Compression mode : Lossy
Stream size : 81.8 MiB (9%)
Alignment : Aligned on interleaves
Interleave, duration : 80 ms (2.00 video frames)
Interleave, preload duration : 504 ms
Writing library : LAME3.98r
Encoding settings : -m j -V 4 -q 2 -lowpass 17 -b 128
[HIDE-THANKS]
Kód:
https://data.hu/get/11607823/D2112a.rar
[/HIDE-THANKS]
vagy free
[HIDE-THANKS]
Kód:
https://data.hu/get/11607817/D2112av.part1.rar
https://data.hu/get/11607805/D2112av.part2.rar
https://data.hu/get/11607819/D2112av.part3.rar
https://data.hu/get/11607812/D2112av.part4.rar
https://data.hu/get/11607821/D2112av.part5.rar
[/HIDE-THANKS]
 

papadi

Állandó Tag
Állandó Tag
3022656-20190102-F7twd3.jpg

Kopaszkutya
Magyar zenés film (1981)
Főszereplők: Deák „Bill” Gyula, Földes László (Hobo), Kőrös József, Mareczky István, Pálmai Zoltán, Póka Egon, Schuszter Lóránt, Szász László, Szénich János
Rendezte: Szomjas György
Magyar filmek gyűjteménye 22.
Fantasy Film, 2006 október 26.
Tartalom a borítóról:
"Le kell menni kutyába, légy a kutyák királya!" - üvölti a mikrofonba Bill és Hobo többezer tabáni rajongó előtt. Hosszú volt az út, amíg a lepukkant vidéki művházakban turnézó, feldolgozásokat előadó zenekarból igazi rockbanda lett. A menedzser (Schuszter Lóránt) vérző orral hallgatja a "Hosszúlábú asszonyt", miután a banda tagjai a koncert előtt módszeresen végigverték, mert nem jött ki a tévé. Miközben mégis csak neki köszönhető a siker, igaz, erre már senki sem emlékszik…
Szomjas György kultuszfilmje igazi magyar rock-karriertörténet, a 80-as évek életérzésének tökéletes lenyomata, és nem utolsósorban a legjobb zenés filmek egyike, melyben a Hobo Blues Band mellett a korszak legnagyobb zenekarainak dalai, (P. Mobil, Omega, Rolling Stones) is elhangzanak.

Extrák:
angol és magyar felirat
Privát rocktörténet: Hobo Blues Band (A Filmmúzeum dokumentumfilmje) (59:06)
Szomjas György rendezői filmográfia
Ajánló (2:31)
3022658-20190102-hA7I95.jpg

Privát rocktörténet 10.: Hobo Blues Band
Magyar dokumentumfilm (2006)
Műsorvezető: Veress Dóra, Narrátor: Magyar Kinga
Szerkesztő-rendező: Gellért Gábor
Média információ:
Video:
Kodek: MPEG-1/2 Video (mpgv)
Felbontás: 720x576
Képkockasebesség: 25
Képformátum: 1.37:1 (4:3)
Hang:
Kodek: A52 Audio (aka AC3) (a52)
Csatornák: 3F2R/LFE
Mintavételi frekvencia: 48000 Hz
Bitsebesség: 448 kb/mp
Formátum: iso
Méret: 7,86 GB
Műsoridő: 1:35:25 (2:37:03)
(prémium)
[HIDE-THANKS]
Kód:
https://data.hu/get/11608257/D2118i.part01.rar
https://data.hu/get/11608256/D2118i.part02.rar
https://data.hu/get/11608251/D2118i.part03.rar
https://data.hu/get/11608255/D2118i.part04.rar
https://data.hu/get/11608252/D2118i.part05.rar
https://data.hu/get/11608253/D2118i.part06.rar
https://data.hu/get/11608250/D2118i.part07.rar
https://data.hu/get/11608254/D2118i.part08.rar
[/HIDE-THANKS]

3022657-20190102-HPs813.jpg

Formátum: dvdrip/avi
Méret: 953 MB
Felbontás: 720x544
Mintavételi frekvencia: 48000 Hz
Bitsebesség: 128 kbps
Műsoridő: 1:35:25
Részletes média információ:
I:\Video\22a - Kopaszkutya.avi
General
Complete name : I:\Video\22a - Kopaszkutya.avi
Format : AVI
Format/Info : Audio Video Interleave
File size : 952 MiB
Duration : 1 h 35 min
Overall bit rate : 1 395 kb/s
Writing application : VirtualDubMod 1.5.4.1 (build 2178/release)
Writing library : VirtualDubMod build 2178/release
Video #0
ID : 0
Format : MPEG-4 Visual
Format profile : Advanced [email protected]
Format settings, BVOP : 1
Format settings, QPel : No
Format settings, GMC : No warppoints
Format settings, Matrix : Custom
Codec ID : XVID
Codec ID/Hint : XviD
Duration : 1 h 35 min
Bit rate : 1 259 kb/s
Width : 720 pixels
Height : 544 pixels
Display aspect ratio : 4:3
Frame rate : 25.000 FPS
Color space : YUV
Chroma subsampling : 4:2:0
Bit depth : 8 bits
Scan type : Progressive
Compression mode : Lossy
Bits/(Pixel*Frame) : 0.129
Stream size : 860 MiB (90%)
Writing library : XviD 1.2.1 (UTC 2008-12-04)
Audio #1
ID : 1
Format : MPEG Audio
Format version : Version 1
Format profile : Layer 3
Mode : Joint stereo
Codec ID : 55
Codec ID/Hint : MP3
Duration : 1 h 35 min
Bit rate mode : Constant
Bit rate : 128 kb/s
Channel(s) : 2 channels
Sampling rate : 48.0 kHz
Compression mode : Lossy
Stream size : 87.4 MiB (9%)
Alignment : Aligned on interleaves
Interleave, duration : 80 ms (2.00 video frames)
Interleave, preload duration : 504 ms
Writing library : LAME3.98r
Encoding settings : -m j -V 4 -q 2 -lowpass 17 -b 128
[HIDE-THANKS]
Kód:
https://data.hu/get/11608030/D2118a1.rar
[/HIDE-THANKS]
vagy free
[HIDE-THANKS]
Kód:
https://data.hu/get/11608039/D2118a1v.part1.rar
https://data.hu/get/11608036/D2118a1v.part2.rar
https://data.hu/get/11608032/D2118a1v.part3.rar
https://data.hu/get/11608028/D2118a1v.part4.rar
https://data.hu/get/11608029/D2118a1v.part5.rar
[/HIDE-THANKS]

A film extrája:
3022658-20190102-hA7I95.jpg

Privát rocktörténet 10.: Hobo Blues Band
Magyar dokumentumfilm (2006)
Műsorvezető: Veress Dóra, Narrátor: Magyar Kinga
Szerkesztő-rendező: Gellért Gábor
3022659-20190102-TaIdBW.jpg

Formátum: dvdrip/avi
Méret: 692 MB
Felbontás: 720x482
Mintavételi frekvencia: 48000 Hz
Bitsebesség: 192 kbps
Műsoridő: 59:06
Részletes média információ:
I:\Video\22b - Privát rocktörténet 10 - Hobo Blues Band.avi
General
Complete name : I:\Video\22b - Privát rocktörténet 10 - Hobo Blues Band.avi
Format : AVI
Format/Info : Audio Video Interleave
File size : 691 MiB
Duration : 59 min
Overall bit rate : 1 635 kb/s
Writing application : VirtualDubMod 1.5.4.1 (build 2178/release)
Writing library : VirtualDubMod build 2178/release
Video #0
ID : 0
Format : MPEG-4 Visual
Format profile : Advanced [email protected]
Format settings, BVOP : 1
Format settings, QPel : No
Format settings, GMC : No warppoints
Format settings, Matrix : Custom
Codec ID : XVID
Codec ID/Hint : XviD
Duration : 59 min
Bit rate : 1 435 kb/s
Width : 720 pixels
Height : 432 pixels
Display aspect ratio : 5:3
Frame rate : 25.000 FPS
Color space : YUV
Chroma subsampling : 4:2:0
Bit depth : 8 bits
Scan type : Progressive
Compression mode : Lossy
Bits/(Pixel*Frame) : 0.185
Stream size : 607 MiB (88%)
Writing library : XviD 1.2.1 (UTC 2008-12-04)
Audio #1
ID : 1
Format : MPEG Audio
Format version : Version 1
Format profile : Layer 3
Mode : Joint stereo
Mode extension : MS Stereo
Codec ID : 55
Codec ID/Hint : MP3
Duration : 59 min
Bit rate mode : Constant
Bit rate : 192 kb/s
Channel(s) : 2 channels
Sampling rate : 48.0 kHz
Compression mode : Lossy
Stream size : 81.2 MiB (12%)
Alignment : Aligned on interleaves
Interleave, duration : 80 ms (2.00 video frames)
Interleave, preload duration : 504 ms
Writing library : LAME3.98r
Encoding settings : -m j -V 4 -q 2 -lowpass 18.6 -b 192
[HIDE-THANKS]
Kód:
https://data.hu/get/11608031/D2118a2.rar
[/HIDE-THANKS]
vagy free
[HIDE-THANKS]
Kód:
https://data.hu/get/11608033/D2118a2v.part1.rar
https://data.hu/get/11608037/D2118a2v.part2.rar
https://data.hu/get/11608035/D2118a2v.part3.rar
https://data.hu/get/11608034/D2118a2v.part4.rar
[/HIDE-THANKS]
 

papadi

Állandó Tag
Állandó Tag
3022660-20190102-VFPrX8.jpg

Talpuk alatt fütyül a szél
Magyar betyárfilm (1976)
Főszereplők: Djoko Rosic (Besaenyei Ferenc), Bujtor István, Vladan Holec (Cserhalmi György)
Rendezte: Szomjas György
Magyar filmek gyűjteménye 23.
Fantasy Film, 2007. január 12.
Tartalom a borítóról:
1837-ben járunk. Karcag városának elöljárói határtalan pénzéhségükben habozás nélkül feldúlják a város melletti, érintetlen pusztákat és megzavarják az ott legeltető pásztorok ősi életvitelét. Farkas Csapó Gyurka, a hírhedt betyár képes lenne megvédeni a puszta rendjét, de vajon kiállhatnak-e egy tömlöcből szökött rablógyilkos mellett a pusztaiak? Különösen nehéz kérdés ez Mérges Balázs csendbiztos számára, aki Gyurka legfőbb ellensége - mégis egyetlen igaz barátja. Egészen addig, míg egy betyárvezér meggyilkolását nem varrják a nyakába. Vérdíjat tűznek ki a fejére, s miután leszámolt ellenfelével, a pásztorok juttatják Gyurkát csendőrkézre és bitófára.
Extrák:
angol és magyar felirat
Ajánló (1:41)
Média információ:
Video:
Kodek: MPEG-1/2 Video (mpgv)
Felbontás: 720x576
Képkockasebesség: 25
Képformátum: 1.37:1 (4:3)
Hang:
Kodek: A52 Audio (aka AC3) (a52)
Csatornák: 3F2R/LFE
Mintavételi frekvencia: 48000 Hz
Bitsebesség: 448 kb/mp
Formátum: iso
Méret: 4,04 GB
Műsoridő: 1:27:17
(prémium)
[HIDE-THANKS]
Kód:
https://data.hu/get/11608303/D2416i.part1.rar
https://data.hu/get/11608301/D2416i.part2.rar
https://data.hu/get/11608306/D2416i.part3.rar
https://data.hu/get/11608309/D2416i.part4.rar
https://data.hu/get/11608310/D2416i.part5.rar
[/HIDE-THANKS]

3022661-20190102-O2u4Q4.jpg

Formátum: dvdrip/avi
Méret: 871 MB
Felbontás: 720x544
Mintavételi frekvencia: 48000 Hz
Bitsebesség: 128 kbps
Műsoridő: 1:27:17
Részletes média információ:
I:\Video\23 - Talpuk alatt fütyül a szél.avi
General
Complete name : I:\Video\23 - Talpuk alatt fütyül a szél.avi
Format : AVI
Format/Info : Audio Video Interleave
File size : 870 MiB
Duration : 1 h 27 min
Overall bit rate : 1 394 kb/s
Writing application : VirtualDubMod 1.5.4.1 (build 2178/release)
Writing library : VirtualDubMod build 2178/release
Video #0
ID : 0
Format : MPEG-4 Visual
Format profile : Advanced [email protected]
Format settings, BVOP : 1
Format settings, QPel : No
Format settings, GMC : No warppoints
Format settings, Matrix : Custom
Codec ID : XVID
Codec ID/Hint : XviD
Duration : 1 h 27 min
Bit rate : 1 259 kb/s
Width : 720 pixels
Height : 544 pixels
Display aspect ratio : 4:3
Frame rate : 25.000 FPS
Color space : YUV
Chroma subsampling : 4:2:0
Bit depth : 8 bits
Scan type : Progressive
Compression mode : Lossy
Bits/(Pixel*Frame) : 0.129
Stream size : 786 MiB (90%)
Writing library : XviD 1.2.1 (UTC 2008-12-04)
Audio #1
ID : 1
Format : MPEG Audio
Format version : Version 1
Format profile : Layer 3
Mode : Joint stereo
Mode extension : MS Stereo
Codec ID : 55
Codec ID/Hint : MP3
Duration : 1 h 27 min
Bit rate mode : Constant
Bit rate : 128 kb/s
Channel(s) : 2 channels
Sampling rate : 48.0 kHz
Compression mode : Lossy
Stream size : 79.9 MiB (9%)
Alignment : Aligned on interleaves
Interleave, duration : 80 ms (2.00 video frames)
Interleave, preload duration : 504 ms
Writing library : LAME3.98r
Encoding settings : -m j -V 4 -q 2 -lowpass 17 -b 128
[HIDE-THANKS]
Kód:
https://data.hu/get/11608307/D2416a.rar
[/HIDE-THANKS]
vagy free
[HIDE-THANKS]
Kód:
https://data.hu/get/11608305/D2416av.part1.rar
https://data.hu/get/11608302/D2416av.part2.rar
https://data.hu/get/11608300/D2416av.part3.rar
https://data.hu/get/11608308/D2416av.part4.rar
https://data.hu/get/11608304/D2416av.part5.rar
[/HIDE-THANKS]
 

papadi

Állandó Tag
Állandó Tag
3022662-20190102-6BTR3R.jpg

Szerencsés Dániel
Magyar filmdráma (1982)
Főszereplők: Törőcsik Mari, Garas Dezső, Margittay Ági, Major Tamás, Bodrogi Gyula, Kern András, Rudolf Péter, Zsótér Sándor
Rendezte: Sándor Pál
Magyar filmek gyűjteménye 24.
Fantasy Film, 2006. október 26.
Tartalom a borítóról:
Dani (Rudolf Péter) átlagos budapesti tizenéves a Garai utcából, akinek szerelme 1956 telén családjával együtt disszidál. Dani gondolkodás nélkül a szép Mariann után siet Ausztria felé, az egyik házban lakó fiú, Gyuri társaságában. Disszidensekkel és besúgókkal zsúfolásig tömött vonatuk nemsokára meg is érkezik a határ menti szállodához, ahol a menekülőknek be kell várni vezetőjüket. A szállodában várakozással töltött órák drámai hangulatban telnek. Mindenki számára eljött az utolsó lehetőség, hogy végiggondolja, megy-e vagy marad, hol és kivel éli le életét, s akar-e élni egyáltalán. A döntés csöppet sem könnyű, mert a történelem viharában szinte senkinek sem sikerül talpon maradnia, akármelyik oldalon is áll. Ráadásul az idősebbek éppoly tanácstalanul néznek a jövő elébe, mint a fiatalok.
Extrák:
magyar felirat
Interjú Sándor Pál rendezővel pályafutásáról (17:41)
Interjú Sándor Pállal a filmről (25:15)
Interjú Rudolf Péterrel (20:54)
Interjú Zsótér Sándorral (29:37)
Ajánló (2:31)
Média információ:
Video:
Kodek: MPEG-1/2 Video (mpgv)
Felbontás: 720x576
Képkockasebesség: 25
Képformátum: 1.37:1 (4:3)
Hang:
Kodek: A52 Audio (aka AC3) (a52)
Csatornák: 3F2R/LFE
Mintavételi frekvencia: 48000 Hz
Bitsebesség: 448 kb/mp
Formátum: iso
Méret: 7,77 GB
Műsoridő: 1:28:33 (3:04:31)
(prémium)
[HIDE-THANKS]
Kód:
https://data.hu/get/11608572/D2417i.part01.rar
https://data.hu/get/11608571/D2417i.part02.rar
https://data.hu/get/11608565/D2417i.part03.rar
https://data.hu/get/11608561/D2417i.part04.rar
https://data.hu/get/11608570/D2417i.part05.rar
https://data.hu/get/11608562/D2417i.part06.rar
https://data.hu/get/11608564/D2417i.part07.rar
https://data.hu/get/11608563/D2417i.part08.rar
[/HIDE-THANKS]

3022663-20190102-naLKon.jpg

Formátum: dvdrip/avi
Méret: 884 MB
Felbontás: 720x544
Mintavételi frekvencia: 48000 Hz
Bitsebesség: 128 kbps
Műsoridő: 1:28:32
Részletes média információ:
I:\Video\24 - Szerencsés Dániel.avi
General
Complete name : I:\Video\24 - Szerencsés Dániel.avi
Format : AVI
Format/Info : Audio Video Interleave
File size : 883 MiB
Duration : 1 h 28 min
Overall bit rate : 1 394 kb/s
Writing application : VirtualDubMod 1.5.4.1 (build 2178/release)
Writing library : VirtualDubMod build 2178/release
Video #0
ID : 0
Format : MPEG-4 Visual
Format profile : Advanced [email protected]
Format settings, BVOP : 1
Format settings, QPel : No
Format settings, GMC : No warppoints
Format settings, Matrix : Custom
Codec ID : XVID
Codec ID/Hint : XviD
Duration : 1 h 28 min
Bit rate : 1 259 kb/s
Width : 720 pixels
Height : 544 pixels
Display aspect ratio : 4:3
Frame rate : 25.000 FPS
Color space : YUV
Chroma subsampling : 4:2:0
Bit depth : 8 bits
Scan type : Progressive
Compression mode : Lossy
Bits/(Pixel*Frame) : 0.129
Stream size : 797 MiB (90%)
Writing library : XviD 1.2.1 (UTC 2008-12-04)
Audio #1
ID : 1
Format : MPEG Audio
Format version : Version 1
Format profile : Layer 3
Mode : Joint stereo
Mode extension : MS Stereo
Codec ID : 55
Codec ID/Hint : MP3
Duration : 1 h 28 min
Bit rate mode : Constant
Bit rate : 128 kb/s
Channel(s) : 2 channels
Sampling rate : 48.0 kHz
Compression mode : Lossy
Stream size : 81.1 MiB (9%)
Alignment : Aligned on interleaves
Interleave, duration : 80 ms (2.00 video frames)
Interleave, preload duration : 504 ms
Writing library : LAME3.98r
Encoding settings : -m j -V 4 -q 2 -lowpass 17 -b 128
[HIDE-THANKS]
Kód:
https://data.hu/get/11608566/D2417a.rar
[/HIDE-THANKS]
vagy free
[HIDE-THANKS]
Kód:
https://data.hu/get/11608560/D2417av.part1.rar
https://data.hu/get/11608567/D2417av.part2.rar
https://data.hu/get/11608569/D2417av.part3.rar
https://data.hu/get/11608568/D2417av.part4.rar
https://data.hu/get/11608573/D2417av.part5.rar
[/HIDE-THANKS]
 

papadi

Állandó Tag
Állandó Tag
3022666-20190102-NZ8IAr.jpg

Uramisten
Magyar film (1984)
Főszereplők: Feleki Kamill, Eperjes Károly, Dörner György, Csákányi László, Garas Dezső, Tábori Nóra, Nyakó Júlia, Papp Vera, Tarján Györgyi, Ujlaki Dénes
Rendezte: Gárdos Péter
Magyar filmek gyűjteménye 25.
Fantasy Film, 2006. október 26.
Tartalom a borítóról:
Sajek Oszkár (Eperjes Károly) cirkuszi akrobata, egy szerencsétlen baleset következtében kénytelen abbahagyni hordós ugrómutatványát. Új számot kell keresnie, és ő tudja is, mihez volna kedve. Az öreg szabaduló művész, Binder Lipót (Feleki Kamill) hajdani attrakcióját, "A Jégbe Zárt Ember" trükkjét szeretné megvásárolni. Egyetlen vágya, hogy ő is képes legyen órákat tölteni levegő nélkül, egy fagyos jégtömbbe zárva. E titok megfejtésére tesz fel mindent, ami az életben számára fontos. Lipi bácsi azonban makacs ember, ráadásul kegyetlen is. Kiélvezi a fiatalember rajongó érdeklődését, megalázkodó könyörgését, miközben esze ágában sincs elárulni a trükköt. Vajon ez a végletekig hiú ember a sírba is magával viszi a világszám titkát?
Extrák:
angol és magyar felirat
Exluzív interjú Gárdos Péterrel pályájáról, filmjeiről (14:34)
Gárdos Péter az Uramisten! forgatásáról (
Gárdos Péter filmográfia
Ajánló (2:31)
Média információ:
Video:
Kodek: MPEG-1/2 Video (mpgv)
Felbontás: 720x576
Képkockasebesség: 25
Képformátum: 1.37:1 (4:3)
Hang:
Kodek: A52 Audio (aka AC3) (a52)
Csatornák: 3F2R/LFE
Mintavételi frekvencia: 48000 Hz
Bitsebesség: 448 kb/mp
Formátum: iso
Méret: 6,04 GB
Műsoridő: 1:29:41 (2:09:49)
(prémium)
[HIDE-THANKS]
Kód:
https://data.hu/get/11609407/D2418i.part1.rar
https://data.hu/get/11609416/D2418i.part2.rar
https://data.hu/get/11609413/D2418i.part3.rar
https://data.hu/get/11609411/D2418i.part4.rar
https://data.hu/get/11609410/D2418i.part5.rar
https://data.hu/get/11609415/D2418i.part6.rar
[/HIDE-THANKS]

3022667-20190102-kdHHW7.jpg

Formátum: dvdrip/avi
Méret: 897 MB
Felbontás: 720x544
Mintavételi frekvencia: 48000 Hz
Bitsebesség: 128 kbps
Műsoridő: 1:29:40
Részletes média információ:
I:\Video\25 - Uramisten.avi
General
Complete name : I:\Video\25 - Uramisten.avi
Format : AVI
Format/Info : Audio Video Interleave
File size : 896 MiB
Duration : 1 h 29 min
Overall bit rate : 1 397 kb/s
Writing application : VirtualDubMod 1.5.4.1 (build 2178/release)
Writing library : VirtualDubMod build 2178/release
Video #0
ID : 0
Format : MPEG-4 Visual
Format profile : Advanced [email protected]
Format settings, BVOP : 1
Format settings, QPel : No
Format settings, GMC : No warppoints
Format settings, Matrix : Custom
Codec ID : XVID
Codec ID/Hint : XviD
Duration : 1 h 29 min
Bit rate : 1 261 kb/s
Width : 720 pixels
Height : 544 pixels
Display aspect ratio : 4:3
Frame rate : 25.000 FPS
Color space : YUV
Chroma subsampling : 4:2:0
Bit depth : 8 bits
Scan type : Progressive
Compression mode : Lossy
Bits/(Pixel*Frame) : 0.129
Stream size : 809 MiB (90%)
Writing library : XviD 1.2.1 (UTC 2008-12-04)
Audio #1
ID : 1
Format : MPEG Audio
Format version : Version 1
Format profile : Layer 3
Mode : Joint stereo
Mode extension : MS Stereo
Codec ID : 55
Codec ID/Hint : MP3
Duration : 1 h 29 min
Bit rate mode : Constant
Bit rate : 128 kb/s
Channel(s) : 2 channels
Sampling rate : 48.0 kHz
Compression mode : Lossy
Stream size : 82.1 MiB (9%)
Alignment : Aligned on interleaves
Interleave, duration : 80 ms (2.00 video frames)
Interleave, preload duration : 504 ms
Writing library : LAME3.98r
Encoding settings : -m j -V 4 -q 2 -lowpass 17 -b 128
[HIDE-THANKS]
Kód:
https://data.hu/get/11609404/D2418a.rar
[/HIDE-THANKS]
vagy free
[HIDE-THANKS]
Kód:
https://data.hu/get/11609405/D2418av.part1.rar
https://data.hu/get/11609412/D2418av.part2.rar
https://data.hu/get/11609403/D2418av.part3.rar
https://data.hu/get/11609414/D2418av.part4.rar
https://data.hu/get/11609408/D2418av.part5.rar
[/HIDE-THANKS]
 

papadi

Állandó Tag
Állandó Tag
3022668-20190102-42vlZz.jpg

Eldorádó
Magyar filmdráma (1988)
Főszereplők: Eperjes Károly, Pogány Judit, Eszenyi Enikő, Andorai Péter, Balkay Géza
Rendezte: Bereményi Géza
Magyar filmek gyűjteménye 26.
Fantasy Film, 2006. október 26.
Tartalom a borítóról:
1945. Monori Sándor (Eperjes Károly) a Teleki téri piac királya, akit mindenki Sanyi bácsiként tisztel. Ő az, aki fittyet hány arra, milyen a politikai rendszer, hiszen számára egyetlen törvény létezik: arannyal mindent és mindenkit meg lehet vásárolni. Amikor lánya terhesen tér haza Bécsből, Monori két marék ékszer árán szabadul meg vejétől, hogy születendő unokáját maga nevelhesse fel, és megtanítsa arra, hogyan lehet ebben az országban túlélni - akár egy halálosnak hitt betegséget is. 1956-ban aztán mindent elkövet, hogy családját külföldre juttassa, de úgy tűnik, ekkor már az arany is kevés a túléléshez...
Extrák:
magyar felirat
Ajánló (1:41)
Média információ:
Video:
Kodek: MPEG-1/2 Video (mpgv)
Felbontás: 720x576
Képkockasebesség: 25
Képformátum: 1.37:1 (4:3)
Hang:
Kodek: A52 Audio (aka AC3) (a52)
Csatornák: 3F2R/LFE
Mintavételi frekvencia: 48000 Hz
Bitsebesség: 448 kb/mp
Formátum: iso
Méret: 4,06 GB
Műsoridő: 1:39:07
(prémium)
[HIDE-THANKS]
Kód:
https://data.hu/get/11609727/D2419i.part1.rar
https://data.hu/get/11609729/D2419i.part2.rar
https://data.hu/get/11609726/D2419i.part3.rar
https://data.hu/get/11609724/D2419i.part4.rar
[/HIDE-THANKS]

3022669-20190102-Go5wlQ.jpg

Formátum: dvdrip/avi
Méret: 991 MB
Felbontás: 720x544
Mintavételi frekvencia: 48000 Hz
Bitsebesség: 128 kbps
Műsoridő: 1:39:06
Részletes média információ:
I:\Video\26 - Eldorádó.avi
General
Complete name : I:\Video\26 - Eldorádó.avi
Format : AVI
Format/Info : Audio Video Interleave
File size : 990 MiB
Duration : 1 h 39 min
Overall bit rate : 1 397 kb/s
Writing application : VirtualDubMod 1.5.4.1 (build 2178/release)
Writing library : VirtualDubMod build 2178/release
Video #0
ID : 0
Format : MPEG-4 Visual
Format profile : Advanced [email protected]
Format settings, BVOP : 1
Format settings, QPel : No
Format settings, GMC : No warppoints
Format settings, Matrix : Custom
Codec ID : XVID
Codec ID/Hint : XviD
Duration : 1 h 39 min
Bit rate : 1 262 kb/s
Width : 720 pixels
Height : 544 pixels
Display aspect ratio : 4:3
Frame rate : 25.000 FPS
Color space : YUV
Chroma subsampling : 4:2:0
Bit depth : 8 bits
Scan type : Progressive
Compression mode : Lossy
Bits/(Pixel*Frame) : 0.129
Stream size : 894 MiB (90%)
Writing library : XviD 1.2.1 (UTC 2008-12-04)
Audio #1
ID : 1
Format : MPEG Audio
Format version : Version 1
Format profile : Layer 3
Mode : Joint stereo
Mode extension : MS Stereo
Codec ID : 55
Codec ID/Hint : MP3
Duration : 1 h 39 min
Bit rate mode : Constant
Bit rate : 128 kb/s
Channel(s) : 2 channels
Sampling rate : 48.0 kHz
Compression mode : Lossy
Stream size : 90.7 MiB (9%)
Alignment : Aligned on interleaves
Interleave, duration : 80 ms (2.00 video frames)
Interleave, preload duration : 504 ms
Writing library : LAME3.98r
Encoding settings : -m j -V 4 -q 2 -lowpass 17 -b 128
[HIDE-THANKS]
Kód:
https://data.hu/get/11609734/D2419a.rar
[/HIDE-THANKS]
vagy free
[HIDE-THANKS]
Kód:
https://data.hu/get/11609733/D2419av.part1.rar
https://data.hu/get/11609723/D2419av.part2.rar
https://data.hu/get/11609730/D2419av.part3.rar
https://data.hu/get/11609732/D2419av.part4.rar
https://data.hu/get/11609731/D2419av.part5.rar
https://data.hu/get/11609728/D2419av.part6.rar
[/HIDE-THANKS]
 

papadi

Állandó Tag
Állandó Tag
3022670-20190102-WZQge9.jpg

Szamárköhögés
Magyar tragikomédia (1987)
Főszereplők: Törőcsik Mari, Garas Dezső, Hernádi Judit, Tóth Marcell, Kárász Eszter
Rendezte: Gárdos Péter
Magyar filmek gyűjteménye 27.
Fantasy Film, 2006. október 26.
Tartalom a borítóról:
Tomi és Annamari családjának történetén keresztül 1956 őszének eseményei elevenednek meg Gárdos Péter filmjében, s a gyerekek elbeszéléséből érzékelhetővé válik számunkra a kor hangulata. A gyerekek számára különös egyveleget alkot az öröm, hogy nem kell iskolába menni és a döbbenet, hogy átlőtték a kenyeret, amit a nagymama hozott. Az izgalom, hogy másoknál lehet aludni és a rémület, amikor holtan találják a portást az iskolában. Mindez örök nyomot hagy a testvérek lelkében, akik csak azért maradtak Magyarországon, mert Annamari éppen szamárköhögés-gyanús volt abban a történelmi pillanatban, amikor el lehetett volna menni innen...
Extrák:
angol és magyar felirat
Ajánló (1:41)
Média információ:
Video:
Kodek: MPEG-1/2 Video (mpgv)
Felbontás: 720x576
Képkockasebesség: 25
Képformátum: 1.37:1 (4:3)
Hang:
Kodek: A52 Audio (aka AC3) (a52)
Csatornák: 3F2R/LFE
Mintavételi frekvencia: 48000 Hz
Bitsebesség: 448 kb/mp
Formátum: iso
Méret: 4,05 GB
Műsoridő: 1:26:02
(prémium)
[HIDE-THANKS]
Kód:
https://data.hu/get/11609825/D2420i.part1.rar
https://data.hu/get/11609822/D2420i.part2.rar
https://data.hu/get/11609823/D2420i.part3.rar
https://data.hu/get/11609820/D2420i.part4.rar
https://data.hu/get/11609828/D2420i.part5.rar
[/HIDE-THANKS]

3022674-20190102-Wfak9L.jpg

Formátum: dvdrip/avi
Méret: 860 MB
Felbontás: 720x544
Mintavételi frekvencia: 48000 Hz
Bitsebesség: 128 kbps
Műsoridő: 1:26:01
Részletes média információ:
I:\Video\27 - Szamárköhögés.avi
General
Complete name : I:\Video\27 - Szamárköhögés.avi
Format : AVI
Format/Info : Audio Video Interleave
File size : 859 MiB
Duration : 1 h 26 min
Overall bit rate : 1 396 kb/s
Writing application : VirtualDubMod 1.5.4.1 (build 2178/release)
Writing library : VirtualDubMod build 2178/release
Video #0
ID : 0
Format : MPEG-4 Visual
Format profile : Advanced [email protected]
Format settings, BVOP : 1
Format settings, QPel : No
Format settings, GMC : No warppoints
Format settings, Matrix : Custom
Codec ID : XVID
Codec ID/Hint : XviD
Duration : 1 h 26 min
Bit rate : 1 261 kb/s
Width : 720 pixels
Height : 544 pixels
Display aspect ratio : 4:3
Frame rate : 25.000 FPS
Color space : YUV
Chroma subsampling : 4:2:0
Bit depth : 8 bits
Scan type : Progressive
Compression mode : Lossy
Bits/(Pixel*Frame) : 0.129
Stream size : 776 MiB (90%)
Writing library : XviD 1.2.1 (UTC 2008-12-04)
Audio #1
ID : 1
Format : MPEG Audio
Format version : Version 1
Format profile : Layer 3
Mode : Joint stereo
Mode extension : MS Stereo
Codec ID : 55
Codec ID/Hint : MP3
Duration : 1 h 26 min
Bit rate mode : Constant
Bit rate : 128 kb/s
Channel(s) : 2 channels
Sampling rate : 48.0 kHz
Compression mode : Lossy
Stream size : 78.8 MiB (9%)
Alignment : Aligned on interleaves
Interleave, duration : 80 ms (2.00 video frames)
Interleave, preload duration : 504 ms
Writing library : LAME3.98r
Encoding settings : -m j -V 4 -q 2 -lowpass 17 -b 128
[HIDE-THANKS]
Kód:
https://data.hu/get/11609821/D2420a.rar
[/HIDE-THANKS]
vagy free
[HIDE-THANKS]
Kód:
https://data.hu/get/11609824/D2420av.part1.rar
https://data.hu/get/11609827/D2420av.part2.rar
https://data.hu/get/11609830/D2420av.part3.rar
https://data.hu/get/11609829/D2420av.part4.rar
https://data.hu/get/11609826/D2420av.part5.rar
[/HIDE-THANKS]
 

papadi

Állandó Tag
Állandó Tag
3022675-20190102-h0UlNS.jpg

Régi idők focija
Magyar vígjáték (1973)
Főszereplők: Garas Dezső, Major Tamás, Márkus László, Temessy Hédi, Esztergályos Cecilia, Szabó Gabriella, Péter Gizi, Kern András, Vogt Károly, Benkóczi Zoltán, Verebes István
Rendezte: Sándor Pál
Magyar filmek gyűjteménye 28.
Fantasy Film, 2006. október 26.
Tartalom a borítóról:.
Mert kell egy csapat! Minarik Ede, a mosodás él-hal a fociért és saját csapatáért, a Csabagyöngye SC-ért. A botcsinálta menedzser elsődleges célja, hogy bejussanak az első ligába és ennek érdekében hajlandó feláldozni mosodáját, összes pénzét, feleségét, sőt akár az életét is! Jöhetnek végrehajtók és vihetik, amit tudnak, gáncsolhatják gaz edzőtársak elcsábítva legjobb játékosait, Minarik csak megy előre és még az sem rendíti meg, amikor a kulcsmérkőzés előtt csodakapusa elszerződik.
Extrák:
angol és magyar felirat
Ajánló (1:41)
Média információ:
Video:
Kodek: MPEG-1/2 Video (mpgv)
Felbontás: 720x576
Képkockasebesség: 25
Képformátum: 1.37:1 (4:3)
Hang:
Kodek: A52 Audio (aka AC3) (a52)
Csatornák: 3F2R/LFE
Mintavételi frekvencia: 48000 Hz
Bitsebesség: 448 kb/mp
Formátum: iso
Méret: 3,94 GB
Műsoridő: 1:18:05
(prémium)
[HIDE-THANKS]
Kód:
https://data.hu/get/11609987/D2056i.part1.rar
https://data.hu/get/11609952/D2056i.part2.rar
https://data.hu/get/11609947/D2056i.part3.rar
https://data.hu/get/11610007/D2056i.part4.rar
[/HIDE-THANKS]

3022676-20190102-UI6U3i.jpg

Formátum: dvdrip/avi
Méret: 781 MB
Felbontás: 720x528
Mintavételi frekvencia: 48000 Hz
Bitsebesség: 128 kbps
Műsoridő: 1:18:04
Részletes média információ:
I:\Video\28 - Régi idök focija.avi
General
Complete name : I:\Video\28 - Régi idök focija.avi
Format : AVI
Format/Info : Audio Video Interleave
File size : 779 MiB
Duration : 1 h 18 min
Overall bit rate : 1 395 kb/s
Writing application : VirtualDubMod 1.5.4.1 (build 2178/release)
Writing library : VirtualDubMod build 2178/release
Video #0
ID : 0
Format : MPEG-4 Visual
Format profile : Advanced [email protected]
Format settings, BVOP : 1
Format settings, QPel : No
Format settings, GMC : No warppoints
Format settings, Matrix : Custom
Codec ID : XVID
Codec ID/Hint : XviD
Duration : 1 h 18 min
Bit rate : 1 260 kb/s
Width : 720 pixels
Height : 528 pixels
Display aspect ratio : 4:3
Frame rate : 25.000 FPS
Color space : YUV
Chroma subsampling : 4:2:0
Bit depth : 8 bits
Scan type : Progressive
Compression mode : Lossy
Bits/(Pixel*Frame) : 0.133
Stream size : 704 MiB (90%)
Writing library : XviD 1.2.1 (UTC 2008-12-04)
Audio #1
ID : 1
Format : MPEG Audio
Format version : Version 1
Format profile : Layer 3
Mode : Joint stereo
Mode extension : MS Stereo
Codec ID : 55
Codec ID/Hint : MP3
Duration : 1 h 18 min
Bit rate mode : Constant
Bit rate : 128 kb/s
Channel(s) : 2 channels
Sampling rate : 48.0 kHz
Compression mode : Lossy
Stream size : 71.5 MiB (9%)
Alignment : Aligned on interleaves
Interleave, duration : 80 ms (2.00 video frames)
Interleave, preload duration : 504 ms
Writing library : LAME3.98r
Encoding settings : -m j -V 4 -q 2 -lowpass 17 -b 128
[HIDE-THANKS]
Kód:
https://data.hu/get/11610006/D2056a.rar
[/HIDE-THANKS]
vagy free
[HIDE-THANKS]
Kód:
https://data.hu/get/11610008/D2056av.part1.rar
https://data.hu/get/11610009/D2056av.part2.rar
https://data.hu/get/11609948/D2056av.part3.rar
https://data.hu/get/11609999/D2056av.part4.rar
https://data.hu/get/11609949/D2056av.part5.rar
[/HIDE-THANKS]
 

papadi

Állandó Tag
Állandó Tag
3022677-20190102-trbdUu.jpg

Bogáncs
Fekete-fehér magyar film (1958)
Főszereplők: Makláry Zoltán, Barsi Béla, Vass Éva, Szabó Ernő, Kiss Ferenc
Rendezte: Fejér Tamás
Magyar filmek gyűjteménye 29.
Fantasy Film, 2007. január 12.
Tartalom a borítóról:
Bogáncs nemzetsége már ősidők óta kiválóan teljesíti szolgálatát a somodorpusztai pásztorok mellett. Egyszer azonban a kis puli túl messzire kóborol az erdőben, s csapdába kerül. Cirkuszosok szabadítják ki, és ettől kezdve Bogáncs élete kalandos fordulatot vesz. Kiderül, hogy a kutyus nem csak a birkaterelésben, de a cirkuszi komédiázásban is igen tehetséges. Ám sajnos a jólelkű mutatványosok is elveszítik őt. Bogáncs sintérkézre kerül. Mi lesz most nélküle a cirkuszi produkcióval? És vajon Mihály bácsi, a szőrösszívű kutyapecér valóban elpusztítja a kiskutyát? Vagy eredménnyel jár Máté, az öreg pásztor kutatása?
Extrák:
magyar felirat
Fejér Tamás filmográfia
Fekete István bibliográfia
Ajánló (2:31)
Média információ:
Video:
Kodek: MPEG-1/2 Video (mpgv)
Felbontás: 720x576
Képkockasebesség: 25
Képformátum: 1.37:1 (4:3)
Hang:
Kodek: A52 Audio (aka AC3) (a52)
Csatornák: 3F2R/LFE
Mintavételi frekvencia: 48000 Hz
Bitsebesség: 448 kb/mp
Formátum: iso
Méret: 4,23 GB
Műsoridő: 1:19:56
(prémium)
[HIDE-THANKS]
Kód:
https://data.hu/get/11610351/D2115i.part1.rar
https://data.hu/get/11610343/D2115i.part2.rar
https://data.hu/get/11610345/D2115i.part3.rar
https://data.hu/get/11610341/D2115i.part4.rar
https://data.hu/get/11610349/D2115i.part5.rar
[/HIDE-THANKS]

3022678-20190102-pUFQr5.jpg

Formátum: dvdrip/avi
Méret: 797 MB
Felbontás: 720x544
Mintavételi frekvencia: 48000 Hz
Bitsebesség: 128 kbps
Műsoridő: 1:19:56
Részletes média információ:
I:\Video\29 - Bogáncs.avi
General
Complete name : I:\Video\29 - Bogáncs.avi
Format : AVI
Format/Info : Audio Video Interleave
File size : 796 MiB
Duration : 1 h 19 min
Overall bit rate : 1 393 kb/s
Writing application : VirtualDubMod 1.5.4.1 (build 2178/release)
Writing library : VirtualDubMod build 2178/release
Video #0
ID : 0
Format : MPEG-4 Visual
Format profile : Advanced [email protected]
Format settings, BVOP : 1
Format settings, QPel : No
Format settings, GMC : No warppoints
Format settings, Matrix : Custom
Codec ID : XVID
Codec ID/Hint : XviD
Duration : 1 h 19 min
Bit rate : 1 257 kb/s
Width : 720 pixels
Height : 544 pixels
Display aspect ratio : 4:3
Frame rate : 25.000 FPS
Color space : YUV
Chroma subsampling : 4:2:0
Bit depth : 8 bits
Scan type : Progressive
Compression mode : Lossy
Bits/(Pixel*Frame) : 0.128
Stream size : 719 MiB (90%)
Writing library : XviD 1.2.1 (UTC 2008-12-04)
Audio #1
ID : 1
Format : MPEG Audio
Format version : Version 1
Format profile : Layer 3
Mode : Joint stereo
Mode extension : MS Stereo
Codec ID : 55
Codec ID/Hint : MP3
Duration : 1 h 19 min
Bit rate mode : Constant
Bit rate : 128 kb/s
Channel(s) : 2 channels
Sampling rate : 48.0 kHz
Compression mode : Lossy
Stream size : 73.2 MiB (9%)
Alignment : Aligned on interleaves
Interleave, duration : 80 ms (2.00 video frames)
Interleave, preload duration : 504 ms
Writing library : LAME3.98r
Encoding settings : -m j -V 4 -q 2 -lowpass 17 -b 128
[HIDE-THANKS]
Kód:
https://data.hu/get/11610346/D2115a.rar
[/HIDE-THANKS]
vagy free
[HIDE-THANKS]
Kód:
https://data.hu/get/11610329/D2115av.part1.rar
https://data.hu/get/11610342/D2115av.part2.rar
https://data.hu/get/11610328/D2115av.part3.rar
https://data.hu/get/11610352/D2115av.part4.rar
https://data.hu/get/11610347/D2115av.part5.rar
[/HIDE-THANKS]
 

papadi

Állandó Tag
Állandó Tag
3022680-20190102-1oeN1U.jpg

Rosszemberek
Magyar film (1978)
Főszereplők: Dzsokó Roszics (Djoko Rosic), Kiss Mari, Derzsi János, Dörner György fh., Szabó László
Rendezte: Szomjas György
Magyar filmek gyűjteménye 30.
Fantasy Film, 2007. január 12.
Tartalom a borítóról:
A kiegyezés előtti időkben járunk. Gelencsér Jóska, a hírhedt betyár szegénylegényekből verbuvált csapatával a környék összes Habsburg-barát nemesét végigrabolta már. A környező tanyák nincstelen lakói kiskirályként bánnak a fosztogató banda tagjaival. A hatóság emberei viszont aggódnak: ameddig ilyen barbár állapotok uralkodnak a vidéken, addig nem mernek vasútépítésbe kezdeni, pedig ez nélkülözhetetlen volna a gazdasági fejlődéshez.
Amikor Jóska kegyetlenül végez a marcali bíróval, öccse gyilkosával, betelik a pohár. Hegyessy főszolgabírót utasítják felettesei, hogy bármi áron számoljon le a bandával. Gelencsér azonban nem adja könnyen a bőrét, a banda az utolsó emberig küzd. A lövöldözésben sok csendőr is vérével fizet a békéért, a betyárok dicsősége pedig mindörökre leáldozik.

Extrák:
magyar felirat
Szomjas György filmográfia
Ajánló (2:31)
Média információ:
Video:
Kodek: MPEG-1/2 Video (mpgv)
Felbontás: 720x576
Képkockasebesség: 25
Képformátum: 1.37:1 (4:3)
Hang:
Kodek: A52 Audio (aka AC3) (a52)
Csatornák: 3F2R/LFE
Mintavételi frekvencia: 48000 Hz
Bitsebesség: 448 kb/mp
Formátum: iso
Méret: 4,35 GB
Műsoridő: 1:29:10
(prémium)
[HIDE-THANKS]
Kód:
https://data.hu/get/11610692/D2421i.part1.rar
https://data.hu/get/11610699/D2421i.part2.rar
https://data.hu/get/11610686/D2421i.part3.rar
https://data.hu/get/11610700/D2421i.part4.rar
https://data.hu/get/11610677/D2421i.part5.rar
[/HIDE-THANKS]

3022681-20190102-2PN7Eh.jpg

Formátum: dvdrip/avi
Méret: 894 MB
Felbontás: 720x544
Mintavételi frekvencia: 48000 Hz
Bitsebesség: 128 kbps
Műsoridő: 1:29:09
Részletes média információ:
I:\Video\30 - Rosszemberek.avi
General
Complete name : I:\Video\30 - Rosszemberek.avi
Format : AVI
Format/Info : Audio Video Interleave
File size : 890 MiB
Duration : 1 h 29 min
Overall bit rate : 1 395 kb/s
Writing application : VirtualDubMod 1.5.4.1 (build 2178/release)
Writing library : VirtualDubMod build 2178/release
Video #0
ID : 0
Format : MPEG-4 Visual
Format profile : Advanced [email protected]
Format settings, BVOP : 1
Format settings, QPel : No
Format settings, GMC : No warppoints
Format settings, Matrix : Custom
Codec ID : XVID
Codec ID/Hint : XviD
Duration : 1 h 29 min
Bit rate : 1 260 kb/s
Width : 720 pixels
Height : 544 pixels
Display aspect ratio : 4:3
Frame rate : 25.000 FPS
Color space : YUV
Chroma subsampling : 4:2:0
Bit depth : 8 bits
Scan type : Progressive
Compression mode : Lossy
Bits/(Pixel*Frame) : 0.129
Stream size : 803 MiB (90%)
Writing library : XviD 1.2.1 (UTC 2008-12-04)
Audio #1
ID : 1
Format : MPEG Audio
Format version : Version 1
Format profile : Layer 3
Mode : Joint stereo
Mode extension : MS Stereo
Codec ID : 55
Codec ID/Hint : MP3
Duration : 1 h 29 min
Bit rate mode : Constant
Bit rate : 128 kb/s
Channel(s) : 2 channels
Sampling rate : 48.0 kHz
Compression mode : Lossy
Stream size : 81.6 MiB (9%)
Alignment : Aligned on interleaves
Interleave, duration : 80 ms (2.00 video frames)
Interleave, preload duration : 504 ms
Writing library : LAME3.98r
Encoding settings : -m j -V 4 -q 2 -lowpass 17 -b 128
[HIDE-THANKS]
Kód:
https://data.hu/get/11610695/D2421a.rar
[/HIDE-THANKS]
vagy free
[HIDE-THANKS]
Kód:
https://data.hu/get/11610682/D2421av.part1.rar
https://data.hu/get/11610689/D2421av.part2.rar
https://data.hu/get/11610683/D2421av.part3.rar
https://data.hu/get/11610680/D2421av.part4.rar
https://data.hu/get/11610687/D2421av.part5.rar
[/HIDE-THANKS]
 

papadi

Állandó Tag
Állandó Tag
3024715-20190104-TiFTrd.jpg


Indul a bakterház
Magyar vígjáték (1979)
Főszereplők: Olvasztó Imre, Koltai Róbert, Horváth Teri, Haumann Péter, Pécsi Ildikó, Bánhidi László, Csákányi László
Rendezte: Mihályfy Sándor
MTV / MOKÉP, MOKÉP 015, 2003. április 8.

Regős Bendegúzt anyja szolgálni küldi a lókupechez, akitől a fiú megszökik. A bakterhez keveredik, s itt kezdődnek el a vidám bonyodalmak. (a borítóról)

Extrák: csaj a dvd-n
Rendezői kommentár
Rideg Sándor bibliográfia
Mihályfy Sándor filmográfia
Interjú - Ahogy a színész emlékezik (7:58)
Mert hasonlítanak! – Két könyv, két kamasz (Ábel a rengetegben – filmrészletek) (5:30)
Kölyökfilmek és jófej kölykök – filmrészletek:
Hahó Öcsi (1:09)
Égigérő fű (2:33)
Hahó a tenger (1:25)
Gyerekrablás a Palánk utcában (1:00)

Média információ:
Video:
Kodek: MPEG-1/2 Video (mpgv)
Felbontás: 720x576
Képkockasebesség: 25
Képformátum: 1.33:1 (4:3)
Hang:
Kodek: A52 Audio (aka AC3) (a52)
Csatornák: Sztereó
Mintavételi frekvencia: 48000 Hz
Bitsebesség: 192 kb/mp
Formátum: iso
Méret: 4,16 GB
Műsoridő: 1:06:10 (1:25:45)
(prémium)
[HIDE-THANKS]
Kód:
https://data.hu/get/11614902/D0690i.part1.rar
https://data.hu/get/11614907/D0690i.part2.rar
https://data.hu/get/11614901/D0690i.part3.rar
https://data.hu/get/11614904/D0690i.part4.rar
https://data.hu/get/11614908/D0690i.part5.rar
[/HIDE-THANKS]

3024716-20190104-qtRJDp.jpg

Formátum: dvdrip/avi
Méret: 880 MB
Felbontás: 720x544
Mintavételi frekvencia: 48000 Hz
Bitsebesség: 128 kbps
Műsoridő: 1:06:10
Részletes média információ:
I:\Video\Indul a bakterház.avi
General
Complete name : I:\Video\Indul a bakterház.avi
Format : AVI
Format/Info : Audio Video Interleave
File size : 879 MiB
Duration : 1 h 6 min
Overall bit rate : 1 856 kb/s
Writing application : VirtualDubMod 1.5.4.1 (build 2178/release)
Writing library : VirtualDubMod build 2178/release
Video #0
ID : 0
Format : MPEG-4 Visual
Format profile : Advanced [email protected]
Format settings, BVOP : 1
Format settings, QPel : No
Format settings, GMC : No warppoints
Format settings, Matrix : Custom
Codec ID : XVID
Codec ID/Hint : XviD
Duration : 1 h 6 min
Bit rate : 1 590 kb/s
Width : 720 pixels
Height : 544 pixels
Display aspect ratio : 4:3
Frame rate : 25.000 FPS
Color space : YUV
Chroma subsampling : 4:2:0
Bit depth : 8 bits
Scan type : Progressive
Compression mode : Lossy
Bits/(Pixel*Frame) : 0.162
Stream size : 753 MiB (86%)
Writing library : XviD 1.2.1 (UTC 2008-12-04)
Audio #1
ID : 1
Format : MPEG Audio
Format version : Version 1
Format profile : Layer 3
Mode : Joint stereo
Mode extension : MS Stereo
Codec ID : 55
Codec ID/Hint : MP3
Duration : 1 h 6 min
Bit rate mode : Constant
Bit rate : 128 kb/s
Channel(s) : 2 channels
Sampling rate : 48.0 kHz
Compression mode : Lossy
Stream size : 60.6 MiB (7%)
Alignment : Aligned on interleaves
Interleave, duration : 80 ms (2.00 video frames)
Interleave, preload duration : 504 ms
Writing library : LAME3.98r
Encoding settings : -m j -V 4 -q 2 -lowpass 17 -b 128
Audio #2
ID : 2
Format : MPEG Audio
Format version : Version 1
Format profile : Layer 3
Mode : Joint stereo
Mode extension : MS Stereo
Codec ID : 55
Codec ID/Hint : MP3
Duration : 1 h 6 min
Bit rate mode : Constant
Bit rate : 128 kb/s
Channel(s) : 2 channels
Sampling rate : 48.0 kHz
Compression mode : Lossy
Stream size : 60.6 MiB (7%)
Alignment : Aligned on interleaves
Interleave, duration : 80 ms (2.00 video frames)
Interleave, preload duration : 504 ms
Writing library : LAME3.98r
Encoding settings : -m j -V 4 -q 2 -lowpass 17 -b 128
[HIDE-THANKS]
Kód:
https://data.hu/get/11614909/D0690a.rar
[/HIDE-THANKS]
vagy free
[HIDE-THANKS]
Kód:
https://data.hu/get/11614903/D0690av.part1.rar
https://data.hu/get/11614905/D0690av.part2.rar
https://data.hu/get/11614906/D0690av.part3.rar
https://data.hu/get/11614911/D0690av.part4.rar
https://data.hu/get/11614910/D0690av.part5.rar
[/HIDE-THANKS]
 

papadi

Állandó Tag
Állandó Tag
Mephisto - magyar-német játékfilm (1981)
iso + dvdrip/avi,dual

3027838-20190108-qgtS3S.jpg


Mephisto
magyar-német játékfilm (1981)
Főszereplők: Klaus Maria Brandauer, Rolf Hoppe, Bánsági Ildikó, Krystyna Janda, Karin Boyd, Christine Harbort, Cserhalmi György, Andorai Péter
Rendezte: Szabó István
MANDA. 2012. január 10.
MANDA Magyar filmtörténeti sorozata 25
Hang: magyar, német
Felirat: angol (csak a dvd-n)

A Klaus Mann azonos című regénye nyomán készült Oscar-díjas film az örök fausti kérdésre keresi a választ: mivé formálódik a személyiség Közép-Európában a történelem nyomása alatt. Hendrik Höfgen, a rendkívüli tehetségű, megfelelni vágyó színész pályája magasan ível a 30-as évek Németországában... (a borítóról)

Extrák: csak a dvd-n
Egy nemzedék története - Születésnapi beszélgetés Szabó Istvánnal.
Szerkesztő-riporter: Wisinger István - részletek (1988) - 18:22

Média információ:
Video:
Kodek: MPEG-1/2 Video (mpgv)
Felbontás: 720x576
Képkockasebesség: 25
Képformátum: 1.66:1 (16:9)
Hang:
Kodek: A52 Audio (aka AC3) (a52)
Csatornák: Dual-mono
Mintavételi frekvencia: 48000 Hz
Bitsebesség: 224 kb/mp
Formátum: iso
Méret: 7,75 GB
Műsoridő: 2:19:00 (2:37:22)
(prémium)
[HIDE-THANKS]
Kód:
https://data.hu/get/11620935/D3352i.part01.rar
https://data.hu/get/11620937/D3352i.part02.rar
https://data.hu/get/11620932/D3352i.part03.rar
https://data.hu/get/11620939/D3352i.part04.rar
https://data.hu/get/11620934/D3352i.part05.rar
https://data.hu/get/11620933/D3352i.part06.rar
https://data.hu/get/11620936/D3352i.part07.rar
https://data.hu/get/11620938/D3352i.part08.rar
[/HIDE-THANKS]

3027839-20190108-39PFn0.jpg

Formátum: dvdrip/avi
Méret: 1,80 GB
Felbontás: 720x432
Mintavételi frekvencia: 48000 Hz
Bitsebesség: 128 kbps
Műsoridő: 2:19:00
Részletes média információ:
I:\Video\Mephisto.avi
General
Complete name : I:\Video\Mephisto.avi
Format : AVI
Format/Info : Audio Video Interleave
File size : 1.81 GiB
Duration : 2 h 19 min
Overall bit rate : 1 860 kb/s
Writing application : VirtualDubMod 1.5.4.1 (build 2178/release)
Writing library : VirtualDubMod build 2178/release
Video #0
ID : 0
Format : MPEG-4 Visual
Format profile : Advanced [email protected]
Format settings, BVOP : 1
Format settings, QPel : No
Format settings, GMC : No warppoints
Format settings, Matrix : Custom
Codec ID : XVID
Codec ID/Hint : XviD
Duration : 2 h 19 min
Bit rate : 1 594 kb/s
Width : 720 pixels
Height : 432 pixels
Display aspect ratio : 5:3
Frame rate : 25.000 FPS
Color space : YUV
Chroma subsampling : 4:2:0
Bit depth : 8 bits
Scan type : Progressive
Compression mode : Lossy
Bits/(Pixel*Frame) : 0.205
Stream size : 1.55 GiB (86%)
Writing library : XviD 1.2.1 (UTC 2008-12-04)
Audio #1
ID : 1
Format : MPEG Audio
Format version : Version 1
Format profile : Layer 3
Mode : Joint stereo
Mode extension : MS Stereo
Codec ID : 55
Codec ID/Hint : MP3
Duration : 2 h 19 min
Bit rate mode : Constant
Bit rate : 128 kb/s
Channel(s) : 2 channels
Sampling rate : 48.0 kHz
Compression mode : Lossy
Stream size : 127 MiB (7%)
Alignment : Aligned on interleaves
Interleave, duration : 80 ms (2.00 video frames)
Interleave, preload duration : 504 ms
Writing library : LAME3.98r
Encoding settings : -m j -V 4 -q 2 -lowpass 17 -b 128
Audio #2
ID : 2
Format : MPEG Audio
Format version : Version 1
Format profile : Layer 3
Mode : Joint stereo
Mode extension : MS Stereo
Codec ID : 55
Codec ID/Hint : MP3
Duration : 2 h 19 min
Bit rate mode : Constant
Bit rate : 128 kb/s
Channel(s) : 2 channels
Sampling rate : 48.0 kHz
Compression mode : Lossy
Stream size : 127 MiB (7%)
Alignment : Aligned on interleaves
Interleave, duration : 80 ms (2.00 video frames)
Interleave, preload duration : 504 ms
Writing library : LAME3.98r
Encoding settings : -m j -V 4 -q 2 -lowpass 17 -b 128
[HIDE-THANKS]
Kód:
https://data.hu/get/11620810/D3352a.part1.rar
https://data.hu/get/11620809/D3352a.part2.rar
[/HIDE-THANKS]
vagy free
[HIDE-THANKS]
Kód:
https://data.hu/get/11620815/D3352av.part01.rar
https://data.hu/get/11620812/D3352av.part02.rar
https://data.hu/get/11620813/D3352av.part03.rar
https://data.hu/get/11620819/D3352av.part04.rar
https://data.hu/get/11620818/D3352av.part05.rar
https://data.hu/get/11620820/D3352av.part06.rar
https://data.hu/get/11620814/D3352av.part07.rar
https://data.hu/get/11620816/D3352av.part08.rar
https://data.hu/get/11620817/D3352av.part09.rar
https://data.hu/get/11620811/D3352av.part10.rar
[/HIDE-THANKS]
 

Zauberfl

Állandó Tag
Állandó Tag
Doktor Senki 1977
Magyar tévéfilm 83 perc



Gábor Andor regényét
Televízióra alkalmazta: Málnay Levente
Szántó Erika
Dramaturg: Schulze Éva
Zeneszerző: Petrovics Emil
Díszlettervező: Ruttka Ferenc
Jelmeztervező: D. Forgó Teréz
Rendező: Málnay Levente

Szereplők:
Schenk I.János - Oszter Sándor
Czillérné, Adél - Małgorzata Braunek (Andai Györgyi)
Elza - Małgorzata Kszevinszka (Zsurzs Kati)
Porgesz - Páger Antal
Prokesch - Márkus László
Mlle. Nitouche - Békés Rita
Emma - Soproni Ági
Füredi Fábián - Benkő Gyula
Szenitzey - Balázs Péter
Rózsa Rezső - Sinkó László
Csopaki - Horesnyi László
Vámoscher - Mécs Károly
báró Friedszky - Pethes Sándor
Czeglédi Sándor
Szénási Ernő
Ruttka Ferenc
Horkay János
Kollár Béla
Tyll Attila
Adamcsák Ágnes
Bessenyei Emma
Kalmár Zsuzsa
Kölgyesi György
Ambrus András
Bálint György
Sárosi Gábor
Sörös Sándor


Schenk I. János kistisztviselő életének nagy álma az újságírás. Egy napon - különös véletlen következtében - teljesül az álom és Schenk I. János - alias Doktor Senki - a Függetlenség című ellenzéki orgánum tulajdonosa és főszerkesztője lesz. Az események viharos gyorsasággal peregnek, Dr. Senki - céljai eléréséhez minden lehetséges eszközt felhasználva - egyre magasabbra jut a társadalmi ranglétrán. A múlt század elején játszódó karriertörténet pontos látlelet, de nemcsak saját koráról.

Format: Matroska at 2 051 kb/s
Length: 1,20 GiB for 1 óra 23 perc 25 mp 840emp
Video: AVC
Aspect: 720 x 576 (1.250) at 25.000 fps
Audio: AAC
Infos: 2 csatorna, 48,0 kHz

[HIDE-THANKS]https://data.hu/dir/vf1la0zbti442330[/HIDE-THANKS]​
 

Zauberfl

Állandó Tag
Állandó Tag
A kertész kutyája 1984
Magyar tévéjáték 85 perc



Írta: Lope de Vega
Fordította: Gáspár Endre
Dramaturg: Lehel Judit
Zene: Novák János
Díszlet: Juhász Katalin
Építész: Polgár Béla
Jelmez: Witz Éva
Maszk: Tomola Katalin
Rendezte: Lengyel György

Szereplők:
Almási Éva
Vass Gábor
Cseke László
Márkus László
Tóth Enikő
Mányai Zsuzsa
Miklósy György
Nagy Zoltán
Székhelyi József
Kerekes József
Kováts Adél
Likkai László
Puskás Tamás


Diana grófnő minden gazdag kérőjét elutasítja, de beleszeret saját írnokába, Teodoróba. A grófnő megtudja, hogy Teodoró titkon szobalányát, Marcellát látogatja és ekkor döbben rá, hogy szereti a férfit. Diana ügyes praktikákkal közli az érzelmeit az írnokkal. Teodoró gyorsan felejti a szobalányt és szerelemre gyullad a grófnő iránt, aki a gőg és a féltékenység között, a szerelem és büszkeség között ingadozik. Teodoró szolgája addig mesterkedik, míg talál urának egy grófi atyát, így végül is elhárul a köztük levő akadály és szabadon szerethetik egymást.

Format: Matroska at 1 729 kb/s
Length: 1,02 GiB for 1 óra 24 perc 26 mp 820emp
Video: AVC at 1 500 kb/s
Aspect: 720 x 576 (1.250) at 50.000 fps
Audio: AC-3 at 224 kb/s
Infos: 2 csatorna, 48,0 kHz

[HIDE-THANKS]https://data.hu/dir/km8xaf59qj442360[/HIDE-THANKS]​
 

Zauberfl

Állandó Tag
Állandó Tag
Egy hónap falun (Месяц в деревне)1980
Magyar tévéjáték 83 perc



Írta: Ivan Szergejevics Turgenyev
Fordította: Elbert János
Dramaturg: Szántó Erika
Díszlettervező: Langmár András
Jelmeztervező: Wieber Marianne
Rendezte: Szirtes Tamás

Szereplők
Schaaf, német nevelő: Benedek Miklós
Anna Szemjonovna, Iszlajev édesanyja: Gobbi Hilda
Lizaveta, társalkodónő: Gyöngyössy Katalin
Spiegelszkij: Haumann Péter
Beljajev: Hegedűs D. Géza
Iszlajev földbirtokos: Koltai János
Vera, nevelt lányuk: Leviczky Klára
Rakityin: Mensáros László
Kátya, szolgálólány: Pap Vera
Natalja, a felesége: Ruttkai Éva
Matvej, szolga: Szénási Ernő
Bolsincov, szomszéd: Vajda László

Új tanító érkezik a birtokra Beljajev személyében. Natalja és Vera, a nevelt lánya is beleszeret az ifjúba. Natalját Rakityin is szereti. Kisebb-nagyobb bonyodalmak után Rakityin is, Beljajev is elutazik. Vera igent mond a szomszéd földbirtokosnak, pedig nem szereti. Iszlajev tud Rakatyin szerelméről, ezért örül a távozásnak, nem tudja, hogy felesége Beljajev miatt zokog.

Format: Matroska at 2 051 kb/s
Length: 1,18 GiB for 1 óra 22 perc 40 mp 128emp
Video: AVC
Aspect: 720 x 576 (1.250) at 25.000 fps
Audio: AAC
Infos: 2 csatorna, 48,0 kHz


[HIDE-THANKS]https://data.hu/dir/l802uc3cnu442363[/HIDE-THANKS]​
 

Zauberfl

Állandó Tag
Állandó Tag
Névtelen csillag (Steaua fără nume) 1971
Magyar ff. tévéjáték 124 perc



Írta: Mihail Sebastian
Fordította, tévére alkalmazta: Ádám Ottó
Dramaturg: Mészöly Dezső
Díszlettervező: Mátay Lívia
Jelmeztervező: Wieber Mariann
Operatőr: Darvas Máté
Rendezte: Ádám Ottó

Szereplők:
Haumann Péter - Marin Miroiu
Almási Éva - Mona
Szacsvay László - Udrea
Lőte Attila - Mona barátja
Muszte Anna fh. - Diáklány
Békés Itala - Cucu kisasszony
Basilides Zoltán - Állomásfőnök
Szénási Ernő
Horesnyi László
Gyenge Árpád
Bányai János

A poros román kisváros vasútállomásán leszállítanak egy estélyi ruhás, nagyvilági hölgyet a vonatról, mert nincs sem jegye, sem pénze. A helybeli gimnázium tanára felajánlja a rendkívüli nőnek, hogy töltse az éjszakát a lakásán..

Format: Matroska at 2 051 kb/s
Length: 1,78 GiB for 2 óra 4 perc 25 mp 685emp
Video: AVC
Aspect: 720 x 576 (1.250) at 25.000 fps
Audio: AAC
Infos: 2 csatorna, 48,0 kHz


[HIDE-THANKS]https://data.hu/dir/hk6t2nojfu442400[/HIDE-THANKS]

 
Oldal tetejére