Magyar filmek III itt nincs kérés

papadi

Állandó Tag

Hahó, a tenger!
Magyar ifjúsági film (1972)
Főszereplők: Kovács Krisztián, Muszte Anna, Balázsovits Lajos, Gobbi Hilda, Schütz Ila, György László, Csákányi László, Alfonzó, Markos Kati (Zeitler Orsi)
Rendezte: Palásthy György
Magyar filmek gyűjteménye 12.
Fantasy Film, 2006. november 15.
Tartalom a borítóról:
A szülők nagy gondban vannak. Hamarosan kisbabájuk születik, és fogalmuk sincs, hogy közöljék a hírt az első osztályos Öcsivel. Addig halogatják a dolgot, míg végül a kisfiú barátnőjétől, Évitől értesül a nagy újságról. Öcsi fel van háborodva, hogy mindent ő tud meg utoljára. Ráadásul fogalma sincs, miért örülnek szülei annyira egy idegennek, akiről azt sem tudni, fiú-e vagy lány. Mire azonban a családi Trabanttal hazaszállítják a kórházból a kis jövevényt, Öcsi is megbarátkozik a helyzettel. Még az "Öcsi" nevet is átadja a család legifjabb tagjának, és úgy dönt, ő ezután valódi keresztnevét fogja használni.
Extrák:
magyar felirat
Palásthy György Érdemes Művész (1977) - 1:19
Palásthy György forgatja a Szeleburdi családot (1981) - 1:48
Korabeli filmhíradó: Palásthy rendez: A Varázsló forgatásáról (1968) - 1:18
Ajánlók - 2:31
Média információ:
Video:
Kodek: MPEG-1/2 Video (mpgv)
Felbontás: 720x576
Képkockasebesség: 25
Képformátum: 1.37:1 (4:3)
Hang:
Kodek: A52 Audio (aka AC3) (a52)
Csatornák: 3F2R/LFE
Mintavételi frekvencia: 48000 Hz
Bitsebesség: 448 kb/mp
Formátum: iso
Méret: 3,97 GB
Műsoridő: 1:05:37 (1:12:33)
(prémium)
[HIDE-THANKS]
Kód:
https://data.hu/get/11604243/D2111i.part1.rar
https://data.hu/get/11604238/D2111i.part2.rar
https://data.hu/get/11604246/D2111i.part3.rar
https://data.hu/get/11604227/D2111i.part4.rar
[/HIDE-THANKS]


Formátum: dvdrip/avi
Méret: 656 MB
Felbontás: 720x544
Mintavételi frekvencia: 48000 Hz
Bitsebesség: 128 kbps
Műsoridő: 1:05:37
Részletes média információ:
I:\Video\12 - Hahó, a tenger!.avi
General
Complete name : I:\Video\12 - Hahó, a tenger!.avi
Format : AVI
Format/Info : Audio Video Interleave
File size : 655 MiB
Duration : 1 h 5 min
Overall bit rate : 1 395 kb/s
Writing application : VirtualDubMod 1.5.4.1 (build 2178/release)
Writing library : VirtualDubMod build 2178/release
Video #0
ID : 0
Format : MPEG-4 Visual
Format profile : Advanced [email protected]
Format settings, BVOP : 1
Format settings, QPel : No
Format settings, GMC : No warppoints
Format settings, Matrix : Custom
Codec ID : XVID
Codec ID/Hint : XviD
Duration : 1 h 5 min
Bit rate : 1 259 kb/s
Width : 720 pixels
Height : 544 pixels
Display aspect ratio : 4:3
Frame rate : 25.000 FPS
Color space : YUV
Chroma subsampling : 4:2:0
Bit depth : 8 bits
Scan type : Progressive
Compression mode : Lossy
Bits/(Pixel*Frame) : 0.129
Stream size : 591 MiB (90%)
Writing library : XviD 1.2.1 (UTC 2008-12-04)
Audio #1
ID : 1
Format : MPEG Audio
Format version : Version 1
Format profile : Layer 3
Mode : Joint stereo
Mode extension : MS Stereo
Codec ID : 55
Codec ID/Hint : MP3
Duration : 1 h 5 min
Bit rate mode : Constant
Bit rate : 128 kb/s
Channel(s) : 2 channels
Sampling rate : 48.0 kHz
Compression mode : Lossy
Stream size : 60.1 MiB (9%)
Alignment : Aligned on interleaves
Interleave, duration : 80 ms (2.00 video frames)
Interleave, preload duration : 504 ms
Writing library : LAME3.98r
Encoding settings : -m j -V 4 -q 2 -lowpass 17 -b 128
[HIDE-THANKS]
Kód:
https://data.hu/get/11604235/D2111a.rar
[/HIDE-THANKS]
vagy free
[HIDE-THANKS]
Kód:
https://data.hu/get/11604232/D2111av.part1.rar
https://data.hu/get/11604228/D2111av.part2.rar
https://data.hu/get/11604233/D2111av.part3.rar
https://data.hu/get/11604244/D2111av.part4.rar
[/HIDE-THANKS]
 

papadi

Állandó Tag

Kincskereső kis ködmön (Kincskereső kisködmön)
Magyar ifjúsági film (1972)
Főszereplők: Szűcs Gábor, Bihary József, Gruber István, Haumann Péter, Medgyesi Mária, Pongrácz Imre, Szirtes Ádám, Fónay Márta, Gobbi Hilda, Hegedűs Erzsébet, Vargha Irén
Rendezte: Szemes Mihály
Magyar filmek gyűjteménye 13.
Fantasy Film, 2007. január 12.
Tartalom a borítóról:
Szűcs Ferkó a nyomorban élő falusi gyermekek mindennapjait éli, de szárnyaló fantáziája segítségével a mesék és babonás történetek világába jut el. Édesapja egy gyönyörű ködmönt varr neki, melyben egy angyal vigyázza Ferkó minden lépését. Szükség is van rá, mert az öreg Küsmödi bácsi, az öreg bánya őre el akarja varázsolni, az iskolában pedig társai csúfolják. Ferkó a "csodatévő" kisködmön segítségével saját erejéből felül tud kerekedni a bajokon. Amikor új osztálytársa, a szerencsétlen sorsú kis Bicebóca ellenében csalást követ el, hogy ő nyerje el a matekdolgozat hibátlan megoldásáért járó Égbelátót, lelkiismeretfurdalás kezdi gyötörni és elhatározza, hogy minden bűnét jóvá teszi...
Extrák:
magyar felirat
Ajánló (1:41)
Média információ:
Video:
Kodek: MPEG-1/2 Video (mpgv)
Felbontás: 720x576
Képkockasebesség: 25
Képformátum: 1.37:1 (4:3)
Hang:
Kodek: A52 Audio (aka AC3) (a52)
Csatornák: 3F2R/LFE
Mintavételi frekvencia: 48000 Hz
Bitsebesség: 448 kb/mp
Formátum: iso
Méret: 4,07 GB
Műsoridő: 1:30:23
(prémium)
[HIDE-THANKS]
Kód:
https://data.hu/get/11604754/D2404i.part1.rar
https://data.hu/get/11604758/D2404i.part2.rar
https://data.hu/get/11604755/D2404i.part3.rar
https://data.hu/get/11604751/D2404i.part4.rar
https://data.hu/get/11604752/D2404i.part5.rar
[/HIDE-THANKS]


Formátum: dvdrip/avi
Méret: 902 MB
Felbontás: 720x544
Mintavételi frekvencia: 48000 Hz
Bitsebesség: 128 kbps
Műsoridő: 1:30:23
Részletes média információ:
I:\Video\13 - Kincskeresö kisködmön.avi
General
Complete name : I:\Video\13 - Kincskeresö kisködmön.avi
Format : AVI
Format/Info : Audio Video Interleave
File size : 901 MiB
Duration : 1 h 30 min
Overall bit rate : 1 394 kb/s
Writing application : VirtualDubMod 1.5.4.1 (build 2178/release)
Writing library : VirtualDubMod build 2178/release
Video #0
ID : 0
Format : MPEG-4 Visual
Format profile : Advanced [email protected]
Format settings, BVOP : 1
Format settings, QPel : No
Format settings, GMC : No warppoints
Format settings, Matrix : Custom
Codec ID : XVID
Codec ID/Hint : XviD
Duration : 1 h 30 min
Bit rate : 1 258 kb/s
Width : 720 pixels
Height : 544 pixels
Display aspect ratio : 4:3
Frame rate : 25.000 FPS
Color space : YUV
Chroma subsampling : 4:2:0
Bit depth : 8 bits
Scan type : Progressive
Compression mode : Lossy
Bits/(Pixel*Frame) : 0.128
Stream size : 813 MiB (90%)
Writing library : XviD 1.2.1 (UTC 2008-12-04)
Audio #1
ID : 1
Format : MPEG Audio
Format version : Version 1
Format profile : Layer 3
Mode : Joint stereo
Mode extension : MS Stereo
Codec ID : 55
Codec ID/Hint : MP3
Duration : 1 h 30 min
Bit rate mode : Constant
Bit rate : 128 kb/s
Channel(s) : 2 channels
Sampling rate : 48.0 kHz
Compression mode : Lossy
Stream size : 82.8 MiB (9%)
Alignment : Aligned on interleaves
Interleave, duration : 80 ms (2.00 video frames)
Interleave, preload duration : 504 ms
Writing library : LAME3.98r
Encoding settings : -m j -V 4 -q 2 -lowpass 17 -b 128
[HIDE-THANKS]
Kód:
https://data.hu/get/11604753/D2404a.rar
[/HIDE-THANKS]
vagy free
[HIDE-THANKS]
Kód:
https://data.hu/get/11604750/D2404av.part1.rar
https://data.hu/get/11604760/D2404av.part2.rar
https://data.hu/get/11604761/D2404av.part3.rar
https://data.hu/get/11604759/D2404av.part4.rar
https://data.hu/get/11604757/D2404av.part5.rar
[/HIDE-THANKS]
 

papadi

Állandó Tag

Budapesti mesék
Magyar filmdráma (1976)
Főszereplők: Mészáros Ági, Maja Komorowska, Franciszek Pieczka, Bálint András, Kovács Károly, Bánsági Ildikó, Madaras József, Simon Szurmiej, Huszárik Zoltán, Békés Rita, Bodis Irén, Kun Vilmos, Halmágyi Sándor, Jani János
Rendezte: Szabó István
Magyar filmek gyűjteménye 14.
Fantasy Film, 2007. január 12.
Tartalom a borítóról:
A nagy világégés után az emberek sorban bújnak elő rejtekhelyeikről. A Duna-parton egy felborult villamoskocsi fekszik, valamikor a városban róhatta az utcákat, de most ez jelképezi azt a pusztítást, melyet a háború végzett nemcsak az országban, de a fejekben és a lelkekben is. Az emberek összefognak és óriási erőfeszítések árán visszaemelik a sínre, amely talán elvezet a remízbe, vagyis a városba, ahol mindenki új életet kezdhet. A hihetetlenül hosszú, kegyetlenül nehéz utazás során megismerhetünk emberi sorsokat, konfliktusokat, szerelmeket és a nagy utazás végén kiderül, vajon érdemes volt-e a hosszú utat végigszenvedni mindazoknak, akik vállalták, hogy a villamost tolva újra felépíthetik a várost és saját életüket...
Extrák:
angol és magyar felirat
Ajánló (1:41)
Média információ:
Video:
Kodek: MPEG-1/2 Video (mpgv)
Felbontás: 720x576
Képkockasebesség: 25
Képformátum: 1.37:1 (4:3)
Hang:
Kodek: A52 Audio (aka AC3) (a52)
Csatornák: 3F2R/LFE
Mintavételi frekvencia: 48000 Hz
Bitsebesség: 448 kb/mp
Formátum: iso
Méret: 3,98 GB
Műsoridő: 0:00:00
(prémium)
[HIDE-THANKS]
Kód:
https://data.hu/get/11605311/D2405i.part1.rar
https://data.hu/get/11605308/D2405i.part2.rar
https://data.hu/get/11605310/D2405i.part3.rar
https://data.hu/get/11605304/D2405i.part4.rar
[/HIDE-THANKS]


Formátum: dvdrip/avi
Méret: 838 MB
Felbontás: 720x544
Mintavételi frekvencia: 48000 Hz
Bitsebesség: 128 kbps
Műsoridő: 1:24:06
Részletes média információ:
I:\Video\14 - Budapesti mesék.avi
General
Complete name : I:\Video\14 - Budapesti mesék.avi
Format : AVI
Format/Info : Audio Video Interleave
File size : 837 MiB
Duration : 1 h 24 min
Overall bit rate : 1 392 kb/s
Writing application : VirtualDubMod 1.5.4.1 (build 2178/release)
Writing library : VirtualDubMod build 2178/release
Video #0
ID : 0
Format : MPEG-4 Visual
Format profile : Advanced [email protected]
Format settings, BVOP : 1
Format settings, QPel : No
Format settings, GMC : No warppoints
Format settings, Matrix : Custom
Codec ID : XVID
Codec ID/Hint : XviD
Duration : 1 h 24 min
Bit rate : 1 256 kb/s
Width : 720 pixels
Height : 544 pixels
Display aspect ratio : 4:3
Frame rate : 25.000 FPS
Color space : YUV
Chroma subsampling : 4:2:0
Bit depth : 8 bits
Scan type : Progressive
Compression mode : Lossy
Bits/(Pixel*Frame) : 0.128
Stream size : 756 MiB (90%)
Writing library : XviD 1.2.1 (UTC 2008-12-04)
Audio #1
ID : 1
Format : MPEG Audio
Format version : Version 1
Format profile : Layer 3
Mode : Joint stereo
Mode extension : MS Stereo
Codec ID : 55
Codec ID/Hint : MP3
Duration : 1 h 24 min
Bit rate mode : Constant
Bit rate : 128 kb/s
Channel(s) : 2 channels
Sampling rate : 48.0 kHz
Compression mode : Lossy
Stream size : 77.0 MiB (9%)
Alignment : Aligned on interleaves
Interleave, duration : 80 ms (2.00 video frames)
Interleave, preload duration : 504 ms
Writing library : LAME3.98r
Encoding settings : -m j -V 4 -q 2 -lowpass 17 -b 128
[HIDE-THANKS]
Kód:
https://data.hu/get/11605306/D2405a.rar
[/HIDE-THANKS]
vagy free
[HIDE-THANKS]
Kód:
https://data.hu/get/11605300/D2405av.part1.rar
https://data.hu/get/11605307/D2405av.part2.rar
https://data.hu/get/11605298/D2405av.part3.rar
https://data.hu/get/11605309/D2405av.part4.rar
https://data.hu/get/11605297/D2405av.part5.rar
[/HIDE-THANKS]
 

papadi

Állandó Tag

Szabadíts meg a gonosztól!
Magyar filmdráma (1978)
Főszereplők: Psota Irén, Garas Dezső, Kútvölgyi Erzsébet, Kern András, Andorai Péter, Major Tamás, Margittai Ági, Rátonyi Róbert, Horváth Jenő
Rendezte: Sándor Pál
Magyar filmek gyűjteménye 15.
Fantasy Film, 2007. január 12.
Tartalom a borítóról:
A háború vége felé járunk. A Végvári Tánciskolában folyik a táncóra. András (Kern András) a ruhatáros Adorjánné fia kihasználva a légiriadó okozta zűrzavart, ellop egy kabátot, hogy miután eladta, a pénzből megvásárolhassa egy örömlány szolgáltatásait. A ruhatárosnő (Psota Irén) gyermekei és sógora, Svéd Feri (Garas Dezső) segítségével útnak indul, hogy visszaszerezze a kabátot és vele együtt becsületét. Útjuk valóságos pokoljárás a háború sújtotta város örömtanyáinak, sikátorainak, fürdőházainak fullasztó világában. A kabát megkerül ugyan, de a becsület örökre elveszett, azokkal az emberekkel együtt, akiknek emiatt meg kell halniuk...
Extrák:
angol és magyar felirat
Ajánló (1:41)
Média információ:
Video:
Kodek: MPEG-1/2 Video (mpgv)
Felbontás: 720x576
Képkockasebesség: 25
Képformátum: 1.37:1 (4:3)
Hang:
Kodek: A52 Audio (aka AC3) (a52)
Csatornák: 3F2R/LFE
Mintavételi frekvencia: 48000 Hz
Bitsebesség: 448 kb/mp
Formátum: iso
Méret: 3,97 GB
Műsoridő: 0:00:00
(prémium)
[HIDE-THANKS]
Kód:
https://data.hu/get/11605822/D2411i.part1.rar
https://data.hu/get/11605845/D2411i.part2.rar
https://data.hu/get/11605820/D2411i.part3.rar
https://data.hu/get/11605821/D2411i.part4.rar
[/HIDE-THANKS]


Formátum: dvdrip/avi
Méret: 877 MB
Felbontás: 720x544
Mintavételi frekvencia: 48000 Hz
Bitsebesség: 128 kbps
Műsoridő: 1:27:38
Részletes média információ:
I:\Video\15 - Szabadits meg a gonosztól.avi
General
Complete name : I:\Video\15 - Szabadits meg a gonosztól.avi
Format : AVI
Format/Info : Audio Video Interleave
File size : 876 MiB
Duration : 1 h 27 min
Overall bit rate : 1 398 kb/s
Writing application : VirtualDubMod 1.5.4.1 (build 2178/release)
Writing library : VirtualDubMod build 2178/release
Video #0
ID : 0
Format : MPEG-4 Visual
Format profile : Advanced [email protected]
Format settings, BVOP : 1
Format settings, QPel : No
Format settings, GMC : No warppoints
Format settings, Matrix : Custom
Codec ID : XVID
Codec ID/Hint : XviD
Duration : 1 h 27 min
Bit rate : 1 262 kb/s
Width : 720 pixels
Height : 544 pixels
Display aspect ratio : 4:3
Frame rate : 25.000 FPS
Color space : YUV
Chroma subsampling : 4:2:0
Bit depth : 8 bits
Scan type : Progressive
Compression mode : Lossy
Bits/(Pixel*Frame) : 0.129
Stream size : 791 MiB (90%)
Writing library : XviD 1.2.1 (UTC 2008-12-04)
Audio #1
ID : 1
Format : MPEG Audio
Format version : Version 1
Format profile : Layer 3
Mode : Joint stereo
Mode extension : MS Stereo
Codec ID : 55
Codec ID/Hint : MP3
Duration : 1 h 27 min
Bit rate mode : Constant
Bit rate : 128 kb/s
Channel(s) : 2 channels
Sampling rate : 48.0 kHz
Compression mode : Lossy
Stream size : 80.2 MiB (9%)
Alignment : Aligned on interleaves
Interleave, duration : 80 ms (2.00 video frames)
Interleave, preload duration : 504 ms
Writing library : LAME3.98r
Encoding settings : -m j -V 4 -q 2 -lowpass 17 -b 128
[HIDE-THANKS]
Kód:
https://data.hu/get/11605844/D2411a.rar
[/HIDE-THANKS]
vagy free
[HIDE-THANKS]
Kód:
https://data.hu/get/11605819/D2411av.part1.rar
https://data.hu/get/11605815/D2411av.part2.rar
https://data.hu/get/11605817/D2411av.part3.rar
https://data.hu/get/11605818/D2411av.part4.rar
https://data.hu/get/11605816/D2411av.part5.rar
[/HIDE-THANKS]
 

papadi

Állandó Tag

Idő van
Magyar filmdráma (1985)
Főszereplők: Lázár Kati, Zala Márk, Ruttkai Éva, Bitskey Tibor, Cseh Tamás, Bodrogi Gyula, Básti Juli, Kern András
Rendezte: Gothár Péter
Magyar filmek gyűjteménye 16.
Fantasy Film, 2007. január 12.
Tartalom a borítóról:
Halasi Mihály igazi magyar átlagember a '80-as évekből, aki pár hétre otthagyja a gyárat, bepattan a Trabantba feleségével és két gyerekével, aztán irány a vállalati üdülő. Még az M7-esre sem jut ki, amikor egy apró kellemetlenség kizökkenti az eseményeket a normális kerékvágásból. Misi rájön, hogy bent felejtette a gyárban a nemrég vásárolt vibrátort. Ettől kezdve útja kaotikus sodródás egy abszurd, kafkai világban: portásokkal vív fegyveres összecsapást, felesége bizarr betegsége ellen küzd, kórházi folyosók labirintusaiban kóvályog, szadista ellenőrnő áldozatául esik. Kálváriájában hősünk szenvedéseit anyja és testvére sem tudja enyhíteni. Egyedül kell megértenie, hogy élete nem fog önmagától értelmes történetté összeállni. Az embernek magának kell a lét komikus-fájdalmas összevisszaságában találni egy vezérfonalat, mely számára igazán lényeges - méghozzá sürgősen, mert: "Idő van".
Extrák:
angol és magyar felirat
Ajánló (1:41)
Média információ:
Video:
Kodek: MPEG-1/2 Video (mpgv)
Felbontás: 720x576
Képkockasebesség: 25
Képformátum: 1.37:1 (4:3)
Hang:
Kodek: A52 Audio (aka AC3) (a52)
Csatornák: 3F2R/LFE
Mintavételi frekvencia: 48000 Hz
Bitsebesség: 448 kb/mp
Formátum: iso
Méret: 4,34 GB
Műsoridő: 1:40:53
(prémium)
[HIDE-THANKS]
Kód:
https://data.hu/get/11606139/D2412i.part1.rar
https://data.hu/get/11606060/D2412i.part2.rar
https://data.hu/get/11606135/D2412i.part3.rar
https://data.hu/get/11606131/D2412i.part4.rar
https://data.hu/get/11606134/D2412i.part5.rar
[/HIDE-THANKS]


Formátum: dvdrip/avi
Méret: 0,98 GB
Felbontás: 720x544
Mintavételi frekvencia: 48000 Hz
Bitsebesség: 128 kbps
Műsoridő: 1:40:53
Részletes média információ:
I:\Video\16 - Idö van.avi
General
Complete name : I:\Video\16 - Idö van.avi
Format : AVI
Format/Info : Audio Video Interleave
File size : 1 006 MiB
Duration : 1 h 40 min
Overall bit rate : 1 394 kb/s
Writing application : VirtualDubMod 1.5.4.1 (build 2178/release)
Writing library : VirtualDubMod build 2178/release
Video #0
ID : 0
Format : MPEG-4 Visual
Format profile : Advanced [email protected]
Format settings, BVOP : 1
Format settings, QPel : No
Format settings, GMC : No warppoints
Format settings, Matrix : Custom
Codec ID : XVID
Codec ID/Hint : XviD
Duration : 1 h 40 min
Bit rate : 1 259 kb/s
Width : 720 pixels
Height : 544 pixels
Display aspect ratio : 4:3
Frame rate : 25.000 FPS
Color space : YUV
Chroma subsampling : 4:2:0
Bit depth : 8 bits
Scan type : Progressive
Compression mode : Lossy
Bits/(Pixel*Frame) : 0.129
Stream size : 908 MiB (90%)
Writing library : XviD 1.2.1 (UTC 2008-12-04)
Audio #1
ID : 1
Format : MPEG Audio
Format version : Version 1
Format profile : Layer 3
Mode : Joint stereo
Mode extension : MS Stereo
Codec ID : 55
Codec ID/Hint : MP3
Duration : 1 h 40 min
Bit rate mode : Constant
Bit rate : 128 kb/s
Channel(s) : 2 channels
Sampling rate : 48.0 kHz
Compression mode : Lossy
Stream size : 92.4 MiB (9%)
Alignment : Aligned on interleaves
Interleave, duration : 80 ms (2.00 video frames)
Interleave, preload duration : 504 ms
Writing library : LAME3.98r
Encoding settings : -m j -V 4 -q 2 -lowpass 17 -b 128
[HIDE-THANKS]
Kód:
https://data.hu/get/11606064/D2412a.part1.rar
https://data.hu/get/11606137/D2412a.part2.rar
[/HIDE-THANKS]
vagy free
[HIDE-THANKS]
Kód:
https://data.hu/get/11606063/D2412av.part1.rar
https://data.hu/get/11606136/D2412av.part2.rar
https://data.hu/get/11606065/D2412av.part3.rar
https://data.hu/get/11606138/D2412av.part4.rar
https://data.hu/get/11606133/D2412av.part5.rar
https://data.hu/get/11606132/D2412av.part6.rar
[/HIDE-THANKS]
 

papadi

Állandó Tag

A skorpió megeszi az ikreket reggelire
Magyar filmvígjáték (1991)
Főszereplők: Rudolf Péter, Eszenyi Enikő, Törőcsik Mari, Garas Dezső
Rendezte: Gárdos Péter
Magyar filmek gyűjteménye 17.
Fantasy Film, 2007. január 12.
Tartalom a borítóról:
Tamás mintaférj. Ő a világ legboldogabb embere, mikor megszületik a kislánya. Egy telefonfülkéből akarja közölni az örömhírt szeretett nagyanyjával, de félretárcsáz. Panni, a gyönyörű fényképésznő veszi fel a telefont, s Tamás tíz perc múlva már ott csókolódzik a szőke ciklonnal a fülkében. Mindketten tudják, hogy ez a kapcsolat tönkre fogja tenni őket, s ráadásul a családjukat is. Még sincs megállás. Tamás élete fenekestül felfordul. Az ikrek szülöttjét magával rántja a skorpió lány viharos szerelme, a vad féltékenység, a pokoli szenvedés és a földöntúli boldogság. Tamás családja Ausztráliába költözik, nagyanyja meghal. Ő pedig magára marad, mert - ahogy mindig is tudta - Panni végül nem lesz az övé.
Extrák:
angol és magyar felirat
Interjú Gárdos Péter rendezővel pályafutásáról (14:50)
Interjú Rudolf Péterrel, a film főszereplőjével (12:31)
Gárdos Péter - Teljes rendezői filmográfia
Ajánló (2:31)
Média információ:
Video:
Kodek: MPEG-1/2 Video (mpgv)
Felbontás: 720x576
Képkockasebesség: 25
Képformátum: 1.37:1 (4:3)
Hang:
Kodek: A52 Audio (aka AC3) (a52)
Csatornák: 3F2R/LFE
Mintavételi frekvencia: 48000 Hz
Bitsebesség: 448 kb/mp
Formátum: iso
Méret: 5,49 GB
Műsoridő: 1:29:15 (1:59:08)
(prémium)
[HIDE-THANKS]
Kód:
https://data.hu/get/11606583/D2057i.part1.rar
https://data.hu/get/11606582/D2057i.part2.rar
https://data.hu/get/11606584/D2057i.part3.rar
https://data.hu/get/11606578/D2057i.part4.rar
https://data.hu/get/11606571/D2057i.part5.rar
https://data.hu/get/11606580/D2057i.part6.rar
[/HIDE-THANKS]


Formátum: dvdrip/avi
Méret: 892 MB
Felbontás: 720x544
Mintavételi frekvencia: 48000 Hz
Bitsebesség: 128 kbps
Műsoridő: 1:29:15
Részletes média információ:
I:\Video\17 - A skorpió megeszi az ikreket reggelire.avi
General
Complete name : I:\Video\17 - A skorpió megeszi az ikreket reggelire.avi
Format : AVI
Format/Info : Audio Video Interleave
File size : 891 MiB
Duration : 1 h 29 min
Overall bit rate : 1 396 kb/s
Writing application : VirtualDubMod 1.5.4.1 (build 2178/release)
Writing library : VirtualDubMod build 2178/release
Video #0
ID : 0
Format : MPEG-4 Visual
Format profile : Advanced [email protected]
Format settings, BVOP : 1
Format settings, QPel : No
Format settings, GMC : No warppoints
Format settings, Matrix : Custom
Codec ID : XVID
Codec ID/Hint : XviD
Duration : 1 h 29 min
Bit rate : 1 261 kb/s
Width : 720 pixels
Height : 544 pixels
Display aspect ratio : 4:3
Frame rate : 25.000 FPS
Color space : YUV
Chroma subsampling : 4:2:0
Bit depth : 8 bits
Scan type : Progressive
Compression mode : Lossy
Bits/(Pixel*Frame) : 0.129
Stream size : 805 MiB (90%)
Writing library : XviD 1.2.1 (UTC 2008-12-04)
Audio #1
ID : 1
Format : MPEG Audio
Format version : Version 1
Format profile : Layer 3
Mode : Joint stereo
Mode extension : MS Stereo
Codec ID : 55
Codec ID/Hint : MP3
Duration : 1 h 29 min
Bit rate mode : Constant
Bit rate : 128 kb/s
Channel(s) : 2 channels
Sampling rate : 48.0 kHz
Compression mode : Lossy
Stream size : 81.7 MiB (9%)
Alignment : Aligned on interleaves
Interleave, duration : 80 ms (2.00 video frames)
Interleave, preload duration : 504 ms
Writing library : LAME3.98r
Encoding settings : -m j -V 4 -q 2 -lowpass 17 -b 128
[HIDE-THANKS]
Kód:
https://data.hu/get/11606581/D2057a.rar
[/HIDE-THANKS]
vagy free
[HIDE-THANKS]
Kód:
https://data.hu/get/11606579/D2057av.part1.rar
https://data.hu/get/11606568/D2057av.part2.rar
https://data.hu/get/11606573/D2057av.part3.rar
https://data.hu/get/11606574/D2057av.part4.rar
https://data.hu/get/11606572/D2057av.part5.rar
[/HIDE-THANKS]
 

papadi

Állandó Tag

Én vagyok Jeromos
Magyar vígjáték (1970)
Főszereplők: Alfonzó, Kállai Ferenc, Psota Irén, Harsányi Gábor, Pálos Zsuzsa, Bujtor István
Rendezte: Tímár István
Magyar filmek gyűjteménye 18.
Fantasy Film, 2007. január 12.
Tartalom a borítóról:
A Katona-házaspár régi álma, hogy végre valaki rendbe hozza a kertjük végében éktelenkedő pöcegödröt. Amikor egy reggel arra ébrednek, hogy a Fenntartó Vállalat dolgozója csönget be hozzájuk, felcsillan a remény. Jeromos úr és fia, Zserom munkamorálja azonban siralmas, hiába birtokolják már évek óta az állami vándorzászlót. A sör fogy, a táskarádióból üvölt a zene, a fű pedig lassacskán kikopik a pihenő munkások alatt, akik "modellt alszanak" az amatőr festő Katonánénak. A gödör viszont marad. Végül Katonáné és az asszisztens, Juditka bevetik magukat az ügy érdekében. Divatos bikinijük és kitűnő csirkepaprikásuk - némi jóféle házi pálinkával kísérve persze - meghozza a várt eredményt. A dolgozók munkakedve oly mértékben megjavul, hogy egyetlen éjszaka leforgása alatt elkészül a vadonatúj pöcegödör.
Extrák:
angol és magyar felirat
Ajánló (1:41)
Média információ:
Video:
Kodek: MPEG-1/2 Video (mpgv)
Felbontás: 720x576
Képkockasebesség: 25
Képformátum: 1.85:1 (16:9)
Hang:
Kodek: A52 Audio (aka AC3) (a52)
Csatornák: 3F2R/LFE
Mintavételi frekvencia: 48000 Hz
Bitsebesség: 448 kb/mp
Formátum: iso
Méret: 4,10 GB
Műsoridő: 1:13:12
(prémium)
[HIDE-THANKS]
Kód:
https://data.hu/get/11607129/D2413i.part1.rar
https://data.hu/get/11607132/D2413i.part2.rar
https://data.hu/get/11607127/D2413i.part3.rar
https://data.hu/get/11607130/D2413i.part4.rar
https://data.hu/get/11607128/D2413i.part5.rar
[/HIDE-THANKS]


Formátum: dvdrip/avi
Méret: 733 MB
Felbontás: 720x416
Mintavételi frekvencia: 48000 Hz
Bitsebesség: 128 kbps
Műsoridő: 1:13:12
Részletes média információ:
I:\Video\18 - Én vagyok Jeromos.avi
General
Complete name : I:\Video\18 - Én vagyok Jeromos.avi
Format : AVI
Format/Info : Audio Video Interleave
File size : 732 MiB
Duration : 1 h 13 min
Overall bit rate : 1 398 kb/s
Writing application : VirtualDubMod 1.5.4.1 (build 2178/release)
Writing library : VirtualDubMod build 2178/release
Video #0
ID : 0
Format : MPEG-4 Visual
Format profile : Advanced [email protected]
Format settings, BVOP : 1
Format settings, QPel : No
Format settings, GMC : No warppoints
Format settings, Matrix : Custom
Codec ID : XVID
Codec ID/Hint : XviD
Duration : 1 h 13 min
Bit rate : 1 263 kb/s
Width : 720 pixels
Height : 416 pixels
Display aspect ratio : 1.731
Frame rate : 25.000 FPS
Color space : YUV
Chroma subsampling : 4:2:0
Bit depth : 8 bits
Scan type : Progressive
Compression mode : Lossy
Bits/(Pixel*Frame) : 0.169
Stream size : 661 MiB (90%)
Writing library : XviD 1.2.1 (UTC 2008-12-04)
Audio #1
ID : 1
Format : MPEG Audio
Format version : Version 1
Format profile : Layer 3
Mode : Joint stereo
Mode extension : MS Stereo
Codec ID : 55
Codec ID/Hint : MP3
Duration : 1 h 13 min
Bit rate mode : Constant
Bit rate : 128 kb/s
Channel(s) : 2 channels
Sampling rate : 48.0 kHz
Compression mode : Lossy
Stream size : 67.0 MiB (9%)
Alignment : Aligned on interleaves
Interleave, duration : 80 ms (2.00 video frames)
Interleave, preload duration : 504 ms
Writing library : LAME3.98r
Encoding settings : -m j -V 4 -q 2 -lowpass 17 -b 128
[HIDE-THANKS]
Kód:
https://data.hu/get/11606924/D2413a.rar
[/HIDE-THANKS]
vagy free
[HIDE-THANKS]
Kód:
https://data.hu/get/11606920/D2413av.part1.rar
https://data.hu/get/11606919/D2413av.part2.rar
https://data.hu/get/11606921/D2413av.part3.rar
https://data.hu/get/11606927/D2413av.part4.rar
[/HIDE-THANKS]
 

papadi

Állandó Tag

Falfúró
Magyar filmszatíra (1985)
Főszereplők: Bán János, Szatler Renáta, Szirtes Ági, Andorai Péter, Ujlaki Dénes
Rendezte: Szomjas György
Magyar filmek gyűjteménye 19.
Fantasy Film, 2006. október 26.
Tartalom a borítóról:
Géza (Bán János) egy lakótelepen él feleségével és két gyermekével. Egy napon elhatározza, hogy szakít minden kötöttséggel és új életet kezd. Még aznap ráborítja a művezetőjére az asztalt és kilép a gyárból. Önálló vállalkozásba kezd a lakótelepen, mint falfúró kisiparos. Így jut be könnyűvérű szomszédasszonya lakásába is, akivel szexuális viszonyt kezd és miatta a családját is otthagyja.
Extrák:
magyar felirat
Ajánló (1:41)
Média információ:
Video:
Kodek: MPEG-1/2 Video (mpgv)
Felbontás: 720x576
Képkockasebesség: 25
Képformátum: 1.37:1 (4:3)
Hang:
Kodek: A52 Audio (aka AC3) (a52)
Csatornák: 3F2R/LFE
Mintavételi frekvencia: 48000 Hz
Bitsebesség: 448 kb/mp
Formátum: iso
Méret: 4,16 GB
Műsoridő: 1:32:31
(prémium)
[HIDE-THANKS]
Kód:
https://data.hu/get/11607249/D2414i.part1.rar
https://data.hu/get/11607244/D2414i.part2.rar
https://data.hu/get/11607239/D2414i.part3.rar
https://data.hu/get/11607238/D2414i.part4.rar
https://data.hu/get/11607250/D2414i.part5.rar
[/HIDE-THANKS]


Formátum: dvdrip/avi
Méret: 925 MB
Felbontás: 720x544
Mintavételi frekvencia: 48000 Hz
Bitsebesség: 128 kbps
Műsoridő: 1:32:30
Részletes média információ:
I:\Video\19 - Falfúró.avi
General
Complete name : I:\Video\19 - Falfúró.avi
Format : AVI
Format/Info : Audio Video Interleave
File size : 924 MiB
Duration : 1 h 32 min
Overall bit rate : 1 396 kb/s
Writing application : VirtualDubMod 1.5.4.1 (build 2178/release)
Writing library : VirtualDubMod build 2178/release
Video #0
ID : 0
Format : MPEG-4 Visual
Format profile : Advanced [email protected]
Format settings, BVOP : 1
Format settings, QPel : No
Format settings, GMC : No warppoints
Format settings, Matrix : Custom
Codec ID : XVID
Codec ID/Hint : XviD
Duration : 1 h 32 min
Bit rate : 1 260 kb/s
Width : 720 pixels
Height : 544 pixels
Display aspect ratio : 4:3
Frame rate : 25.000 FPS
Color space : YUV
Chroma subsampling : 4:2:0
Bit depth : 8 bits
Scan type : Progressive
Compression mode : Lossy
Bits/(Pixel*Frame) : 0.129
Stream size : 834 MiB (90%)
Writing library : XviD 1.2.1 (UTC 2008-12-04)
Audio #1
ID : 1
Format : MPEG Audio
Format version : Version 1
Format profile : Layer 3
Mode : Joint stereo
Mode extension : MS Stereo
Codec ID : 55
Codec ID/Hint : MP3
Duration : 1 h 32 min
Bit rate mode : Constant
Bit rate : 128 kb/s
Channel(s) : 2 channels
Sampling rate : 48.0 kHz
Compression mode : Lossy
Stream size : 84.7 MiB (9%)
Alignment : Aligned on interleaves
Interleave, duration : 80 ms (2.00 video frames)
Interleave, preload duration : 504 ms
Writing library : LAME3.98r
Encoding settings : -m j -V 4 -q 2 -lowpass 17 -b 128
[HIDE-THANKS]
Kód:
https://data.hu/get/11607247/D2414a.rar
[/HIDE-THANKS]
vagy free
[HIDE-THANKS]
Kód:
https://data.hu/get/11607248/D2414av.part1.rar
https://data.hu/get/11607246/D2414av.part2.rar
https://data.hu/get/11607240/D2414av.part3.rar
https://data.hu/get/11607241/D2414av.part4.rar
https://data.hu/get/11607245/D2414av.part5.rar
[/HIDE-THANKS]
 

papadi

Állandó Tag

A turné
Magyar filmvígjáték (1993)
Főszereplők: Eperjes Károly, Törőcsik Mari, Benedek Miklós, Bordán Irén, Ternyák Zoltán, Börcsök Enikő, Bezerédi Zoltán, Cseh Tamás
Rendezte: Bereményi Géza
Magyar filmek gyűjteménye 20.
Fantasy Film, 2007. január 12.
Tartalom a borítóról:
Vége az évadnak, közeleg a nyár. A színtársulatból páran úgy gondolják, csinos extrapénzre tehetnek szert, ha 40 nap alatt végigszáguldanak az országon, és lenyomnak 90 előadást. Hogy kemény menet lesz, azt mind sejtik. "Ha szerettek, én végig tudom csinálni." - mondja a társulat sztárja, Tibor (Eperjes Károly). De úgy tűnik, túl hosszú a negyven nap, és főleg a negyven éjszaka, túl zűrös a színészek lelkivilága. Kuszák a viszonyok, hiányzik a szeretet és szorít az idő. Tibor megérzi: ebbe az útba fog beledögleni.
Extrák:
magyar felirat
Interjú Beremányi Géza rendezővel pályafutásáról (22:46)
Bereményi Géza "A turné" forgatásáról (14:10)
Bereményi Géza - Teljes rendezői és forgatóókönyvírói filmográfia
Ajánló (2:31)
Média információ:
Video:
Kodek: MPEG-1/2 Video (mpgv)
Felbontás: 720x576
Képkockasebesség: 25
Képformátum: 1.37:1 (4:3)
Hang:
Kodek: A52 Audio (aka AC3) (a52)
Csatornák: 3F2R/LFE
Mintavételi frekvencia: 48000 Hz
Bitsebesség: 448 kb/mp
Formátum: iso
Méret: 5,67 GB
Műsoridő: 1:29:30 (2:08:59)
(prémium)
[HIDE-THANKS]
Kód:
https://data.hu/get/11607611/D2415i.part1.rar
https://data.hu/get/11607607/D2415i.part2.rar
https://data.hu/get/11607609/D2415i.part3.rar
https://data.hu/get/11607613/D2415i.part4.rar
https://data.hu/get/11607612/D2415i.part5.rar
https://data.hu/get/11607604/D2415i.part6.rar
[/HIDE-THANKS]


Formátum: dvdrip/avi
Méret: 896 MB
Felbontás: 720x544
Mintavételi frekvencia: 48000 Hz
Bitsebesség: 128 kbps
Műsoridő: 1:29:29
Részletes média információ:
I:\Video\20 - A turné.avi
General
Complete name : I:\Video\20 - A turné.avi
Format : AVI
Format/Info : Audio Video Interleave
File size : 895 MiB
Duration : 1 h 29 min
Overall bit rate : 1 398 kb/s
Writing application : VirtualDubMod 1.5.4.1 (build 2178/release)
Writing library : VirtualDubMod build 2178/release
Video #0
ID : 0
Format : MPEG-4 Visual
Format profile : Advanced [email protected]
Format settings, BVOP : 1
Format settings, QPel : No
Format settings, GMC : No warppoints
Format settings, Matrix : Custom
Codec ID : XVID
Codec ID/Hint : XviD
Duration : 1 h 29 min
Bit rate : 1 262 kb/s
Width : 720 pixels
Height : 544 pixels
Display aspect ratio : 4:3
Frame rate : 25.000 FPS
Color space : YUV
Chroma subsampling : 4:2:0
Bit depth : 8 bits
Scan type : Progressive
Compression mode : Lossy
Bits/(Pixel*Frame) : 0.129
Stream size : 808 MiB (90%)
Writing library : XviD 1.2.1 (UTC 2008-12-04)
Audio #1
ID : 1
Format : MPEG Audio
Format version : Version 1
Format profile : Layer 3
Mode : Joint stereo
Mode extension : MS Stereo
Codec ID : 55
Codec ID/Hint : MP3
Duration : 1 h 29 min
Bit rate mode : Constant
Bit rate : 128 kb/s
Channel(s) : 2 channels
Sampling rate : 48.0 kHz
Compression mode : Lossy
Stream size : 81.9 MiB (9%)
Alignment : Aligned on interleaves
Interleave, duration : 80 ms (2.00 video frames)
Interleave, preload duration : 504 ms
Writing library : LAME3.98r
Encoding settings : -m j -V 4 -q 2 -lowpass 17 -b 128
[HIDE-THANKS]
Kód:
https://data.hu/get/11607614/D2415a.rar
[/HIDE-THANKS]
vagy free
[HIDE-THANKS]
Kód:
https://data.hu/get/11607610/D2415av.part1.rar
https://data.hu/get/11607606/D2415av.part2.rar
https://data.hu/get/11607615/D2415av.part3.rar
https://data.hu/get/11607605/D2415av.part4.rar
https://data.hu/get/11607608/D2415av.part5.rar
[/HIDE-THANKS]
 

papadi

Állandó Tag

Ripacsok
Magyar film (1980)
Főszereplők: Garas Dezső, Kern András, Udvaros Dorottya, Bárdi György, Major Tamás, Temessy Hédi
Rendezte: Sándor Pál
Magyar filmek gyűjteménye 21.
Fantasy Film, 2006 október 26.
Tartalom a borítóról:
Stock Ede (Garas Dezső) és Salamon András (Kern András) már évek óta ugyanazt a giccses kuplét adja elő estéről estére a "légnadrágban". András azonban hirtelen gondol egyet és lecseréli Edét Bogárkára (Udvaros Dorottya), a főnök szeretőjére. A csere nem váltja be András reményeit, az élet Bogárkával sem boldogabb. Ede is szenved, olyannyira, hogy kétszer is András életére tör. Családjuk és barátaik aggódva figyelik, ahogy kapcsolatuk elmérgesedik, de tehetetlenek. A szakítás mindkettőjüket rákényszeríti, hogy végiggondolják, mit tartanak igazán fontosnak az életben, és végül az elcsépelt dal is új tartalommal telik meg...
Extrák:
angol és magyar felirat
Exluzív interjú Sándor Pállal pályájáról, filmjeiről (17:32)
Sándor Pál a Ripacsok forgatásáról (12:55)
Sándor Pál életrajz és teljes filmográfia
Ajánló (2:31)
Média információ:
Video:
Kodek: MPEG-1/2 Video (mpgv)
Felbontás: 720x576
Képkockasebesség: 25
Képformátum: 1.37:1 (4:3)
Hang:
Kodek: A52 Audio (aka AC3) (a52)
Csatornák: 3F2R/LFE
Mintavételi frekvencia: 48000 Hz
Bitsebesség: 448 kb/mp
Formátum: iso
Méret: 5,71 GB
Műsoridő: 1:29:21 (2:02:23)
(prémium)
[HIDE-THANKS]
Kód:
https://data.hu/get/11607811/D2112i.part1.rar
https://data.hu/get/11607816/D2112i.part2.rar
https://data.hu/get/11607804/D2112i.part3.rar
https://data.hu/get/11607825/D2112i.part4.rar
https://data.hu/get/11607806/D2112i.part5.rar
https://data.hu/get/11607820/D2112i.part6.rar
[/HIDE-THANKS]


Formátum: dvdrip/avi
Méret: 895 MB
Felbontás: 720x544
Mintavételi frekvencia: 48000 Hz
Bitsebesség: 128 kbps
Műsoridő: 1:29:20
Részletes média információ:
I:\Video\21 - Ripacsok.avi
General
Complete name : I:\Video\21 - Ripacsok.avi
Format : AVI
Format/Info : Audio Video Interleave
File size : 893 MiB
Duration : 1 h 29 min
Overall bit rate : 1 398 kb/s
Writing application : VirtualDubMod 1.5.4.1 (build 2178/release)
Writing library : VirtualDubMod build 2178/release
Video #0
ID : 0
Format : MPEG-4 Visual
Format profile : Advanced [email protected]
Format settings, BVOP : 1
Format settings, QPel : No
Format settings, GMC : No warppoints
Format settings, Matrix : Custom
Codec ID : XVID
Codec ID/Hint : XviD
Duration : 1 h 29 min
Bit rate : 1 263 kb/s
Width : 720 pixels
Height : 544 pixels
Display aspect ratio : 4:3
Frame rate : 25.000 FPS
Color space : YUV
Chroma subsampling : 4:2:0
Bit depth : 8 bits
Scan type : Progressive
Compression mode : Lossy
Bits/(Pixel*Frame) : 0.129
Stream size : 807 MiB (90%)
Writing library : XviD 1.2.1 (UTC 2008-12-04)
Audio #1
ID : 1
Format : MPEG Audio
Format version : Version 1
Format profile : Layer 3
Mode : Joint stereo
Mode extension : MS Stereo
Codec ID : 55
Codec ID/Hint : MP3
Duration : 1 h 29 min
Bit rate mode : Constant
Bit rate : 128 kb/s
Channel(s) : 2 channels
Sampling rate : 48.0 kHz
Compression mode : Lossy
Stream size : 81.8 MiB (9%)
Alignment : Aligned on interleaves
Interleave, duration : 80 ms (2.00 video frames)
Interleave, preload duration : 504 ms
Writing library : LAME3.98r
Encoding settings : -m j -V 4 -q 2 -lowpass 17 -b 128
[HIDE-THANKS]
Kód:
https://data.hu/get/11607823/D2112a.rar
[/HIDE-THANKS]
vagy free
[HIDE-THANKS]
Kód:
https://data.hu/get/11607817/D2112av.part1.rar
https://data.hu/get/11607805/D2112av.part2.rar
https://data.hu/get/11607819/D2112av.part3.rar
https://data.hu/get/11607812/D2112av.part4.rar
https://data.hu/get/11607821/D2112av.part5.rar
[/HIDE-THANKS]
 

papadi

Állandó Tag

Kopaszkutya
Magyar zenés film (1981)
Főszereplők: Deák „Bill” Gyula, Földes László (Hobo), Kőrös József, Mareczky István, Pálmai Zoltán, Póka Egon, Schuszter Lóránt, Szász László, Szénich János
Rendezte: Szomjas György
Magyar filmek gyűjteménye 22.
Fantasy Film, 2006 október 26.
Tartalom a borítóról:
"Le kell menni kutyába, légy a kutyák királya!" - üvölti a mikrofonba Bill és Hobo többezer tabáni rajongó előtt. Hosszú volt az út, amíg a lepukkant vidéki művházakban turnézó, feldolgozásokat előadó zenekarból igazi rockbanda lett. A menedzser (Schuszter Lóránt) vérző orral hallgatja a "Hosszúlábú asszonyt", miután a banda tagjai a koncert előtt módszeresen végigverték, mert nem jött ki a tévé. Miközben mégis csak neki köszönhető a siker, igaz, erre már senki sem emlékszik…
Szomjas György kultuszfilmje igazi magyar rock-karriertörténet, a 80-as évek életérzésének tökéletes lenyomata, és nem utolsósorban a legjobb zenés filmek egyike, melyben a Hobo Blues Band mellett a korszak legnagyobb zenekarainak dalai, (P. Mobil, Omega, Rolling Stones) is elhangzanak.

Extrák:
angol és magyar felirat
Privát rocktörténet: Hobo Blues Band (A Filmmúzeum dokumentumfilmje) (59:06)
Szomjas György rendezői filmográfia
Ajánló (2:31)

Privát rocktörténet 10.: Hobo Blues Band
Magyar dokumentumfilm (2006)
Műsorvezető: Veress Dóra, Narrátor: Magyar Kinga
Szerkesztő-rendező: Gellért Gábor
Média információ:
Video:
Kodek: MPEG-1/2 Video (mpgv)
Felbontás: 720x576
Képkockasebesség: 25
Képformátum: 1.37:1 (4:3)
Hang:
Kodek: A52 Audio (aka AC3) (a52)
Csatornák: 3F2R/LFE
Mintavételi frekvencia: 48000 Hz
Bitsebesség: 448 kb/mp
Formátum: iso
Méret: 7,86 GB
Műsoridő: 1:35:25 (2:37:03)
(prémium)
[HIDE-THANKS]
Kód:
https://data.hu/get/11608257/D2118i.part01.rar
https://data.hu/get/11608256/D2118i.part02.rar
https://data.hu/get/11608251/D2118i.part03.rar
https://data.hu/get/11608255/D2118i.part04.rar
https://data.hu/get/11608252/D2118i.part05.rar
https://data.hu/get/11608253/D2118i.part06.rar
https://data.hu/get/11608250/D2118i.part07.rar
https://data.hu/get/11608254/D2118i.part08.rar
[/HIDE-THANKS]


Formátum: dvdrip/avi
Méret: 953 MB
Felbontás: 720x544
Mintavételi frekvencia: 48000 Hz
Bitsebesség: 128 kbps
Műsoridő: 1:35:25
Részletes média információ:
I:\Video\22a - Kopaszkutya.avi
General
Complete name : I:\Video\22a - Kopaszkutya.avi
Format : AVI
Format/Info : Audio Video Interleave
File size : 952 MiB
Duration : 1 h 35 min
Overall bit rate : 1 395 kb/s
Writing application : VirtualDubMod 1.5.4.1 (build 2178/release)
Writing library : VirtualDubMod build 2178/release
Video #0
ID : 0
Format : MPEG-4 Visual
Format profile : Advanced [email protected]
Format settings, BVOP : 1
Format settings, QPel : No
Format settings, GMC : No warppoints
Format settings, Matrix : Custom
Codec ID : XVID
Codec ID/Hint : XviD
Duration : 1 h 35 min
Bit rate : 1 259 kb/s
Width : 720 pixels
Height : 544 pixels
Display aspect ratio : 4:3
Frame rate : 25.000 FPS
Color space : YUV
Chroma subsampling : 4:2:0
Bit depth : 8 bits
Scan type : Progressive
Compression mode : Lossy
Bits/(Pixel*Frame) : 0.129
Stream size : 860 MiB (90%)
Writing library : XviD 1.2.1 (UTC 2008-12-04)
Audio #1
ID : 1
Format : MPEG Audio
Format version : Version 1
Format profile : Layer 3
Mode : Joint stereo
Codec ID : 55
Codec ID/Hint : MP3
Duration : 1 h 35 min
Bit rate mode : Constant
Bit rate : 128 kb/s
Channel(s) : 2 channels
Sampling rate : 48.0 kHz
Compression mode : Lossy
Stream size : 87.4 MiB (9%)
Alignment : Aligned on interleaves
Interleave, duration : 80 ms (2.00 video frames)
Interleave, preload duration : 504 ms
Writing library : LAME3.98r
Encoding settings : -m j -V 4 -q 2 -lowpass 17 -b 128
[HIDE-THANKS]
Kód:
https://data.hu/get/11608030/D2118a1.rar
[/HIDE-THANKS]
vagy free
[HIDE-THANKS]
Kód:
https://data.hu/get/11608039/D2118a1v.part1.rar
https://data.hu/get/11608036/D2118a1v.part2.rar
https://data.hu/get/11608032/D2118a1v.part3.rar
https://data.hu/get/11608028/D2118a1v.part4.rar
https://data.hu/get/11608029/D2118a1v.part5.rar
[/HIDE-THANKS]

A film extrája:

Privát rocktörténet 10.: Hobo Blues Band
Magyar dokumentumfilm (2006)
Műsorvezető: Veress Dóra, Narrátor: Magyar Kinga
Szerkesztő-rendező: Gellért Gábor

Formátum: dvdrip/avi
Méret: 692 MB
Felbontás: 720x482
Mintavételi frekvencia: 48000 Hz
Bitsebesség: 192 kbps
Műsoridő: 59:06
Részletes média információ:
I:\Video\22b - Privát rocktörténet 10 - Hobo Blues Band.avi
General
Complete name : I:\Video\22b - Privát rocktörténet 10 - Hobo Blues Band.avi
Format : AVI
Format/Info : Audio Video Interleave
File size : 691 MiB
Duration : 59 min
Overall bit rate : 1 635 kb/s
Writing application : VirtualDubMod 1.5.4.1 (build 2178/release)
Writing library : VirtualDubMod build 2178/release
Video #0
ID : 0
Format : MPEG-4 Visual
Format profile : Advanced [email protected]
Format settings, BVOP : 1
Format settings, QPel : No
Format settings, GMC : No warppoints
Format settings, Matrix : Custom
Codec ID : XVID
Codec ID/Hint : XviD
Duration : 59 min
Bit rate : 1 435 kb/s
Width : 720 pixels
Height : 432 pixels
Display aspect ratio : 5:3
Frame rate : 25.000 FPS
Color space : YUV
Chroma subsampling : 4:2:0
Bit depth : 8 bits
Scan type : Progressive
Compression mode : Lossy
Bits/(Pixel*Frame) : 0.185
Stream size : 607 MiB (88%)
Writing library : XviD 1.2.1 (UTC 2008-12-04)
Audio #1
ID : 1
Format : MPEG Audio
Format version : Version 1
Format profile : Layer 3
Mode : Joint stereo
Mode extension : MS Stereo
Codec ID : 55
Codec ID/Hint : MP3
Duration : 59 min
Bit rate mode : Constant
Bit rate : 192 kb/s
Channel(s) : 2 channels
Sampling rate : 48.0 kHz
Compression mode : Lossy
Stream size : 81.2 MiB (12%)
Alignment : Aligned on interleaves
Interleave, duration : 80 ms (2.00 video frames)
Interleave, preload duration : 504 ms
Writing library : LAME3.98r
Encoding settings : -m j -V 4 -q 2 -lowpass 18.6 -b 192
[HIDE-THANKS]
Kód:
https://data.hu/get/11608031/D2118a2.rar
[/HIDE-THANKS]
vagy free
[HIDE-THANKS]
Kód:
https://data.hu/get/11608033/D2118a2v.part1.rar
https://data.hu/get/11608037/D2118a2v.part2.rar
https://data.hu/get/11608035/D2118a2v.part3.rar
https://data.hu/get/11608034/D2118a2v.part4.rar
[/HIDE-THANKS]
 

papadi

Állandó Tag

Talpuk alatt fütyül a szél
Magyar betyárfilm (1976)
Főszereplők: Djoko Rosic (Besaenyei Ferenc), Bujtor István, Vladan Holec (Cserhalmi György)
Rendezte: Szomjas György
Magyar filmek gyűjteménye 23.
Fantasy Film, 2007. január 12.
Tartalom a borítóról:
1837-ben járunk. Karcag városának elöljárói határtalan pénzéhségükben habozás nélkül feldúlják a város melletti, érintetlen pusztákat és megzavarják az ott legeltető pásztorok ősi életvitelét. Farkas Csapó Gyurka, a hírhedt betyár képes lenne megvédeni a puszta rendjét, de vajon kiállhatnak-e egy tömlöcből szökött rablógyilkos mellett a pusztaiak? Különösen nehéz kérdés ez Mérges Balázs csendbiztos számára, aki Gyurka legfőbb ellensége - mégis egyetlen igaz barátja. Egészen addig, míg egy betyárvezér meggyilkolását nem varrják a nyakába. Vérdíjat tűznek ki a fejére, s miután leszámolt ellenfelével, a pásztorok juttatják Gyurkát csendőrkézre és bitófára.
Extrák:
angol és magyar felirat
Ajánló (1:41)
Média információ:
Video:
Kodek: MPEG-1/2 Video (mpgv)
Felbontás: 720x576
Képkockasebesség: 25
Képformátum: 1.37:1 (4:3)
Hang:
Kodek: A52 Audio (aka AC3) (a52)
Csatornák: 3F2R/LFE
Mintavételi frekvencia: 48000 Hz
Bitsebesség: 448 kb/mp
Formátum: iso
Méret: 4,04 GB
Műsoridő: 1:27:17
(prémium)
[HIDE-THANKS]
Kód:
https://data.hu/get/11608303/D2416i.part1.rar
https://data.hu/get/11608301/D2416i.part2.rar
https://data.hu/get/11608306/D2416i.part3.rar
https://data.hu/get/11608309/D2416i.part4.rar
https://data.hu/get/11608310/D2416i.part5.rar
[/HIDE-THANKS]


Formátum: dvdrip/avi
Méret: 871 MB
Felbontás: 720x544
Mintavételi frekvencia: 48000 Hz
Bitsebesség: 128 kbps
Műsoridő: 1:27:17
Részletes média információ:
I:\Video\23 - Talpuk alatt fütyül a szél.avi
General
Complete name : I:\Video\23 - Talpuk alatt fütyül a szél.avi
Format : AVI
Format/Info : Audio Video Interleave
File size : 870 MiB
Duration : 1 h 27 min
Overall bit rate : 1 394 kb/s
Writing application : VirtualDubMod 1.5.4.1 (build 2178/release)
Writing library : VirtualDubMod build 2178/release
Video #0
ID : 0
Format : MPEG-4 Visual
Format profile : Advanced [email protected]
Format settings, BVOP : 1
Format settings, QPel : No
Format settings, GMC : No warppoints
Format settings, Matrix : Custom
Codec ID : XVID
Codec ID/Hint : XviD
Duration : 1 h 27 min
Bit rate : 1 259 kb/s
Width : 720 pixels
Height : 544 pixels
Display aspect ratio : 4:3
Frame rate : 25.000 FPS
Color space : YUV
Chroma subsampling : 4:2:0
Bit depth : 8 bits
Scan type : Progressive
Compression mode : Lossy
Bits/(Pixel*Frame) : 0.129
Stream size : 786 MiB (90%)
Writing library : XviD 1.2.1 (UTC 2008-12-04)
Audio #1
ID : 1
Format : MPEG Audio
Format version : Version 1
Format profile : Layer 3
Mode : Joint stereo
Mode extension : MS Stereo
Codec ID : 55
Codec ID/Hint : MP3
Duration : 1 h 27 min
Bit rate mode : Constant
Bit rate : 128 kb/s
Channel(s) : 2 channels
Sampling rate : 48.0 kHz
Compression mode : Lossy
Stream size : 79.9 MiB (9%)
Alignment : Aligned on interleaves
Interleave, duration : 80 ms (2.00 video frames)
Interleave, preload duration : 504 ms
Writing library : LAME3.98r
Encoding settings : -m j -V 4 -q 2 -lowpass 17 -b 128
[HIDE-THANKS]
Kód:
https://data.hu/get/11608307/D2416a.rar
[/HIDE-THANKS]
vagy free
[HIDE-THANKS]
Kód:
https://data.hu/get/11608305/D2416av.part1.rar
https://data.hu/get/11608302/D2416av.part2.rar
https://data.hu/get/11608300/D2416av.part3.rar
https://data.hu/get/11608308/D2416av.part4.rar
https://data.hu/get/11608304/D2416av.part5.rar
[/HIDE-THANKS]
 

papadi

Állandó Tag

Szerencsés Dániel
Magyar filmdráma (1982)
Főszereplők: Törőcsik Mari, Garas Dezső, Margittay Ági, Major Tamás, Bodrogi Gyula, Kern András, Rudolf Péter, Zsótér Sándor
Rendezte: Sándor Pál
Magyar filmek gyűjteménye 24.
Fantasy Film, 2006. október 26.
Tartalom a borítóról:
Dani (Rudolf Péter) átlagos budapesti tizenéves a Garai utcából, akinek szerelme 1956 telén családjával együtt disszidál. Dani gondolkodás nélkül a szép Mariann után siet Ausztria felé, az egyik házban lakó fiú, Gyuri társaságában. Disszidensekkel és besúgókkal zsúfolásig tömött vonatuk nemsokára meg is érkezik a határ menti szállodához, ahol a menekülőknek be kell várni vezetőjüket. A szállodában várakozással töltött órák drámai hangulatban telnek. Mindenki számára eljött az utolsó lehetőség, hogy végiggondolja, megy-e vagy marad, hol és kivel éli le életét, s akar-e élni egyáltalán. A döntés csöppet sem könnyű, mert a történelem viharában szinte senkinek sem sikerül talpon maradnia, akármelyik oldalon is áll. Ráadásul az idősebbek éppoly tanácstalanul néznek a jövő elébe, mint a fiatalok.
Extrák:
magyar felirat
Interjú Sándor Pál rendezővel pályafutásáról (17:41)
Interjú Sándor Pállal a filmről (25:15)
Interjú Rudolf Péterrel (20:54)
Interjú Zsótér Sándorral (29:37)
Ajánló (2:31)
Média információ:
Video:
Kodek: MPEG-1/2 Video (mpgv)
Felbontás: 720x576
Képkockasebesség: 25
Képformátum: 1.37:1 (4:3)
Hang:
Kodek: A52 Audio (aka AC3) (a52)
Csatornák: 3F2R/LFE
Mintavételi frekvencia: 48000 Hz
Bitsebesség: 448 kb/mp
Formátum: iso
Méret: 7,77 GB
Műsoridő: 1:28:33 (3:04:31)
(prémium)
[HIDE-THANKS]
Kód:
https://data.hu/get/11608572/D2417i.part01.rar
https://data.hu/get/11608571/D2417i.part02.rar
https://data.hu/get/11608565/D2417i.part03.rar
https://data.hu/get/11608561/D2417i.part04.rar
https://data.hu/get/11608570/D2417i.part05.rar
https://data.hu/get/11608562/D2417i.part06.rar
https://data.hu/get/11608564/D2417i.part07.rar
https://data.hu/get/11608563/D2417i.part08.rar
[/HIDE-THANKS]


Formátum: dvdrip/avi
Méret: 884 MB
Felbontás: 720x544
Mintavételi frekvencia: 48000 Hz
Bitsebesség: 128 kbps
Műsoridő: 1:28:32
Részletes média információ:
I:\Video\24 - Szerencsés Dániel.avi
General
Complete name : I:\Video\24 - Szerencsés Dániel.avi
Format : AVI
Format/Info : Audio Video Interleave
File size : 883 MiB
Duration : 1 h 28 min
Overall bit rate : 1 394 kb/s
Writing application : VirtualDubMod 1.5.4.1 (build 2178/release)
Writing library : VirtualDubMod build 2178/release
Video #0
ID : 0
Format : MPEG-4 Visual
Format profile : Advanced [email protected]
Format settings, BVOP : 1
Format settings, QPel : No
Format settings, GMC : No warppoints
Format settings, Matrix : Custom
Codec ID : XVID
Codec ID/Hint : XviD
Duration : 1 h 28 min
Bit rate : 1 259 kb/s
Width : 720 pixels
Height : 544 pixels
Display aspect ratio : 4:3
Frame rate : 25.000 FPS
Color space : YUV
Chroma subsampling : 4:2:0
Bit depth : 8 bits
Scan type : Progressive
Compression mode : Lossy
Bits/(Pixel*Frame) : 0.129
Stream size : 797 MiB (90%)
Writing library : XviD 1.2.1 (UTC 2008-12-04)
Audio #1
ID : 1
Format : MPEG Audio
Format version : Version 1
Format profile : Layer 3
Mode : Joint stereo
Mode extension : MS Stereo
Codec ID : 55
Codec ID/Hint : MP3
Duration : 1 h 28 min
Bit rate mode : Constant
Bit rate : 128 kb/s
Channel(s) : 2 channels
Sampling rate : 48.0 kHz
Compression mode : Lossy
Stream size : 81.1 MiB (9%)
Alignment : Aligned on interleaves
Interleave, duration : 80 ms (2.00 video frames)
Interleave, preload duration : 504 ms
Writing library : LAME3.98r
Encoding settings : -m j -V 4 -q 2 -lowpass 17 -b 128
[HIDE-THANKS]
Kód:
https://data.hu/get/11608566/D2417a.rar
[/HIDE-THANKS]
vagy free
[HIDE-THANKS]
Kód:
https://data.hu/get/11608560/D2417av.part1.rar
https://data.hu/get/11608567/D2417av.part2.rar
https://data.hu/get/11608569/D2417av.part3.rar
https://data.hu/get/11608568/D2417av.part4.rar
https://data.hu/get/11608573/D2417av.part5.rar
[/HIDE-THANKS]
 

papadi

Állandó Tag

Uramisten
Magyar film (1984)
Főszereplők: Feleki Kamill, Eperjes Károly, Dörner György, Csákányi László, Garas Dezső, Tábori Nóra, Nyakó Júlia, Papp Vera, Tarján Györgyi, Ujlaki Dénes
Rendezte: Gárdos Péter
Magyar filmek gyűjteménye 25.
Fantasy Film, 2006. október 26.
Tartalom a borítóról:
Sajek Oszkár (Eperjes Károly) cirkuszi akrobata, egy szerencsétlen baleset következtében kénytelen abbahagyni hordós ugrómutatványát. Új számot kell keresnie, és ő tudja is, mihez volna kedve. Az öreg szabaduló művész, Binder Lipót (Feleki Kamill) hajdani attrakcióját, "A Jégbe Zárt Ember" trükkjét szeretné megvásárolni. Egyetlen vágya, hogy ő is képes legyen órákat tölteni levegő nélkül, egy fagyos jégtömbbe zárva. E titok megfejtésére tesz fel mindent, ami az életben számára fontos. Lipi bácsi azonban makacs ember, ráadásul kegyetlen is. Kiélvezi a fiatalember rajongó érdeklődését, megalázkodó könyörgését, miközben esze ágában sincs elárulni a trükköt. Vajon ez a végletekig hiú ember a sírba is magával viszi a világszám titkát?
Extrák:
angol és magyar felirat
Exluzív interjú Gárdos Péterrel pályájáról, filmjeiről (14:34)
Gárdos Péter az Uramisten! forgatásáról (
Gárdos Péter filmográfia
Ajánló (2:31)
Média információ:
Video:
Kodek: MPEG-1/2 Video (mpgv)
Felbontás: 720x576
Képkockasebesség: 25
Képformátum: 1.37:1 (4:3)
Hang:
Kodek: A52 Audio (aka AC3) (a52)
Csatornák: 3F2R/LFE
Mintavételi frekvencia: 48000 Hz
Bitsebesség: 448 kb/mp
Formátum: iso
Méret: 6,04 GB
Műsoridő: 1:29:41 (2:09:49)
(prémium)
[HIDE-THANKS]
Kód:
https://data.hu/get/11609407/D2418i.part1.rar
https://data.hu/get/11609416/D2418i.part2.rar
https://data.hu/get/11609413/D2418i.part3.rar
https://data.hu/get/11609411/D2418i.part4.rar
https://data.hu/get/11609410/D2418i.part5.rar
https://data.hu/get/11609415/D2418i.part6.rar
[/HIDE-THANKS]


Formátum: dvdrip/avi
Méret: 897 MB
Felbontás: 720x544
Mintavételi frekvencia: 48000 Hz
Bitsebesség: 128 kbps
Műsoridő: 1:29:40
Részletes média információ:
I:\Video\25 - Uramisten.avi
General
Complete name : I:\Video\25 - Uramisten.avi
Format : AVI
Format/Info : Audio Video Interleave
File size : 896 MiB
Duration : 1 h 29 min
Overall bit rate : 1 397 kb/s
Writing application : VirtualDubMod 1.5.4.1 (build 2178/release)
Writing library : VirtualDubMod build 2178/release
Video #0
ID : 0
Format : MPEG-4 Visual
Format profile : Advanced [email protected]
Format settings, BVOP : 1
Format settings, QPel : No
Format settings, GMC : No warppoints
Format settings, Matrix : Custom
Codec ID : XVID
Codec ID/Hint : XviD
Duration : 1 h 29 min
Bit rate : 1 261 kb/s
Width : 720 pixels
Height : 544 pixels
Display aspect ratio : 4:3
Frame rate : 25.000 FPS
Color space : YUV
Chroma subsampling : 4:2:0
Bit depth : 8 bits
Scan type : Progressive
Compression mode : Lossy
Bits/(Pixel*Frame) : 0.129
Stream size : 809 MiB (90%)
Writing library : XviD 1.2.1 (UTC 2008-12-04)
Audio #1
ID : 1
Format : MPEG Audio
Format version : Version 1
Format profile : Layer 3
Mode : Joint stereo
Mode extension : MS Stereo
Codec ID : 55
Codec ID/Hint : MP3
Duration : 1 h 29 min
Bit rate mode : Constant
Bit rate : 128 kb/s
Channel(s) : 2 channels
Sampling rate : 48.0 kHz
Compression mode : Lossy
Stream size : 82.1 MiB (9%)
Alignment : Aligned on interleaves
Interleave, duration : 80 ms (2.00 video frames)
Interleave, preload duration : 504 ms
Writing library : LAME3.98r
Encoding settings : -m j -V 4 -q 2 -lowpass 17 -b 128
[HIDE-THANKS]
Kód:
https://data.hu/get/11609404/D2418a.rar
[/HIDE-THANKS]
vagy free
[HIDE-THANKS]
Kód:
https://data.hu/get/11609405/D2418av.part1.rar
https://data.hu/get/11609412/D2418av.part2.rar
https://data.hu/get/11609403/D2418av.part3.rar
https://data.hu/get/11609414/D2418av.part4.rar
https://data.hu/get/11609408/D2418av.part5.rar
[/HIDE-THANKS]
 

papadi

Állandó Tag

Eldorádó
Magyar filmdráma (1988)
Főszereplők: Eperjes Károly, Pogány Judit, Eszenyi Enikő, Andorai Péter, Balkay Géza
Rendezte: Bereményi Géza
Magyar filmek gyűjteménye 26.
Fantasy Film, 2006. október 26.
Tartalom a borítóról:
1945. Monori Sándor (Eperjes Károly) a Teleki téri piac királya, akit mindenki Sanyi bácsiként tisztel. Ő az, aki fittyet hány arra, milyen a politikai rendszer, hiszen számára egyetlen törvény létezik: arannyal mindent és mindenkit meg lehet vásárolni. Amikor lánya terhesen tér haza Bécsből, Monori két marék ékszer árán szabadul meg vejétől, hogy születendő unokáját maga nevelhesse fel, és megtanítsa arra, hogyan lehet ebben az országban túlélni - akár egy halálosnak hitt betegséget is. 1956-ban aztán mindent elkövet, hogy családját külföldre juttassa, de úgy tűnik, ekkor már az arany is kevés a túléléshez...
Extrák:
magyar felirat
Ajánló (1:41)
Média információ:
Video:
Kodek: MPEG-1/2 Video (mpgv)
Felbontás: 720x576
Képkockasebesség: 25
Képformátum: 1.37:1 (4:3)
Hang:
Kodek: A52 Audio (aka AC3) (a52)
Csatornák: 3F2R/LFE
Mintavételi frekvencia: 48000 Hz
Bitsebesség: 448 kb/mp
Formátum: iso
Méret: 4,06 GB
Műsoridő: 1:39:07
(prémium)
[HIDE-THANKS]
Kód:
https://data.hu/get/11609727/D2419i.part1.rar
https://data.hu/get/11609729/D2419i.part2.rar
https://data.hu/get/11609726/D2419i.part3.rar
https://data.hu/get/11609724/D2419i.part4.rar
[/HIDE-THANKS]


Formátum: dvdrip/avi
Méret: 991 MB
Felbontás: 720x544
Mintavételi frekvencia: 48000 Hz
Bitsebesség: 128 kbps
Műsoridő: 1:39:06
Részletes média információ:
I:\Video\26 - Eldorádó.avi
General
Complete name : I:\Video\26 - Eldorádó.avi
Format : AVI
Format/Info : Audio Video Interleave
File size : 990 MiB
Duration : 1 h 39 min
Overall bit rate : 1 397 kb/s
Writing application : VirtualDubMod 1.5.4.1 (build 2178/release)
Writing library : VirtualDubMod build 2178/release
Video #0
ID : 0
Format : MPEG-4 Visual
Format profile : Advanced [email protected]
Format settings, BVOP : 1
Format settings, QPel : No
Format settings, GMC : No warppoints
Format settings, Matrix : Custom
Codec ID : XVID
Codec ID/Hint : XviD
Duration : 1 h 39 min
Bit rate : 1 262 kb/s
Width : 720 pixels
Height : 544 pixels
Display aspect ratio : 4:3
Frame rate : 25.000 FPS
Color space : YUV
Chroma subsampling : 4:2:0
Bit depth : 8 bits
Scan type : Progressive
Compression mode : Lossy
Bits/(Pixel*Frame) : 0.129
Stream size : 894 MiB (90%)
Writing library : XviD 1.2.1 (UTC 2008-12-04)
Audio #1
ID : 1
Format : MPEG Audio
Format version : Version 1
Format profile : Layer 3
Mode : Joint stereo
Mode extension : MS Stereo
Codec ID : 55
Codec ID/Hint : MP3
Duration : 1 h 39 min
Bit rate mode : Constant
Bit rate : 128 kb/s
Channel(s) : 2 channels
Sampling rate : 48.0 kHz
Compression mode : Lossy
Stream size : 90.7 MiB (9%)
Alignment : Aligned on interleaves
Interleave, duration : 80 ms (2.00 video frames)
Interleave, preload duration : 504 ms
Writing library : LAME3.98r
Encoding settings : -m j -V 4 -q 2 -lowpass 17 -b 128
[HIDE-THANKS]
Kód:
https://data.hu/get/11609734/D2419a.rar
[/HIDE-THANKS]
vagy free
[HIDE-THANKS]
Kód:
https://data.hu/get/11609733/D2419av.part1.rar
https://data.hu/get/11609723/D2419av.part2.rar
https://data.hu/get/11609730/D2419av.part3.rar
https://data.hu/get/11609732/D2419av.part4.rar
https://data.hu/get/11609731/D2419av.part5.rar
https://data.hu/get/11609728/D2419av.part6.rar
[/HIDE-THANKS]
 

papadi

Állandó Tag

Szamárköhögés
Magyar tragikomédia (1987)
Főszereplők: Törőcsik Mari, Garas Dezső, Hernádi Judit, Tóth Marcell, Kárász Eszter
Rendezte: Gárdos Péter
Magyar filmek gyűjteménye 27.
Fantasy Film, 2006. október 26.
Tartalom a borítóról:
Tomi és Annamari családjának történetén keresztül 1956 őszének eseményei elevenednek meg Gárdos Péter filmjében, s a gyerekek elbeszéléséből érzékelhetővé válik számunkra a kor hangulata. A gyerekek számára különös egyveleget alkot az öröm, hogy nem kell iskolába menni és a döbbenet, hogy átlőtték a kenyeret, amit a nagymama hozott. Az izgalom, hogy másoknál lehet aludni és a rémület, amikor holtan találják a portást az iskolában. Mindez örök nyomot hagy a testvérek lelkében, akik csak azért maradtak Magyarországon, mert Annamari éppen szamárköhögés-gyanús volt abban a történelmi pillanatban, amikor el lehetett volna menni innen...
Extrák:
angol és magyar felirat
Ajánló (1:41)
Média információ:
Video:
Kodek: MPEG-1/2 Video (mpgv)
Felbontás: 720x576
Képkockasebesség: 25
Képformátum: 1.37:1 (4:3)
Hang:
Kodek: A52 Audio (aka AC3) (a52)
Csatornák: 3F2R/LFE
Mintavételi frekvencia: 48000 Hz
Bitsebesség: 448 kb/mp
Formátum: iso
Méret: 4,05 GB
Műsoridő: 1:26:02
(prémium)
[HIDE-THANKS]
Kód:
https://data.hu/get/11609825/D2420i.part1.rar
https://data.hu/get/11609822/D2420i.part2.rar
https://data.hu/get/11609823/D2420i.part3.rar
https://data.hu/get/11609820/D2420i.part4.rar
https://data.hu/get/11609828/D2420i.part5.rar
[/HIDE-THANKS]


Formátum: dvdrip/avi
Méret: 860 MB
Felbontás: 720x544
Mintavételi frekvencia: 48000 Hz
Bitsebesség: 128 kbps
Műsoridő: 1:26:01
Részletes média információ:
I:\Video\27 - Szamárköhögés.avi
General
Complete name : I:\Video\27 - Szamárköhögés.avi
Format : AVI
Format/Info : Audio Video Interleave
File size : 859 MiB
Duration : 1 h 26 min
Overall bit rate : 1 396 kb/s
Writing application : VirtualDubMod 1.5.4.1 (build 2178/release)
Writing library : VirtualDubMod build 2178/release
Video #0
ID : 0
Format : MPEG-4 Visual
Format profile : Advanced [email protected]
Format settings, BVOP : 1
Format settings, QPel : No
Format settings, GMC : No warppoints
Format settings, Matrix : Custom
Codec ID : XVID
Codec ID/Hint : XviD
Duration : 1 h 26 min
Bit rate : 1 261 kb/s
Width : 720 pixels
Height : 544 pixels
Display aspect ratio : 4:3
Frame rate : 25.000 FPS
Color space : YUV
Chroma subsampling : 4:2:0
Bit depth : 8 bits
Scan type : Progressive
Compression mode : Lossy
Bits/(Pixel*Frame) : 0.129
Stream size : 776 MiB (90%)
Writing library : XviD 1.2.1 (UTC 2008-12-04)
Audio #1
ID : 1
Format : MPEG Audio
Format version : Version 1
Format profile : Layer 3
Mode : Joint stereo
Mode extension : MS Stereo
Codec ID : 55
Codec ID/Hint : MP3
Duration : 1 h 26 min
Bit rate mode : Constant
Bit rate : 128 kb/s
Channel(s) : 2 channels
Sampling rate : 48.0 kHz
Compression mode : Lossy
Stream size : 78.8 MiB (9%)
Alignment : Aligned on interleaves
Interleave, duration : 80 ms (2.00 video frames)
Interleave, preload duration : 504 ms
Writing library : LAME3.98r
Encoding settings : -m j -V 4 -q 2 -lowpass 17 -b 128
[HIDE-THANKS]
Kód:
https://data.hu/get/11609821/D2420a.rar
[/HIDE-THANKS]
vagy free
[HIDE-THANKS]
Kód:
https://data.hu/get/11609824/D2420av.part1.rar
https://data.hu/get/11609827/D2420av.part2.rar
https://data.hu/get/11609830/D2420av.part3.rar
https://data.hu/get/11609829/D2420av.part4.rar
https://data.hu/get/11609826/D2420av.part5.rar
[/HIDE-THANKS]
 

papadi

Állandó Tag

Régi idők focija
Magyar vígjáték (1973)
Főszereplők: Garas Dezső, Major Tamás, Márkus László, Temessy Hédi, Esztergályos Cecilia, Szabó Gabriella, Péter Gizi, Kern András, Vogt Károly, Benkóczi Zoltán, Verebes István
Rendezte: Sándor Pál
Magyar filmek gyűjteménye 28.
Fantasy Film, 2006. október 26.
Tartalom a borítóról:.
Mert kell egy csapat! Minarik Ede, a mosodás él-hal a fociért és saját csapatáért, a Csabagyöngye SC-ért. A botcsinálta menedzser elsődleges célja, hogy bejussanak az első ligába és ennek érdekében hajlandó feláldozni mosodáját, összes pénzét, feleségét, sőt akár az életét is! Jöhetnek végrehajtók és vihetik, amit tudnak, gáncsolhatják gaz edzőtársak elcsábítva legjobb játékosait, Minarik csak megy előre és még az sem rendíti meg, amikor a kulcsmérkőzés előtt csodakapusa elszerződik.
Extrák:
angol és magyar felirat
Ajánló (1:41)
Média információ:
Video:
Kodek: MPEG-1/2 Video (mpgv)
Felbontás: 720x576
Képkockasebesség: 25
Képformátum: 1.37:1 (4:3)
Hang:
Kodek: A52 Audio (aka AC3) (a52)
Csatornák: 3F2R/LFE
Mintavételi frekvencia: 48000 Hz
Bitsebesség: 448 kb/mp
Formátum: iso
Méret: 3,94 GB
Műsoridő: 1:18:05
(prémium)
[HIDE-THANKS]
Kód:
https://data.hu/get/11609987/D2056i.part1.rar
https://data.hu/get/11609952/D2056i.part2.rar
https://data.hu/get/11609947/D2056i.part3.rar
https://data.hu/get/11610007/D2056i.part4.rar
[/HIDE-THANKS]


Formátum: dvdrip/avi
Méret: 781 MB
Felbontás: 720x528
Mintavételi frekvencia: 48000 Hz
Bitsebesség: 128 kbps
Műsoridő: 1:18:04
Részletes média információ:
I:\Video\28 - Régi idök focija.avi
General
Complete name : I:\Video\28 - Régi idök focija.avi
Format : AVI
Format/Info : Audio Video Interleave
File size : 779 MiB
Duration : 1 h 18 min
Overall bit rate : 1 395 kb/s
Writing application : VirtualDubMod 1.5.4.1 (build 2178/release)
Writing library : VirtualDubMod build 2178/release
Video #0
ID : 0
Format : MPEG-4 Visual
Format profile : Advanced [email protected]
Format settings, BVOP : 1
Format settings, QPel : No
Format settings, GMC : No warppoints
Format settings, Matrix : Custom
Codec ID : XVID
Codec ID/Hint : XviD
Duration : 1 h 18 min
Bit rate : 1 260 kb/s
Width : 720 pixels
Height : 528 pixels
Display aspect ratio : 4:3
Frame rate : 25.000 FPS
Color space : YUV
Chroma subsampling : 4:2:0
Bit depth : 8 bits
Scan type : Progressive
Compression mode : Lossy
Bits/(Pixel*Frame) : 0.133
Stream size : 704 MiB (90%)
Writing library : XviD 1.2.1 (UTC 2008-12-04)
Audio #1
ID : 1
Format : MPEG Audio
Format version : Version 1
Format profile : Layer 3
Mode : Joint stereo
Mode extension : MS Stereo
Codec ID : 55
Codec ID/Hint : MP3
Duration : 1 h 18 min
Bit rate mode : Constant
Bit rate : 128 kb/s
Channel(s) : 2 channels
Sampling rate : 48.0 kHz
Compression mode : Lossy
Stream size : 71.5 MiB (9%)
Alignment : Aligned on interleaves
Interleave, duration : 80 ms (2.00 video frames)
Interleave, preload duration : 504 ms
Writing library : LAME3.98r
Encoding settings : -m j -V 4 -q 2 -lowpass 17 -b 128
[HIDE-THANKS]
Kód:
https://data.hu/get/11610006/D2056a.rar
[/HIDE-THANKS]
vagy free
[HIDE-THANKS]
Kód:
https://data.hu/get/11610008/D2056av.part1.rar
https://data.hu/get/11610009/D2056av.part2.rar
https://data.hu/get/11609948/D2056av.part3.rar
https://data.hu/get/11609999/D2056av.part4.rar
https://data.hu/get/11609949/D2056av.part5.rar
[/HIDE-THANKS]
 

papadi

Állandó Tag

Bogáncs
Fekete-fehér magyar film (1958)
Főszereplők: Makláry Zoltán, Barsi Béla, Vass Éva, Szabó Ernő, Kiss Ferenc
Rendezte: Fejér Tamás
Magyar filmek gyűjteménye 29.
Fantasy Film, 2007. január 12.
Tartalom a borítóról:
Bogáncs nemzetsége már ősidők óta kiválóan teljesíti szolgálatát a somodorpusztai pásztorok mellett. Egyszer azonban a kis puli túl messzire kóborol az erdőben, s csapdába kerül. Cirkuszosok szabadítják ki, és ettől kezdve Bogáncs élete kalandos fordulatot vesz. Kiderül, hogy a kutyus nem csak a birkaterelésben, de a cirkuszi komédiázásban is igen tehetséges. Ám sajnos a jólelkű mutatványosok is elveszítik őt. Bogáncs sintérkézre kerül. Mi lesz most nélküle a cirkuszi produkcióval? És vajon Mihály bácsi, a szőrösszívű kutyapecér valóban elpusztítja a kiskutyát? Vagy eredménnyel jár Máté, az öreg pásztor kutatása?
Extrák:
magyar felirat
Fejér Tamás filmográfia
Fekete István bibliográfia
Ajánló (2:31)
Média információ:
Video:
Kodek: MPEG-1/2 Video (mpgv)
Felbontás: 720x576
Képkockasebesség: 25
Képformátum: 1.37:1 (4:3)
Hang:
Kodek: A52 Audio (aka AC3) (a52)
Csatornák: 3F2R/LFE
Mintavételi frekvencia: 48000 Hz
Bitsebesség: 448 kb/mp
Formátum: iso
Méret: 4,23 GB
Műsoridő: 1:19:56
(prémium)
[HIDE-THANKS]
Kód:
https://data.hu/get/11610351/D2115i.part1.rar
https://data.hu/get/11610343/D2115i.part2.rar
https://data.hu/get/11610345/D2115i.part3.rar
https://data.hu/get/11610341/D2115i.part4.rar
https://data.hu/get/11610349/D2115i.part5.rar
[/HIDE-THANKS]


Formátum: dvdrip/avi
Méret: 797 MB
Felbontás: 720x544
Mintavételi frekvencia: 48000 Hz
Bitsebesség: 128 kbps
Műsoridő: 1:19:56
Részletes média információ:
I:\Video\29 - Bogáncs.avi
General
Complete name : I:\Video\29 - Bogáncs.avi
Format : AVI
Format/Info : Audio Video Interleave
File size : 796 MiB
Duration : 1 h 19 min
Overall bit rate : 1 393 kb/s
Writing application : VirtualDubMod 1.5.4.1 (build 2178/release)
Writing library : VirtualDubMod build 2178/release
Video #0
ID : 0
Format : MPEG-4 Visual
Format profile : Advanced [email protected]
Format settings, BVOP : 1
Format settings, QPel : No
Format settings, GMC : No warppoints
Format settings, Matrix : Custom
Codec ID : XVID
Codec ID/Hint : XviD
Duration : 1 h 19 min
Bit rate : 1 257 kb/s
Width : 720 pixels
Height : 544 pixels
Display aspect ratio : 4:3
Frame rate : 25.000 FPS
Color space : YUV
Chroma subsampling : 4:2:0
Bit depth : 8 bits
Scan type : Progressive
Compression mode : Lossy
Bits/(Pixel*Frame) : 0.128
Stream size : 719 MiB (90%)
Writing library : XviD 1.2.1 (UTC 2008-12-04)
Audio #1
ID : 1
Format : MPEG Audio
Format version : Version 1
Format profile : Layer 3
Mode : Joint stereo
Mode extension : MS Stereo
Codec ID : 55
Codec ID/Hint : MP3
Duration : 1 h 19 min
Bit rate mode : Constant
Bit rate : 128 kb/s
Channel(s) : 2 channels
Sampling rate : 48.0 kHz
Compression mode : Lossy
Stream size : 73.2 MiB (9%)
Alignment : Aligned on interleaves
Interleave, duration : 80 ms (2.00 video frames)
Interleave, preload duration : 504 ms
Writing library : LAME3.98r
Encoding settings : -m j -V 4 -q 2 -lowpass 17 -b 128
[HIDE-THANKS]
Kód:
https://data.hu/get/11610346/D2115a.rar
[/HIDE-THANKS]
vagy free
[HIDE-THANKS]
Kód:
https://data.hu/get/11610329/D2115av.part1.rar
https://data.hu/get/11610342/D2115av.part2.rar
https://data.hu/get/11610328/D2115av.part3.rar
https://data.hu/get/11610352/D2115av.part4.rar
https://data.hu/get/11610347/D2115av.part5.rar
[/HIDE-THANKS]
 

papadi

Állandó Tag

Rosszemberek
Magyar film (1978)
Főszereplők: Dzsokó Roszics (Djoko Rosic), Kiss Mari, Derzsi János, Dörner György fh., Szabó László
Rendezte: Szomjas György
Magyar filmek gyűjteménye 30.
Fantasy Film, 2007. január 12.
Tartalom a borítóról:
A kiegyezés előtti időkben járunk. Gelencsér Jóska, a hírhedt betyár szegénylegényekből verbuvált csapatával a környék összes Habsburg-barát nemesét végigrabolta már. A környező tanyák nincstelen lakói kiskirályként bánnak a fosztogató banda tagjaival. A hatóság emberei viszont aggódnak: ameddig ilyen barbár állapotok uralkodnak a vidéken, addig nem mernek vasútépítésbe kezdeni, pedig ez nélkülözhetetlen volna a gazdasági fejlődéshez.
Amikor Jóska kegyetlenül végez a marcali bíróval, öccse gyilkosával, betelik a pohár. Hegyessy főszolgabírót utasítják felettesei, hogy bármi áron számoljon le a bandával. Gelencsér azonban nem adja könnyen a bőrét, a banda az utolsó emberig küzd. A lövöldözésben sok csendőr is vérével fizet a békéért, a betyárok dicsősége pedig mindörökre leáldozik.

Extrák:
magyar felirat
Szomjas György filmográfia
Ajánló (2:31)
Média információ:
Video:
Kodek: MPEG-1/2 Video (mpgv)
Felbontás: 720x576
Képkockasebesség: 25
Képformátum: 1.37:1 (4:3)
Hang:
Kodek: A52 Audio (aka AC3) (a52)
Csatornák: 3F2R/LFE
Mintavételi frekvencia: 48000 Hz
Bitsebesség: 448 kb/mp
Formátum: iso
Méret: 4,35 GB
Műsoridő: 1:29:10
(prémium)
[HIDE-THANKS]
Kód:
https://data.hu/get/11610692/D2421i.part1.rar
https://data.hu/get/11610699/D2421i.part2.rar
https://data.hu/get/11610686/D2421i.part3.rar
https://data.hu/get/11610700/D2421i.part4.rar
https://data.hu/get/11610677/D2421i.part5.rar
[/HIDE-THANKS]


Formátum: dvdrip/avi
Méret: 894 MB
Felbontás: 720x544
Mintavételi frekvencia: 48000 Hz
Bitsebesség: 128 kbps
Műsoridő: 1:29:09
Részletes média információ:
I:\Video\30 - Rosszemberek.avi
General
Complete name : I:\Video\30 - Rosszemberek.avi
Format : AVI
Format/Info : Audio Video Interleave
File size : 890 MiB
Duration : 1 h 29 min
Overall bit rate : 1 395 kb/s
Writing application : VirtualDubMod 1.5.4.1 (build 2178/release)
Writing library : VirtualDubMod build 2178/release
Video #0
ID : 0
Format : MPEG-4 Visual
Format profile : Advanced [email protected]
Format settings, BVOP : 1
Format settings, QPel : No
Format settings, GMC : No warppoints
Format settings, Matrix : Custom
Codec ID : XVID
Codec ID/Hint : XviD
Duration : 1 h 29 min
Bit rate : 1 260 kb/s
Width : 720 pixels
Height : 544 pixels
Display aspect ratio : 4:3
Frame rate : 25.000 FPS
Color space : YUV
Chroma subsampling : 4:2:0
Bit depth : 8 bits
Scan type : Progressive
Compression mode : Lossy
Bits/(Pixel*Frame) : 0.129
Stream size : 803 MiB (90%)
Writing library : XviD 1.2.1 (UTC 2008-12-04)
Audio #1
ID : 1
Format : MPEG Audio
Format version : Version 1
Format profile : Layer 3
Mode : Joint stereo
Mode extension : MS Stereo
Codec ID : 55
Codec ID/Hint : MP3
Duration : 1 h 29 min
Bit rate mode : Constant
Bit rate : 128 kb/s
Channel(s) : 2 channels
Sampling rate : 48.0 kHz
Compression mode : Lossy
Stream size : 81.6 MiB (9%)
Alignment : Aligned on interleaves
Interleave, duration : 80 ms (2.00 video frames)
Interleave, preload duration : 504 ms
Writing library : LAME3.98r
Encoding settings : -m j -V 4 -q 2 -lowpass 17 -b 128
[HIDE-THANKS]
Kód:
https://data.hu/get/11610695/D2421a.rar
[/HIDE-THANKS]
vagy free
[HIDE-THANKS]
Kód:
https://data.hu/get/11610682/D2421av.part1.rar
https://data.hu/get/11610689/D2421av.part2.rar
https://data.hu/get/11610683/D2421av.part3.rar
https://data.hu/get/11610680/D2421av.part4.rar
https://data.hu/get/11610687/D2421av.part5.rar
[/HIDE-THANKS]
 

papadi

Állandó Tag


Indul a bakterház
Magyar vígjáték (1979)
Főszereplők: Olvasztó Imre, Koltai Róbert, Horváth Teri, Haumann Péter, Pécsi Ildikó, Bánhidi László, Csákányi László
Rendezte: Mihályfy Sándor
MTV / MOKÉP, MOKÉP 015, 2003. április 8.

Regős Bendegúzt anyja szolgálni küldi a lókupechez, akitől a fiú megszökik. A bakterhez keveredik, s itt kezdődnek el a vidám bonyodalmak. (a borítóról)

Extrák: csaj a dvd-n
Rendezői kommentár
Rideg Sándor bibliográfia
Mihályfy Sándor filmográfia
Interjú - Ahogy a színész emlékezik (7:58)
Mert hasonlítanak! – Két könyv, két kamasz (Ábel a rengetegben – filmrészletek) (5:30)
Kölyökfilmek és jófej kölykök – filmrészletek:
Hahó Öcsi (1:09)
Égigérő fű (2:33)
Hahó a tenger (1:25)
Gyerekrablás a Palánk utcában (1:00)

Média információ:
Video:
Kodek: MPEG-1/2 Video (mpgv)
Felbontás: 720x576
Képkockasebesség: 25
Képformátum: 1.33:1 (4:3)
Hang:
Kodek: A52 Audio (aka AC3) (a52)
Csatornák: Sztereó
Mintavételi frekvencia: 48000 Hz
Bitsebesség: 192 kb/mp
Formátum: iso
Méret: 4,16 GB
Műsoridő: 1:06:10 (1:25:45)
(prémium)
[HIDE-THANKS]
Kód:
https://data.hu/get/11614902/D0690i.part1.rar
https://data.hu/get/11614907/D0690i.part2.rar
https://data.hu/get/11614901/D0690i.part3.rar
https://data.hu/get/11614904/D0690i.part4.rar
https://data.hu/get/11614908/D0690i.part5.rar
[/HIDE-THANKS]


Formátum: dvdrip/avi
Méret: 880 MB
Felbontás: 720x544
Mintavételi frekvencia: 48000 Hz
Bitsebesség: 128 kbps
Műsoridő: 1:06:10
Részletes média információ:
I:\Video\Indul a bakterház.avi
General
Complete name : I:\Video\Indul a bakterház.avi
Format : AVI
Format/Info : Audio Video Interleave
File size : 879 MiB
Duration : 1 h 6 min
Overall bit rate : 1 856 kb/s
Writing application : VirtualDubMod 1.5.4.1 (build 2178/release)
Writing library : VirtualDubMod build 2178/release
Video #0
ID : 0
Format : MPEG-4 Visual
Format profile : Advanced [email protected]
Format settings, BVOP : 1
Format settings, QPel : No
Format settings, GMC : No warppoints
Format settings, Matrix : Custom
Codec ID : XVID
Codec ID/Hint : XviD
Duration : 1 h 6 min
Bit rate : 1 590 kb/s
Width : 720 pixels
Height : 544 pixels
Display aspect ratio : 4:3
Frame rate : 25.000 FPS
Color space : YUV
Chroma subsampling : 4:2:0
Bit depth : 8 bits
Scan type : Progressive
Compression mode : Lossy
Bits/(Pixel*Frame) : 0.162
Stream size : 753 MiB (86%)
Writing library : XviD 1.2.1 (UTC 2008-12-04)
Audio #1
ID : 1
Format : MPEG Audio
Format version : Version 1
Format profile : Layer 3
Mode : Joint stereo
Mode extension : MS Stereo
Codec ID : 55
Codec ID/Hint : MP3
Duration : 1 h 6 min
Bit rate mode : Constant
Bit rate : 128 kb/s
Channel(s) : 2 channels
Sampling rate : 48.0 kHz
Compression mode : Lossy
Stream size : 60.6 MiB (7%)
Alignment : Aligned on interleaves
Interleave, duration : 80 ms (2.00 video frames)
Interleave, preload duration : 504 ms
Writing library : LAME3.98r
Encoding settings : -m j -V 4 -q 2 -lowpass 17 -b 128
Audio #2
ID : 2
Format : MPEG Audio
Format version : Version 1
Format profile : Layer 3
Mode : Joint stereo
Mode extension : MS Stereo
Codec ID : 55
Codec ID/Hint : MP3
Duration : 1 h 6 min
Bit rate mode : Constant
Bit rate : 128 kb/s
Channel(s) : 2 channels
Sampling rate : 48.0 kHz
Compression mode : Lossy
Stream size : 60.6 MiB (7%)
Alignment : Aligned on interleaves
Interleave, duration : 80 ms (2.00 video frames)
Interleave, preload duration : 504 ms
Writing library : LAME3.98r
Encoding settings : -m j -V 4 -q 2 -lowpass 17 -b 128
[HIDE-THANKS]
Kód:
https://data.hu/get/11614909/D0690a.rar
[/HIDE-THANKS]
vagy free
[HIDE-THANKS]
Kód:
https://data.hu/get/11614903/D0690av.part1.rar
https://data.hu/get/11614905/D0690av.part2.rar
https://data.hu/get/11614906/D0690av.part3.rar
https://data.hu/get/11614911/D0690av.part4.rar
https://data.hu/get/11614910/D0690av.part5.rar
[/HIDE-THANKS]
 
Oldal tetejére