Magyar filmek III itt nincs kérés

FLAMINGO témája a 'Film, színház, tánc' fórumban , 2018 Február 3.

  1. papadi

    papadi Állandó Tag

    [​IMG]
    Szent Péter esernyője
    Színes magyar-csehszlovák film (1958)
    Főszereplők: Pécsi Sándor, Törőcsik Mari, Karol Machata, Rajz János, Samuel Adamcik, Ján Bzdúch
    Rendezte: Bán Frigyes
    Magyar filmek gyűjteménye 5.
    Fantasy Film, 2006. október 5.
    Tartalom a borítóról:
    Gregorics, a volt kém még halála után is tud meglepetéseket okozni: rokonai helyett házasságon kívül született gyermekére, Gyurkára hagyja minden vagyonát. Az értékpapírokat az öreg elmaradhatatlan esernyőjének nyelébe rejtette, ám a rokonok ezt nem tudják, és megszabadulnak a kacattól. Az öreg Müncz, az ószeres ezt az ernyőt teszi a glogovai plébános húgocskája fölé a záporban. A falubeliek a csodát Szent Péternek tulajdonítják, az esernyőt nagy becsben tartják. A gyerekek felcseperednek, Gyurka kideríti, hogy hol lehet az öröksége - amit Veronikával való házassága útján próbál megszerezni. Félreértések követik egymást, de végül minden kiderül. A vagyon ugyan elveszett, de a fiatalok egymásra találnak.
    Extrák:
    magyar felirat
    Ajánló (0:51)
    Média információ:
    Video:
    Kodek: MPEG-1/2 Video (mpgv)
    Felbontás: 720x576
    Képkockasebesség: 25
    Képformátum: 1.37:1 (4:3)
    Hang:
    Kodek: A52 Audio (aka AC3) (a52)
    Csatornák: 3F2R/LFE
    Mintavételi frekvencia: 48000 Hz
    Bitsebesség: 448 kb/mp
    Formátum: iso
    Méret: 3,92 GB
    Műsoridő: 1:25:35
    (prémium)
    Rejtett tartalom:
    **Rejtett tartalom: A tartalom megjelenítéséhez kattints a 'Tetszik' gombra.**
    [​IMG]
    Formátum: dvdrip/avi
    Méret: 856 MB
    Felbontás: 720x544
    Mintavételi frekvencia: 48000 Hz
    Bitsebesség: 128 kbps
    Műsoridő: 1:25:34
    Részletes média információ:
    Show Spoiler

    I:\Video\05 - Szent Péter esernyöje.avi
    General
    Complete name : I:\Video\05 - Szent Péter esernyöje.avi
    Format : AVI
    Format/Info : Audio Video Interleave
    File size : 854 MiB
    Duration : 1 h 25 min
    Overall bit rate : 1 396 kb/s
    Writing application : VirtualDubMod 1.5.4.1 (build 2178/release)
    Writing library : VirtualDubMod build 2178/release
    Video #0
    ID : 0
    Format : MPEG-4 Visual
    Format profile : Advanced [email protected]
    Format settings, BVOP : 1
    Format settings, QPel : No
    Format settings, GMC : No warppoints
    Format settings, Matrix : Custom
    Codec ID : XVID
    Codec ID/Hint : XviD
    Duration : 1 h 25 min
    Bit rate : 1 261 kb/s
    Width : 720 pixels
    Height : 544 pixels
    Display aspect ratio : 4:3
    Frame rate : 25.000 FPS
    Color space : YUV
    Chroma subsampling : 4:2:0
    Bit depth : 8 bits
    Scan type : Progressive
    Compression mode : Lossy
    Bits/(Pixel*Frame) : 0.129
    Stream size : 772 MiB (90%)
    Writing library : XviD 1.2.1 (UTC 2008-12-04)
    Audio #1
    ID : 1
    Format : MPEG Audio
    Format version : Version 1
    Format profile : Layer 3
    Mode : Joint stereo
    Mode extension : MS Stereo
    Codec ID : 55
    Codec ID/Hint : MP3
    Duration : 1 h 25 min
    Bit rate mode : Constant
    Bit rate : 128 kb/s
    Channel(s) : 2 channels
    Sampling rate : 48.0 kHz
    Compression mode : Lossy
    Stream size : 78.3 MiB (9%)
    Alignment : Aligned on interleaves
    Interleave, duration : 80 ms (2.00 video frames)
    Interleave, preload duration : 504 ms
    Writing library : LAME3.98r
    Encoding settings : -m j -V 4 -q 2 -lowpass 17 -b 128

    Rejtett tartalom:
    **Rejtett tartalom: A tartalom megjelenítéséhez kattints a 'Tetszik' gombra.**
    vagy free
    Rejtett tartalom:
    **Rejtett tartalom: A tartalom megjelenítéséhez kattints a 'Tetszik' gombra.**
     
  2. papadi

    papadi Állandó Tag

    [​IMG]
    Mici néni két élete
    Fekete-fehér magyar vígjáték (1962)
    Főszereplők: Kiss Manyi, Páger Antal, Szokolai Ottó, Tóth Judit
    Rendezte: Mamcserov Frigyes
    Magyar filmek gyűjteménye 6.
    Fantasy Film, 2006. október 2.
    Tartalom a borítóról:
    Mici néni (Kiss Manyi), az egykori díva már rég nem áll reflektorfényben, de azt még mindig nagyon szereti, ha körülrajongják. A pesti bérház lakói mindannyian arra számítanak, hogy a nagybeteget játszó öreglány egyszer majd elpatkol és megöröklik bútorait, esetleg lakását. Mici néni ügyvédje tanácsára magához vesz egy szigorúan gyerektelen és otthontalan házaspárt, akik haláláig gondját viselik. Cserébe beköltözhetnek a lakásba, ahol féltő gonddal kell teljesíteniük az ő minden óhaját. Csakhogy van egy kis bökkenő: a házaspár gyereket vár, ráadásul Mici néni is alig várja, hogy a fiatalok kitegyék a lábukat a lakásból. Ilyenkor kipattan a betegágyból és rohan randevúzni Alfréddal (Páger Antal), a sármos taxisofőrrel, akivel motorra pattannak, mulatni járnak, akárcsak a fiatalok. Ebből persze számtalan bonyodalom és mulatságos helyzet kerekedik...
    Extrák:
    magyar és angol felirat
    Ajánló (0:51)
    Média információ:
    Video:
    Kodek: MPEG-1/2 Video (mpgv)
    Felbontás: 720x576
    Képkockasebesség: 25
    Képformátum: 1.33:1 (4:3)
    Hang:
    Kodek: A52 Audio (aka AC3) (a52)
    Csatornák: 3F2R/LFE
    Mintavételi frekvencia: 48000 Hz
    Bitsebesség: 448 kb/mp
    Formátum: iso
    Méret: 3,95 GB
    Műsoridő: 1:22:07
    (prémium)
    Rejtett tartalom:
    **Rejtett tartalom: A tartalom megjelenítéséhez kattints a 'Tetszik' gombra.**
    [​IMG]
    Formátum: dvdrip/avi
    Méret: 820 MB
    Felbontás: 720x544
    Mintavételi frekvencia: 48000 Hz
    Bitsebesség: 128 kbps
    Műsoridő: 1:22:06
    Részletes média információ:
    Show Spoiler

    I:\Video\06 - Mici néni két élete.avi
    General
    Complete name : I:\Video\06 - Mici néni két élete.avi
    Format : AVI
    Format/Info : Audio Video Interleave
    File size : 819 MiB
    Duration : 1 h 22 min
    Overall bit rate : 1 395 kb/s
    Writing application : VirtualDubMod 1.5.4.1 (build 2178/release)
    Writing library : VirtualDubMod build 2178/release
    Video #0
    ID : 0
    Format : MPEG-4 Visual
    Format profile : Advanced [email protected]
    Format settings, BVOP : 1
    Format settings, QPel : No
    Format settings, GMC : No warppoints
    Format settings, Matrix : Custom
    Codec ID : XVID
    Codec ID/Hint : XviD
    Duration : 1 h 22 min
    Bit rate : 1 260 kb/s
    Width : 720 pixels
    Height : 544 pixels
    Display aspect ratio : 4:3
    Frame rate : 25.000 FPS
    Color space : YUV
    Chroma subsampling : 4:2:0
    Bit depth : 8 bits
    Scan type : Progressive
    Compression mode : Lossy
    Bits/(Pixel*Frame) : 0.129
    Stream size : 740 MiB (90%)
    Writing library : XviD 1.2.1 (UTC 2008-12-04)
    Audio #1
    ID : 1
    Format : MPEG Audio
    Format version : Version 1
    Format profile : Layer 3
    Mode : Joint stereo
    Mode extension : MS Stereo
    Codec ID : 55
    Codec ID/Hint : MP3
    Duration : 1 h 22 min
    Bit rate mode : Constant
    Bit rate : 128 kb/s
    Channel(s) : 2 channels
    Sampling rate : 48.0 kHz
    Compression mode : Lossy
    Stream size : 75.2 MiB (9%)
    Alignment : Aligned on interleaves
    Interleave, duration : 80 ms (2.00 video frames)
    Interleave, preload duration : 504 ms
    Writing library : LAME3.98r
    Encoding settings : -m j -V 4 -q 2 -lowpass 17 -b 128

    Rejtett tartalom:
    **Rejtett tartalom: A tartalom megjelenítéséhez kattints a 'Tetszik' gombra.**
    vagy free
    Rejtett tartalom:
    **Rejtett tartalom: A tartalom megjelenítéséhez kattints a 'Tetszik' gombra.**
     
    Susella és nandus kedveli ezt.
  3. papadi

    papadi Állandó Tag

    [​IMG]
    Banánhéjkeringő
    Magyar vígjáték (1986)
    Főszereplők: Udvaros Dorottya, Dés Mihály, Básti Juli, Torday Teri, Melis György, Garas Dezső
    Rendezte: Bacsó Péter
    Magyar filmek gyűjteménye 7.
    Fantasy Film, 2006. október 5.
    Tartalom a borítóról:
    Kondacs doktor pechsorozata és kálváriája március 15-én kezdődik, amikor épp az esküvőjére sietne, de útközben egy megkattant és mellesleg pucér lányra teríti szánalomból a kabátját. Ez olyan lavinát indít el, ami fenekestül felfordítja az életét. Az esküvője elmarad, menyasszonya kirúgja a házukból, a főnöke pedig az állásából, mivel politikailag is gyanússá válik. Innen már nincs visszaút, vagy mégis? Az elmegyógyintézet még tárt karokkal várja… Bacsó Péter, A tanú rendezőjének szatírája a rendszerváltás előtti utolsó évek elé tart görbe tükröt.
    Extrák:
    magyar felirat
    Ajánló (0:51)
    Média információ:
    Video:
    Kodek: MPEG-1/2 Video (mpgv)
    Felbontás: 720x576
    Képkockasebesség: 25
    Képformátum: 1.37:1 (4:3)
    Hang:
    Kodek: A52 Audio (aka AC3) (a52)
    Csatornák: 3F2R/LFE
    Mintavételi frekvencia: 48000 Hz
    Bitsebesség: 448 kb/mp
    Formátum: iso
    Méret: 4,34 GB
    Műsoridő: 1:44:42
    (prémium)
    Rejtett tartalom:
    **Rejtett tartalom: A tartalom megjelenítéséhez kattints a 'Tetszik' gombra.**
    [​IMG]
    Formátum: dvdrip/avi
    Méret: 1,02 GB
    Felbontás: 720x544
    Mintavételi frekvencia: 48000 Hz
    Bitsebesség: 128 kbps
    Műsoridő: 1:44:42
    Részletes média információ:
    Show Spoiler

    I:\Video\07 - Banánhéjkeringö.avi
    General
    Complete name : I:\Video\07 - Banánhéjkeringö.avi
    Format : AVI
    Format/Info : Audio Video Interleave
    File size : 1.02 GiB
    Duration : 1 h 44 min
    Overall bit rate : 1 394 kb/s
    Writing application : VirtualDubMod 1.5.4.1 (build 2178/release)
    Writing library : VirtualDubMod build 2178/release
    Video #0
    ID : 0
    Format : MPEG-4 Visual
    Format profile : Advanced [email protected]
    Format settings, BVOP : 1
    Format settings, QPel : No
    Format settings, GMC : No warppoints
    Format settings, Matrix : Custom
    Codec ID : XVID
    Codec ID/Hint : XviD
    Duration : 1 h 44 min
    Bit rate : 1 259 kb/s
    Width : 720 pixels
    Height : 544 pixels
    Display aspect ratio : 4:3
    Frame rate : 25.000 FPS
    Color space : YUV
    Chroma subsampling : 4:2:0
    Bit depth : 8 bits
    Scan type : Progressive
    Compression mode : Lossy
    Bits/(Pixel*Frame) : 0.129
    Stream size : 943 MiB (90%)
    Writing library : XviD 1.2.1 (UTC 2008-12-04)
    Audio #1
    ID : 1
    Format : MPEG Audio
    Format version : Version 1
    Format profile : Layer 3
    Mode : Joint stereo
    Mode extension : MS Stereo
    Codec ID : 55
    Codec ID/Hint : MP3
    Duration : 1 h 44 min
    Bit rate mode : Constant
    Bit rate : 128 kb/s
    Channel(s) : 2 channels
    Sampling rate : 48.0 kHz
    Compression mode : Lossy
    Stream size : 95.9 MiB (9%)
    Alignment : Aligned on interleaves
    Interleave, duration : 80 ms (2.00 video frames)
    Interleave, preload duration : 504 ms
    Writing library : LAME3.98r
    Encoding settings : -m j -V 4 -q 2 -lowpass 17 -b 128

    Rejtett tartalom:
    **Rejtett tartalom: A tartalom megjelenítéséhez kattints a 'Tetszik' gombra.**
    vagy free
    Rejtett tartalom:
    **Rejtett tartalom: A tartalom megjelenítéséhez kattints a 'Tetszik' gombra.**
     
    nandus kedveli ezt.
  4. papadi

    papadi Állandó Tag

    [​IMG]
    Édes Anna
    Fekete-fehér magyar filmdráma (1958)
    Főszereplők: Törőcsik Mari, Mezei Mária, Kovács Károly, Fülöp Zsigmond fh.
    Rendezte: Fábri Zoltán
    Magyar filmek gyűjteménye 8.
    Fantasy Film, 2006. október 5.
    Tartalom a borítóról:
    Vizyék a kommün bukása után igyekeznek úgy folytatni életüket, mint a felfordulás előtt. Felvesznek egy új mindenest, a csendes és szorgalmas Annát. A lánynak udvarlója is akad, a tisztességes kéményseprőfiú, de Anna az úr unokaöccsébe, Jancsiba lesz szerelmes. A férfi elcsábítja a lányt, de többet nem törődik vele, csak akkor, amikor kiderül: terhes. Ekkor pénzt ad a műtétre. Vizyék egy pompázatos vacsorán vendégül látják Jancsit és új barátnőjét. Anna mélységes megaláztatásában éjjel leszúrja a Vizy házaspárt.
    Extrák:
    magyar és angol felirat
    Ajánló (0:51)
    Média információ:
    Video:
    Kodek: MPEG-1/2 Video (mpgv)
    Felbontás: 720x576
    Képkockasebesség: 25
    Képformátum: 1.37:1 (4:3)
    Hang:
    Kodek: A52 Audio (aka AC3) (a52)
    Csatornák: 3F2R/LFE
    Mintavételi frekvencia: 48000 Hz
    Bitsebesség: 448 kb/mp
    Formátum: iso
    Méret: 3,91 GB
    Műsoridő: 1:23:54
    (prémium)
    Rejtett tartalom:
    **Rejtett tartalom: A tartalom megjelenítéséhez kattints a 'Tetszik' gombra.**
    [​IMG]
    Formátum: dvdrip/avi
    Méret: 833 MB
    Felbontás: 720x544
    Mintavételi frekvencia: 48000 Hz
    Bitsebesség: 128 kbps
    Műsoridő: 1:23:54
    Részletes média információ:
    Show Spoiler

    I:\Video\08 - Édes Anna.avi
    General
    Complete name : I:\Video\08 - Édes Anna.avi
    Format : AVI
    Format/Info : Audio Video Interleave
    File size : 837 MiB
    Duration : 1 h 23 min
    Overall bit rate : 1 395 kb/s
    Writing application : VirtualDubMod 1.5.4.1 (build 2178/release)
    Writing library : VirtualDubMod build 2178/release
    Video #0
    ID : 0
    Format : MPEG-4 Visual
    Format profile : Advanced [email protected]
    Format settings, BVOP : 1
    Format settings, QPel : No
    Format settings, GMC : No warppoints
    Format settings, Matrix : Custom
    Codec ID : XVID
    Codec ID/Hint : XviD
    Duration : 1 h 23 min
    Bit rate : 1 260 kb/s
    Width : 720 pixels
    Height : 544 pixels
    Display aspect ratio : 4:3
    Frame rate : 25.000 FPS
    Color space : YUV
    Chroma subsampling : 4:2:0
    Bit depth : 8 bits
    Scan type : Progressive
    Compression mode : Lossy
    Bits/(Pixel*Frame) : 0.129
    Stream size : 756 MiB (90%)
    Writing library : XviD 1.2.1 (UTC 2008-12-04)
    Audio #1
    ID : 1
    Format : MPEG Audio
    Format version : Version 1
    Format profile : Layer 3
    Mode : Joint stereo
    Mode extension : MS Stereo
    Codec ID : 55
    Codec ID/Hint : MP3
    Duration : 1 h 23 min
    Bit rate mode : Constant
    Bit rate : 128 kb/s
    Channel(s) : 2 channels
    Sampling rate : 48.0 kHz
    Compression mode : Lossy
    Stream size : 76.8 MiB (9%)
    Alignment : Aligned on interleaves
    Interleave, duration : 80 ms (2.00 video frames)
    Interleave, preload duration : 504 ms
    Writing library : LAME3.98r
    Encoding settings : -m j -V 4 -q 2 -lowpass 17 -b 128

    Rejtett tartalom:
    **Rejtett tartalom: A tartalom megjelenítéséhez kattints a 'Tetszik' gombra.**
    vagy free
    Rejtett tartalom:
    **Rejtett tartalom: A tartalom megjelenítéséhez kattints a 'Tetszik' gombra.**
     
  5. papadi

    papadi Állandó Tag

    [​IMG]
    Két félidő a pokolban
    Fekete-fehér magyar háborús filmdráma (1961)
    Főszereplők: Sinkovits Imre, Garas Dezső, Márkus László, Molnár Tibor, Koltai János fh., Benkő Gyula, Suka Sándor, Gera Zoltán, Velenczey István, Horváth József, Komlós András, Szilágyi Gyula, Végvári Tamás fh., Rajz János, Görbe János, Egri István, Solti Bertalan, Misoga László, Apor Noémi, Fenyő Emil, Brachfeld Siegfried, Maklári János, Farkas Antal, Szendrő József, Bángyörgyi Károly, Iványi József
    Rendezte: Fábri Zoltán
    Magyar filmek gyűjteménye 9.
    Fantasy Film, 2006. október 2.
    Tartalom a borítóról:
    Valahol Ukrajnában vagyunk. A testileg-lelkileg meggyengült munkaszolgálatosok egy utolsó esélyt kapnak: mivel Hitler születésnapja van, összemérhetik erejüket egy futballmérkőzés keretében a német katonák válogatottjával. A szervezéssel Ónodi II.-t az egykori futballcsillagot bízzák meg, aki eleinte nem akarja elvállalni, hogy megszervezze a mérkőzést. Pedig ez lehet a foglyok utolsó esélye, és a focisták élelmet kapnak és mentesülnek a bányamunka alól is. A meccs ezúttal a túlélésért folyik, és a győzelem nem marad el. Az önfeledt ünneplés közben a német parancsnok tűzparancsot ad a gépfegyvereseknek...
    Extrák:
    magyar és angol felirat
    Ajánló (0:51)
    Média információ:
    Video:
    Kodek: MPEG-1/2 Video (mpgv)
    Felbontás: 720x576
    Képkockasebesség: 25
    Képformátum: 1.37:1 (4:3)
    Hang:
    Kodek: A52 Audio (aka AC3) (a52)
    Csatornák: 3F2R/LFE
    Mintavételi frekvencia: 48000 Hz
    Bitsebesség: 448 kb/mp
    Formátum: iso
    Méret: 4,27 GB
    Műsoridő: 1:59:17
    (prémium)
    Rejtett tartalom:
    **Rejtett tartalom: A tartalom megjelenítéséhez kattints a 'Tetszik' gombra.**
    [​IMG]
    Formátum: dvdrip/avi
    Méret: 1,16 GB
    Felbontás: 720x544
    Mintavételi frekvencia: 48000 Hz
    Bitsebesség: 128 kbps
    Műsoridő: 1:59:16
    Részletes média információ:
    Show Spoiler

    I:\Video\09 - Két félidö a pokolban.avi
    General
    Complete name : I:\Video\09 - Két félidö a pokolban.avi
    Format : AVI
    Format/Info : Audio Video Interleave
    File size : 1.16 GiB
    Duration : 1 h 59 min
    Overall bit rate : 1 397 kb/s
    Writing application : VirtualDubMod 1.5.4.1 (build 2178/release)
    Writing library : VirtualDubMod build 2178/release
    Video #0
    ID : 0
    Format : MPEG-4 Visual
    Format profile : Advanced [email protected]
    Format settings, BVOP : 1
    Format settings, QPel : No
    Format settings, GMC : No warppoints
    Format settings, Matrix : Custom
    Codec ID : XVID
    Codec ID/Hint : XviD
    Duration : 1 h 59 min
    Bit rate : 1 261 kb/s
    Width : 720 pixels
    Height : 544 pixels
    Display aspect ratio : 4:3
    Frame rate : 25.000 FPS
    Color space : YUV
    Chroma subsampling : 4:2:0
    Bit depth : 8 bits
    Scan type : Progressive
    Compression mode : Lossy
    Bits/(Pixel*Frame) : 0.129
    Stream size : 1.05 GiB (90%)
    Writing library : XviD 1.2.1 (UTC 2008-12-04)
    Audio #1
    ID : 1
    Format : MPEG Audio
    Format version : Version 1
    Format profile : Layer 3
    Mode : Joint stereo
    Mode extension : MS Stereo
    Codec ID : 55
    Codec ID/Hint : MP3
    Duration : 1 h 59 min
    Bit rate mode : Constant
    Bit rate : 128 kb/s
    Channel(s) : 2 channels
    Sampling rate : 48.0 kHz
    Compression mode : Lossy
    Stream size : 109 MiB (9%)
    Alignment : Aligned on interleaves
    Interleave, duration : 80 ms (2.00 video frames)
    Interleave, preload duration : 504 ms
    Writing library : LAME3.98r
    Encoding settings : -m j -V 4 -q 2 -lowpass 17 -b 128

    Rejtett tartalom:
    **Rejtett tartalom: A tartalom megjelenítéséhez kattints a 'Tetszik' gombra.**
    vagy free
    Rejtett tartalom:
    **Rejtett tartalom: A tartalom megjelenítéséhez kattints a 'Tetszik' gombra.**
     
  6. papadi

    papadi Állandó Tag

    [​IMG]
    Hattyúdal
    Fekete-fehér magyar vígjáték(1963)
    Főszereplők: Páger Antal, Várkonyi Zoltán, Szirtes Ádám, Sztankay István, Bodrogi Gyula, Béres Ilona fh., Kállai Ferenc, Kiss Manyi, Győrffy György, Gobbi Hilda, Pécsi Ildikó, Rajz János, Rátonyi Róbert, Szendrő József, Avar István, Peti Sándor
    Rendezte: Keleti Márton
    Magyar filmek gyűjteménye 10.
    Fantasy Film, 2006. október 2.
    Tartalom a borítóról:
    A Villa Negra valóban nem fényes lokál, hanem egy kültelki viskó az épülő lakótelep szomszédságában. Itt él Tamburás (Páger Antal), a vén csavargó és kisstílű szélhámos, aki gondtalan életét apróbb lopásokkal, stiklikkel, néha alkalmi munkákkal színesíti. Maga köré gyűjti a kallódó fiatalokat, akiket szintén a könnyed életre nevel. Ám Tamburásnak is be kell látnia, hogy társai ennél többre vágynak és hamarosan nemcsak ők fogják elhagyni, hanem a féktelen mulatozásoktól hangos otthonát, a Villa Negrát is maga alá gyűri a gyorsan terjeszkedő városrész.
    Extrák:
    magyar és angol felirat
    Ajánló (0:51)
    Média információ:
    Video:
    Kodek: MPEG-1/2 Video (mpgv)
    Felbontás: 720x576
    Képkockasebesség: 25
    Képformátum: 1.37:1 (4:3)
    Hang:
    Kodek: A52 Audio (aka AC3) (a52)
    Csatornák: 3F2R/LFE
    Mintavételi frekvencia: 48000 Hz
    Bitsebesség: 448 kb/mp
    Formátum: iso
    Méret: 4,16 GB
    Műsoridő: 1:35:47
    (prémium)
    Rejtett tartalom:
    **Rejtett tartalom: A tartalom megjelenítéséhez kattints a 'Tetszik' gombra.**
    [​IMG]
    Formátum: dvdrip/avi
    Méret: 955 MB
    Felbontás: 720x544
    Mintavételi frekvencia: 48000 Hz
    Bitsebesség: 128 kbps
    Műsoridő: 1:35:47
    Részletes média információ:
    Show Spoiler

    I:\Video\10 - Hattyúdal.avi
    General
    Complete name : I:\Video\10 - Hattyúdal.avi
    Format : AVI
    Format/Info : Audio Video Interleave
    File size : 954 MiB
    Duration : 1 h 35 min
    Overall bit rate : 1 393 kb/s
    Writing application : VirtualDubMod 1.5.4.1 (build 2178/release)
    Writing library : VirtualDubMod build 2178/release
    Video #0
    ID : 0
    Format : MPEG-4 Visual
    Format profile : Advanced [email protected]
    Format settings, BVOP : 1
    Format settings, QPel : No
    Format settings, GMC : No warppoints
    Format settings, Matrix : Custom
    Codec ID : XVID
    Codec ID/Hint : XviD
    Duration : 1 h 35 min
    Bit rate : 1 258 kb/s
    Width : 720 pixels
    Height : 544 pixels
    Display aspect ratio : 4:3
    Frame rate : 25.000 FPS
    Color space : YUV
    Chroma subsampling : 4:2:0
    Bit depth : 8 bits
    Scan type : Progressive
    Compression mode : Lossy
    Bits/(Pixel*Frame) : 0.128
    Stream size : 862 MiB (90%)
    Writing library : XviD 1.2.1 (UTC 2008-12-04)
    Audio #1
    ID : 1
    Format : MPEG Audio
    Format version : Version 1
    Format profile : Layer 3
    Mode : Joint stereo
    Mode extension : MS Stereo
    Codec ID : 55
    Codec ID/Hint : MP3
    Duration : 1 h 35 min
    Bit rate mode : Constant
    Bit rate : 128 kb/s
    Channel(s) : 2 channels
    Sampling rate : 48.0 kHz
    Compression mode : Lossy
    Stream size : 87.7 MiB (9%)
    Alignment : Aligned on interleaves
    Interleave, duration : 80 ms (2.00 video frames)
    Interleave, preload duration : 504 ms
    Writing library : LAME3.98r
    Encoding settings : -m j -V 4 -q 2 -lowpass 17 -b 128

    Rejtett tartalom:
    **Rejtett tartalom: A tartalom megjelenítéséhez kattints a 'Tetszik' gombra.**
    vagy free
    Rejtett tartalom:
    **Rejtett tartalom: A tartalom megjelenítéséhez kattints a 'Tetszik' gombra.**
     
  7. papadi

    papadi Állandó Tag

    [​IMG]
    Hahó, Öcsi!
    Magyar ifjúsági film (1971)
    Főszereplők: Kovács Krisztián, Kiss Manyi, Koncz Gábor, Szakács Eszter
    Rendezte: Palásthy György
    Magyar filmek gyűjteménye 11.
    Fantasy Film, 2006. november 15.
    Tartalom a borítóról:
    A Balog család mindig rohan, az öt éves Öcsire soha nincs senkinek ideje. Ráadásul rossz viselkedése miatt a fürdőszobába is bezárják egy nyári reggelen. A fürdőkád vizén azonban kis vitorláson Kököjszi és Bobojsza siet a kisfiú megmentésére. A jóságos törpék segítenek a Öcsinek megtalálni az "Időt", hogy szülei végre tudjanak vele foglalkozni. A kisfiú útja az óragyárba, majd a bergengóc király udvarába vezet. Ott megtudja, hogy az "Időt" a hétfejű sárkány rabolta el. Hála a kis királylánytól kapott varázsvirágnak, a hős Öcsi legyőzi a rettenetes sárkányt. Így elnyeri a királylány kezét, a fele királyságot, de legfőképpen az "Időt". Így visszatértekor már kedves, türelmes szülők várják, s boldogan indul az óvodába.
    Extrák:
    magyar felirat
    Palásthy György Érdemes Művész (1977) - 1:19
    Palásthy György forgatja a Szeleburdi családot (1981) - 1:48
    Korabeli filmhíradó: Palásthy rendez: A Varázsló forgatásáról (1968) - 1:18
    Ajánlók - 2:31
    Média információ:
    Video:
    Kodek: MPEG-1/2 Video (mpgv)
    Felbontás: 720x576
    Képkockasebesség: 25
    Képformátum: 1.85:1 (16:9)
    Hang:
    Kodek: A52 Audio (aka AC3) (a52)
    Csatornák: 3F2R/LFE
    Mintavételi frekvencia: 48000 Hz
    Bitsebesség: 448 kb/mp
    Formátum: iso
    Méret: 4,15 GB
    Műsoridő: 1:20:07 (1:27:03)
    (prémium)
    Rejtett tartalom:
    **Rejtett tartalom: A tartalom megjelenítéséhez kattints a 'Tetszik' gombra.**
    [​IMG]
    Formátum: dvdrip/avi
    Méret: 802 MB
    Felbontás: 720x416
    Mintavételi frekvencia: 48000 Hz
    Bitsebesség: 128 kbps
    Műsoridő: 1:20:07
    Részletes média információ:
    Show Spoiler

    I:\Video\11 - Hahó Öcsi!.avi
    General
    Complete name : I:\Video\11 - Hahó Öcsi!.avi
    Format : AVI
    Format/Info : Audio Video Interleave
    File size : 802 MiB
    Duration : 1 h 20 min
    Overall bit rate : 1 399 kb/s
    Writing application : VirtualDubMod 1.5.4.1 (build 2178/release)
    Writing library : VirtualDubMod build 2178/release
    Video #0
    ID : 0
    Format : MPEG-4 Visual
    Format profile : Advanced [email protected]
    Format settings, BVOP : 1
    Format settings, QPel : No
    Format settings, GMC : No warppoints
    Format settings, Matrix : Custom
    Codec ID : XVID
    Codec ID/Hint : XviD
    Duration : 1 h 20 min
    Bit rate : 1 263 kb/s
    Width : 720 pixels
    Height : 416 pixels
    Display aspect ratio : 1.731
    Frame rate : 25.000 FPS
    Color space : YUV
    Chroma subsampling : 4:2:0
    Bit depth : 8 bits
    Scan type : Progressive
    Compression mode : Lossy
    Bits/(Pixel*Frame) : 0.169
    Stream size : 724 MiB (90%)
    Writing library : XviD 1.2.1 (UTC 2008-12-04)
    Audio #1
    ID : 1
    Format : MPEG Audio
    Format version : Version 1
    Format profile : Layer 3
    Mode : Joint stereo
    Mode extension : MS Stereo
    Codec ID : 55
    Codec ID/Hint : MP3
    Duration : 1 h 20 min
    Bit rate mode : Constant
    Bit rate : 128 kb/s
    Channel(s) : 2 channels
    Sampling rate : 48.0 kHz
    Compression mode : Lossy
    Stream size : 73.4 MiB (9%)
    Alignment : Aligned on interleaves
    Interleave, duration : 80 ms (2.00 video frames)
    Interleave, preload duration : 504 ms
    Writing library : LAME3.98r
    Encoding settings : -m j -V 4 -q 2 -lowpass 17 -b 128

    Rejtett tartalom:
    **Rejtett tartalom: A tartalom megjelenítéséhez kattints a 'Tetszik' gombra.**
    vagy free
    Rejtett tartalom:
    **Rejtett tartalom: A tartalom megjelenítéséhez kattints a 'Tetszik' gombra.**
     
    wagnerur100 és nandus kedveli ezt.
  8. papadi

    papadi Állandó Tag

    [​IMG]
    Hahó, a tenger!
    Magyar ifjúsági film (1972)
    Főszereplők: Kovács Krisztián, Muszte Anna, Balázsovits Lajos, Gobbi Hilda, Schütz Ila, György László, Csákányi László, Alfonzó, Markos Kati (Zeitler Orsi)
    Rendezte: Palásthy György
    Magyar filmek gyűjteménye 12.
    Fantasy Film, 2006. november 15.
    Tartalom a borítóról:
    A szülők nagy gondban vannak. Hamarosan kisbabájuk születik, és fogalmuk sincs, hogy közöljék a hírt az első osztályos Öcsivel. Addig halogatják a dolgot, míg végül a kisfiú barátnőjétől, Évitől értesül a nagy újságról. Öcsi fel van háborodva, hogy mindent ő tud meg utoljára. Ráadásul fogalma sincs, miért örülnek szülei annyira egy idegennek, akiről azt sem tudni, fiú-e vagy lány. Mire azonban a családi Trabanttal hazaszállítják a kórházból a kis jövevényt, Öcsi is megbarátkozik a helyzettel. Még az "Öcsi" nevet is átadja a család legifjabb tagjának, és úgy dönt, ő ezután valódi keresztnevét fogja használni.
    Extrák:
    magyar felirat
    Palásthy György Érdemes Művész (1977) - 1:19
    Palásthy György forgatja a Szeleburdi családot (1981) - 1:48
    Korabeli filmhíradó: Palásthy rendez: A Varázsló forgatásáról (1968) - 1:18
    Ajánlók - 2:31
    Média információ:
    Video:
    Kodek: MPEG-1/2 Video (mpgv)
    Felbontás: 720x576
    Képkockasebesség: 25
    Képformátum: 1.37:1 (4:3)
    Hang:
    Kodek: A52 Audio (aka AC3) (a52)
    Csatornák: 3F2R/LFE
    Mintavételi frekvencia: 48000 Hz
    Bitsebesség: 448 kb/mp
    Formátum: iso
    Méret: 3,97 GB
    Műsoridő: 1:05:37 (1:12:33)
    (prémium)
    Rejtett tartalom:
    **Rejtett tartalom: A tartalom megjelenítéséhez kattints a 'Tetszik' gombra.**
    [​IMG]
    Formátum: dvdrip/avi
    Méret: 656 MB
    Felbontás: 720x544
    Mintavételi frekvencia: 48000 Hz
    Bitsebesség: 128 kbps
    Műsoridő: 1:05:37
    Részletes média információ:
    Show Spoiler

    I:\Video\12 - Hahó, a tenger!.avi
    General
    Complete name : I:\Video\12 - Hahó, a tenger!.avi
    Format : AVI
    Format/Info : Audio Video Interleave
    File size : 655 MiB
    Duration : 1 h 5 min
    Overall bit rate : 1 395 kb/s
    Writing application : VirtualDubMod 1.5.4.1 (build 2178/release)
    Writing library : VirtualDubMod build 2178/release
    Video #0
    ID : 0
    Format : MPEG-4 Visual
    Format profile : Advanced [email protected]
    Format settings, BVOP : 1
    Format settings, QPel : No
    Format settings, GMC : No warppoints
    Format settings, Matrix : Custom
    Codec ID : XVID
    Codec ID/Hint : XviD
    Duration : 1 h 5 min
    Bit rate : 1 259 kb/s
    Width : 720 pixels
    Height : 544 pixels
    Display aspect ratio : 4:3
    Frame rate : 25.000 FPS
    Color space : YUV
    Chroma subsampling : 4:2:0
    Bit depth : 8 bits
    Scan type : Progressive
    Compression mode : Lossy
    Bits/(Pixel*Frame) : 0.129
    Stream size : 591 MiB (90%)
    Writing library : XviD 1.2.1 (UTC 2008-12-04)
    Audio #1
    ID : 1
    Format : MPEG Audio
    Format version : Version 1
    Format profile : Layer 3
    Mode : Joint stereo
    Mode extension : MS Stereo
    Codec ID : 55
    Codec ID/Hint : MP3
    Duration : 1 h 5 min
    Bit rate mode : Constant
    Bit rate : 128 kb/s
    Channel(s) : 2 channels
    Sampling rate : 48.0 kHz
    Compression mode : Lossy
    Stream size : 60.1 MiB (9%)
    Alignment : Aligned on interleaves
    Interleave, duration : 80 ms (2.00 video frames)
    Interleave, preload duration : 504 ms
    Writing library : LAME3.98r
    Encoding settings : -m j -V 4 -q 2 -lowpass 17 -b 128

    Rejtett tartalom:
    **Rejtett tartalom: A tartalom megjelenítéséhez kattints a 'Tetszik' gombra.**
    vagy free
    Rejtett tartalom:
    **Rejtett tartalom: A tartalom megjelenítéséhez kattints a 'Tetszik' gombra.**
     
    wagnerur100 és nandus kedveli ezt.
  9. papadi

    papadi Állandó Tag

    [​IMG]
    Kincskereső kis ködmön (Kincskereső kisködmön)
    Magyar ifjúsági film (1972)
    Főszereplők: Szűcs Gábor, Bihary József, Gruber István, Haumann Péter, Medgyesi Mária, Pongrácz Imre, Szirtes Ádám, Fónay Márta, Gobbi Hilda, Hegedűs Erzsébet, Vargha Irén
    Rendezte: Szemes Mihály
    Magyar filmek gyűjteménye 13.
    Fantasy Film, 2007. január 12.
    Tartalom a borítóról:
    Szűcs Ferkó a nyomorban élő falusi gyermekek mindennapjait éli, de szárnyaló fantáziája segítségével a mesék és babonás történetek világába jut el. Édesapja egy gyönyörű ködmönt varr neki, melyben egy angyal vigyázza Ferkó minden lépését. Szükség is van rá, mert az öreg Küsmödi bácsi, az öreg bánya őre el akarja varázsolni, az iskolában pedig társai csúfolják. Ferkó a "csodatévő" kisködmön segítségével saját erejéből felül tud kerekedni a bajokon. Amikor új osztálytársa, a szerencsétlen sorsú kis Bicebóca ellenében csalást követ el, hogy ő nyerje el a matekdolgozat hibátlan megoldásáért járó Égbelátót, lelkiismeretfurdalás kezdi gyötörni és elhatározza, hogy minden bűnét jóvá teszi...
    Extrák:
    magyar felirat
    Ajánló (1:41)
    Média információ:
    Video:
    Kodek: MPEG-1/2 Video (mpgv)
    Felbontás: 720x576
    Képkockasebesség: 25
    Képformátum: 1.37:1 (4:3)
    Hang:
    Kodek: A52 Audio (aka AC3) (a52)
    Csatornák: 3F2R/LFE
    Mintavételi frekvencia: 48000 Hz
    Bitsebesség: 448 kb/mp
    Formátum: iso
    Méret: 4,07 GB
    Műsoridő: 1:30:23
    (prémium)
    Rejtett tartalom:
    **Rejtett tartalom: A tartalom megjelenítéséhez kattints a 'Tetszik' gombra.**
    [​IMG]
    Formátum: dvdrip/avi
    Méret: 902 MB
    Felbontás: 720x544
    Mintavételi frekvencia: 48000 Hz
    Bitsebesség: 128 kbps
    Műsoridő: 1:30:23
    Részletes média információ:
    Show Spoiler

    I:\Video\13 - Kincskeresö kisködmön.avi
    General
    Complete name : I:\Video\13 - Kincskeresö kisködmön.avi
    Format : AVI
    Format/Info : Audio Video Interleave
    File size : 901 MiB
    Duration : 1 h 30 min
    Overall bit rate : 1 394 kb/s
    Writing application : VirtualDubMod 1.5.4.1 (build 2178/release)
    Writing library : VirtualDubMod build 2178/release
    Video #0
    ID : 0
    Format : MPEG-4 Visual
    Format profile : Advanced [email protected]
    Format settings, BVOP : 1
    Format settings, QPel : No
    Format settings, GMC : No warppoints
    Format settings, Matrix : Custom
    Codec ID : XVID
    Codec ID/Hint : XviD
    Duration : 1 h 30 min
    Bit rate : 1 258 kb/s
    Width : 720 pixels
    Height : 544 pixels
    Display aspect ratio : 4:3
    Frame rate : 25.000 FPS
    Color space : YUV
    Chroma subsampling : 4:2:0
    Bit depth : 8 bits
    Scan type : Progressive
    Compression mode : Lossy
    Bits/(Pixel*Frame) : 0.128
    Stream size : 813 MiB (90%)
    Writing library : XviD 1.2.1 (UTC 2008-12-04)
    Audio #1
    ID : 1
    Format : MPEG Audio
    Format version : Version 1
    Format profile : Layer 3
    Mode : Joint stereo
    Mode extension : MS Stereo
    Codec ID : 55
    Codec ID/Hint : MP3
    Duration : 1 h 30 min
    Bit rate mode : Constant
    Bit rate : 128 kb/s
    Channel(s) : 2 channels
    Sampling rate : 48.0 kHz
    Compression mode : Lossy
    Stream size : 82.8 MiB (9%)
    Alignment : Aligned on interleaves
    Interleave, duration : 80 ms (2.00 video frames)
    Interleave, preload duration : 504 ms
    Writing library : LAME3.98r
    Encoding settings : -m j -V 4 -q 2 -lowpass 17 -b 128

    Rejtett tartalom:
    **Rejtett tartalom: A tartalom megjelenítéséhez kattints a 'Tetszik' gombra.**
    vagy free
    Rejtett tartalom:
    **Rejtett tartalom: A tartalom megjelenítéséhez kattints a 'Tetszik' gombra.**
     
  10. papadi

    papadi Állandó Tag

    [​IMG]
    Budapesti mesék
    Magyar filmdráma (1976)
    Főszereplők: Mészáros Ági, Maja Komorowska, Franciszek Pieczka, Bálint András, Kovács Károly, Bánsági Ildikó, Madaras József, Simon Szurmiej, Huszárik Zoltán, Békés Rita, Bodis Irén, Kun Vilmos, Halmágyi Sándor, Jani János
    Rendezte: Szabó István
    Magyar filmek gyűjteménye 14.
    Fantasy Film, 2007. január 12.
    Tartalom a borítóról:
    A nagy világégés után az emberek sorban bújnak elő rejtekhelyeikről. A Duna-parton egy felborult villamoskocsi fekszik, valamikor a városban róhatta az utcákat, de most ez jelképezi azt a pusztítást, melyet a háború végzett nemcsak az országban, de a fejekben és a lelkekben is. Az emberek összefognak és óriási erőfeszítések árán visszaemelik a sínre, amely talán elvezet a remízbe, vagyis a városba, ahol mindenki új életet kezdhet. A hihetetlenül hosszú, kegyetlenül nehéz utazás során megismerhetünk emberi sorsokat, konfliktusokat, szerelmeket és a nagy utazás végén kiderül, vajon érdemes volt-e a hosszú utat végigszenvedni mindazoknak, akik vállalták, hogy a villamost tolva újra felépíthetik a várost és saját életüket...
    Extrák:
    angol és magyar felirat
    Ajánló (1:41)
    Média információ:
    Video:
    Kodek: MPEG-1/2 Video (mpgv)
    Felbontás: 720x576
    Képkockasebesség: 25
    Képformátum: 1.37:1 (4:3)
    Hang:
    Kodek: A52 Audio (aka AC3) (a52)
    Csatornák: 3F2R/LFE
    Mintavételi frekvencia: 48000 Hz
    Bitsebesség: 448 kb/mp
    Formátum: iso
    Méret: 3,98 GB
    Műsoridő: 0:00:00
    (prémium)
    Rejtett tartalom:
    **Rejtett tartalom: A tartalom megjelenítéséhez kattints a 'Tetszik' gombra.**
    [​IMG]
    Formátum: dvdrip/avi
    Méret: 838 MB
    Felbontás: 720x544
    Mintavételi frekvencia: 48000 Hz
    Bitsebesség: 128 kbps
    Műsoridő: 1:24:06
    Részletes média információ:
    Show Spoiler

    I:\Video\14 - Budapesti mesék.avi
    General
    Complete name : I:\Video\14 - Budapesti mesék.avi
    Format : AVI
    Format/Info : Audio Video Interleave
    File size : 837 MiB
    Duration : 1 h 24 min
    Overall bit rate : 1 392 kb/s
    Writing application : VirtualDubMod 1.5.4.1 (build 2178/release)
    Writing library : VirtualDubMod build 2178/release
    Video #0
    ID : 0
    Format : MPEG-4 Visual
    Format profile : Advanced [email protected]
    Format settings, BVOP : 1
    Format settings, QPel : No
    Format settings, GMC : No warppoints
    Format settings, Matrix : Custom
    Codec ID : XVID
    Codec ID/Hint : XviD
    Duration : 1 h 24 min
    Bit rate : 1 256 kb/s
    Width : 720 pixels
    Height : 544 pixels
    Display aspect ratio : 4:3
    Frame rate : 25.000 FPS
    Color space : YUV
    Chroma subsampling : 4:2:0
    Bit depth : 8 bits
    Scan type : Progressive
    Compression mode : Lossy
    Bits/(Pixel*Frame) : 0.128
    Stream size : 756 MiB (90%)
    Writing library : XviD 1.2.1 (UTC 2008-12-04)
    Audio #1
    ID : 1
    Format : MPEG Audio
    Format version : Version 1
    Format profile : Layer 3
    Mode : Joint stereo
    Mode extension : MS Stereo
    Codec ID : 55
    Codec ID/Hint : MP3
    Duration : 1 h 24 min
    Bit rate mode : Constant
    Bit rate : 128 kb/s
    Channel(s) : 2 channels
    Sampling rate : 48.0 kHz
    Compression mode : Lossy
    Stream size : 77.0 MiB (9%)
    Alignment : Aligned on interleaves
    Interleave, duration : 80 ms (2.00 video frames)
    Interleave, preload duration : 504 ms
    Writing library : LAME3.98r
    Encoding settings : -m j -V 4 -q 2 -lowpass 17 -b 128

    Rejtett tartalom:
    **Rejtett tartalom: A tartalom megjelenítéséhez kattints a 'Tetszik' gombra.**
    vagy free
    Rejtett tartalom:
    **Rejtett tartalom: A tartalom megjelenítéséhez kattints a 'Tetszik' gombra.**
     
    hegyisas és nandus kedveli ezt.
  11. papadi

    papadi Állandó Tag

    [​IMG]
    Szabadíts meg a gonosztól!
    Magyar filmdráma (1978)
    Főszereplők: Psota Irén, Garas Dezső, Kútvölgyi Erzsébet, Kern András, Andorai Péter, Major Tamás, Margittai Ági, Rátonyi Róbert, Horváth Jenő
    Rendezte: Sándor Pál
    Magyar filmek gyűjteménye 15.
    Fantasy Film, 2007. január 12.
    Tartalom a borítóról:
    A háború vége felé járunk. A Végvári Tánciskolában folyik a táncóra. András (Kern András) a ruhatáros Adorjánné fia kihasználva a légiriadó okozta zűrzavart, ellop egy kabátot, hogy miután eladta, a pénzből megvásárolhassa egy örömlány szolgáltatásait. A ruhatárosnő (Psota Irén) gyermekei és sógora, Svéd Feri (Garas Dezső) segítségével útnak indul, hogy visszaszerezze a kabátot és vele együtt becsületét. Útjuk valóságos pokoljárás a háború sújtotta város örömtanyáinak, sikátorainak, fürdőházainak fullasztó világában. A kabát megkerül ugyan, de a becsület örökre elveszett, azokkal az emberekkel együtt, akiknek emiatt meg kell halniuk...
    Extrák:
    angol és magyar felirat
    Ajánló (1:41)
    Média információ:
    Video:
    Kodek: MPEG-1/2 Video (mpgv)
    Felbontás: 720x576
    Képkockasebesség: 25
    Képformátum: 1.37:1 (4:3)
    Hang:
    Kodek: A52 Audio (aka AC3) (a52)
    Csatornák: 3F2R/LFE
    Mintavételi frekvencia: 48000 Hz
    Bitsebesség: 448 kb/mp
    Formátum: iso
    Méret: 3,97 GB
    Műsoridő: 0:00:00
    (prémium)
    Rejtett tartalom:
    **Rejtett tartalom: A tartalom megjelenítéséhez kattints a 'Tetszik' gombra.**
    [​IMG]
    Formátum: dvdrip/avi
    Méret: 877 MB
    Felbontás: 720x544
    Mintavételi frekvencia: 48000 Hz
    Bitsebesség: 128 kbps
    Műsoridő: 1:27:38
    Részletes média információ:
    Show Spoiler

    I:\Video\15 - Szabadits meg a gonosztól.avi
    General
    Complete name : I:\Video\15 - Szabadits meg a gonosztól.avi
    Format : AVI
    Format/Info : Audio Video Interleave
    File size : 876 MiB
    Duration : 1 h 27 min
    Overall bit rate : 1 398 kb/s
    Writing application : VirtualDubMod 1.5.4.1 (build 2178/release)
    Writing library : VirtualDubMod build 2178/release
    Video #0
    ID : 0
    Format : MPEG-4 Visual
    Format profile : Advanced [email protected]
    Format settings, BVOP : 1
    Format settings, QPel : No
    Format settings, GMC : No warppoints
    Format settings, Matrix : Custom
    Codec ID : XVID
    Codec ID/Hint : XviD
    Duration : 1 h 27 min
    Bit rate : 1 262 kb/s
    Width : 720 pixels
    Height : 544 pixels
    Display aspect ratio : 4:3
    Frame rate : 25.000 FPS
    Color space : YUV
    Chroma subsampling : 4:2:0
    Bit depth : 8 bits
    Scan type : Progressive
    Compression mode : Lossy
    Bits/(Pixel*Frame) : 0.129
    Stream size : 791 MiB (90%)
    Writing library : XviD 1.2.1 (UTC 2008-12-04)
    Audio #1
    ID : 1
    Format : MPEG Audio
    Format version : Version 1
    Format profile : Layer 3
    Mode : Joint stereo
    Mode extension : MS Stereo
    Codec ID : 55
    Codec ID/Hint : MP3
    Duration : 1 h 27 min
    Bit rate mode : Constant
    Bit rate : 128 kb/s
    Channel(s) : 2 channels
    Sampling rate : 48.0 kHz
    Compression mode : Lossy
    Stream size : 80.2 MiB (9%)
    Alignment : Aligned on interleaves
    Interleave, duration : 80 ms (2.00 video frames)
    Interleave, preload duration : 504 ms
    Writing library : LAME3.98r
    Encoding settings : -m j -V 4 -q 2 -lowpass 17 -b 128

    Rejtett tartalom:
    **Rejtett tartalom: A tartalom megjelenítéséhez kattints a 'Tetszik' gombra.**
    vagy free
    Rejtett tartalom:
    **Rejtett tartalom: A tartalom megjelenítéséhez kattints a 'Tetszik' gombra.**
     
    lavor, hegyisas és nandus kedveli ezt.
  12. papadi

    papadi Állandó Tag

    [​IMG]
    Idő van
    Magyar filmdráma (1985)
    Főszereplők: Lázár Kati, Zala Márk, Ruttkai Éva, Bitskey Tibor, Cseh Tamás, Bodrogi Gyula, Básti Juli, Kern András
    Rendezte: Gothár Péter
    Magyar filmek gyűjteménye 16.
    Fantasy Film, 2007. január 12.
    Tartalom a borítóról:
    Halasi Mihály igazi magyar átlagember a '80-as évekből, aki pár hétre otthagyja a gyárat, bepattan a Trabantba feleségével és két gyerekével, aztán irány a vállalati üdülő. Még az M7-esre sem jut ki, amikor egy apró kellemetlenség kizökkenti az eseményeket a normális kerékvágásból. Misi rájön, hogy bent felejtette a gyárban a nemrég vásárolt vibrátort. Ettől kezdve útja kaotikus sodródás egy abszurd, kafkai világban: portásokkal vív fegyveres összecsapást, felesége bizarr betegsége ellen küzd, kórházi folyosók labirintusaiban kóvályog, szadista ellenőrnő áldozatául esik. Kálváriájában hősünk szenvedéseit anyja és testvére sem tudja enyhíteni. Egyedül kell megértenie, hogy élete nem fog önmagától értelmes történetté összeállni. Az embernek magának kell a lét komikus-fájdalmas összevisszaságában találni egy vezérfonalat, mely számára igazán lényeges - méghozzá sürgősen, mert: "Idő van".
    Extrák:
    angol és magyar felirat
    Ajánló (1:41)
    Média információ:
    Video:
    Kodek: MPEG-1/2 Video (mpgv)
    Felbontás: 720x576
    Képkockasebesség: 25
    Képformátum: 1.37:1 (4:3)
    Hang:
    Kodek: A52 Audio (aka AC3) (a52)
    Csatornák: 3F2R/LFE
    Mintavételi frekvencia: 48000 Hz
    Bitsebesség: 448 kb/mp
    Formátum: iso
    Méret: 4,34 GB
    Műsoridő: 1:40:53
    (prémium)
    Rejtett tartalom:
    **Rejtett tartalom: A tartalom megjelenítéséhez kattints a 'Tetszik' gombra.**
    [​IMG]
    Formátum: dvdrip/avi
    Méret: 0,98 GB
    Felbontás: 720x544
    Mintavételi frekvencia: 48000 Hz
    Bitsebesség: 128 kbps
    Műsoridő: 1:40:53
    Részletes média információ:
    Show Spoiler

    I:\Video\16 - Idö van.avi
    General
    Complete name : I:\Video\16 - Idö van.avi
    Format : AVI
    Format/Info : Audio Video Interleave
    File size : 1 006 MiB
    Duration : 1 h 40 min
    Overall bit rate : 1 394 kb/s
    Writing application : VirtualDubMod 1.5.4.1 (build 2178/release)
    Writing library : VirtualDubMod build 2178/release
    Video #0
    ID : 0
    Format : MPEG-4 Visual
    Format profile : Advanced [email protected]
    Format settings, BVOP : 1
    Format settings, QPel : No
    Format settings, GMC : No warppoints
    Format settings, Matrix : Custom
    Codec ID : XVID
    Codec ID/Hint : XviD
    Duration : 1 h 40 min
    Bit rate : 1 259 kb/s
    Width : 720 pixels
    Height : 544 pixels
    Display aspect ratio : 4:3
    Frame rate : 25.000 FPS
    Color space : YUV
    Chroma subsampling : 4:2:0
    Bit depth : 8 bits
    Scan type : Progressive
    Compression mode : Lossy
    Bits/(Pixel*Frame) : 0.129
    Stream size : 908 MiB (90%)
    Writing library : XviD 1.2.1 (UTC 2008-12-04)
    Audio #1
    ID : 1
    Format : MPEG Audio
    Format version : Version 1
    Format profile : Layer 3
    Mode : Joint stereo
    Mode extension : MS Stereo
    Codec ID : 55
    Codec ID/Hint : MP3
    Duration : 1 h 40 min
    Bit rate mode : Constant
    Bit rate : 128 kb/s
    Channel(s) : 2 channels
    Sampling rate : 48.0 kHz
    Compression mode : Lossy
    Stream size : 92.4 MiB (9%)
    Alignment : Aligned on interleaves
    Interleave, duration : 80 ms (2.00 video frames)
    Interleave, preload duration : 504 ms
    Writing library : LAME3.98r
    Encoding settings : -m j -V 4 -q 2 -lowpass 17 -b 128

    Rejtett tartalom:
    **Rejtett tartalom: A tartalom megjelenítéséhez kattints a 'Tetszik' gombra.**
    vagy free
    Rejtett tartalom:
    **Rejtett tartalom: A tartalom megjelenítéséhez kattints a 'Tetszik' gombra.**
     
    nandus kedveli ezt.
  13. papadi

    papadi Állandó Tag

    [​IMG]
    A skorpió megeszi az ikreket reggelire
    Magyar filmvígjáték (1991)
    Főszereplők: Rudolf Péter, Eszenyi Enikő, Törőcsik Mari, Garas Dezső
    Rendezte: Gárdos Péter
    Magyar filmek gyűjteménye 17.
    Fantasy Film, 2007. január 12.
    Tartalom a borítóról:
    Tamás mintaférj. Ő a világ legboldogabb embere, mikor megszületik a kislánya. Egy telefonfülkéből akarja közölni az örömhírt szeretett nagyanyjával, de félretárcsáz. Panni, a gyönyörű fényképésznő veszi fel a telefont, s Tamás tíz perc múlva már ott csókolódzik a szőke ciklonnal a fülkében. Mindketten tudják, hogy ez a kapcsolat tönkre fogja tenni őket, s ráadásul a családjukat is. Még sincs megállás. Tamás élete fenekestül felfordul. Az ikrek szülöttjét magával rántja a skorpió lány viharos szerelme, a vad féltékenység, a pokoli szenvedés és a földöntúli boldogság. Tamás családja Ausztráliába költözik, nagyanyja meghal. Ő pedig magára marad, mert - ahogy mindig is tudta - Panni végül nem lesz az övé.
    Extrák:
    angol és magyar felirat
    Interjú Gárdos Péter rendezővel pályafutásáról (14:50)
    Interjú Rudolf Péterrel, a film főszereplőjével (12:31)
    Gárdos Péter - Teljes rendezői filmográfia
    Ajánló (2:31)
    Média információ:
    Video:
    Kodek: MPEG-1/2 Video (mpgv)
    Felbontás: 720x576
    Képkockasebesség: 25
    Képformátum: 1.37:1 (4:3)
    Hang:
    Kodek: A52 Audio (aka AC3) (a52)
    Csatornák: 3F2R/LFE
    Mintavételi frekvencia: 48000 Hz
    Bitsebesség: 448 kb/mp
    Formátum: iso
    Méret: 5,49 GB
    Műsoridő: 1:29:15 (1:59:08)
    (prémium)
    Rejtett tartalom:
    **Rejtett tartalom: A tartalom megjelenítéséhez kattints a 'Tetszik' gombra.**
    [​IMG]
    Formátum: dvdrip/avi
    Méret: 892 MB
    Felbontás: 720x544
    Mintavételi frekvencia: 48000 Hz
    Bitsebesség: 128 kbps
    Műsoridő: 1:29:15
    Részletes média információ:
    Show Spoiler

    I:\Video\17 - A skorpió megeszi az ikreket reggelire.avi
    General
    Complete name : I:\Video\17 - A skorpió megeszi az ikreket reggelire.avi
    Format : AVI
    Format/Info : Audio Video Interleave
    File size : 891 MiB
    Duration : 1 h 29 min
    Overall bit rate : 1 396 kb/s
    Writing application : VirtualDubMod 1.5.4.1 (build 2178/release)
    Writing library : VirtualDubMod build 2178/release
    Video #0
    ID : 0
    Format : MPEG-4 Visual
    Format profile : Advanced [email protected]
    Format settings, BVOP : 1
    Format settings, QPel : No
    Format settings, GMC : No warppoints
    Format settings, Matrix : Custom
    Codec ID : XVID
    Codec ID/Hint : XviD
    Duration : 1 h 29 min
    Bit rate : 1 261 kb/s
    Width : 720 pixels
    Height : 544 pixels
    Display aspect ratio : 4:3
    Frame rate : 25.000 FPS
    Color space : YUV
    Chroma subsampling : 4:2:0
    Bit depth : 8 bits
    Scan type : Progressive
    Compression mode : Lossy
    Bits/(Pixel*Frame) : 0.129
    Stream size : 805 MiB (90%)
    Writing library : XviD 1.2.1 (UTC 2008-12-04)
    Audio #1
    ID : 1
    Format : MPEG Audio
    Format version : Version 1
    Format profile : Layer 3
    Mode : Joint stereo
    Mode extension : MS Stereo
    Codec ID : 55
    Codec ID/Hint : MP3
    Duration : 1 h 29 min
    Bit rate mode : Constant
    Bit rate : 128 kb/s
    Channel(s) : 2 channels
    Sampling rate : 48.0 kHz
    Compression mode : Lossy
    Stream size : 81.7 MiB (9%)
    Alignment : Aligned on interleaves
    Interleave, duration : 80 ms (2.00 video frames)
    Interleave, preload duration : 504 ms
    Writing library : LAME3.98r
    Encoding settings : -m j -V 4 -q 2 -lowpass 17 -b 128

    Rejtett tartalom:
    **Rejtett tartalom: A tartalom megjelenítéséhez kattints a 'Tetszik' gombra.**
    vagy free
    Rejtett tartalom:
    **Rejtett tartalom: A tartalom megjelenítéséhez kattints a 'Tetszik' gombra.**
     
    lavor, datar és nandus kedveli ezt.
  14. papadi

    papadi Állandó Tag

    [​IMG]
    Én vagyok Jeromos
    Magyar vígjáték (1970)
    Főszereplők: Alfonzó, Kállai Ferenc, Psota Irén, Harsányi Gábor, Pálos Zsuzsa, Bujtor István
    Rendezte: Tímár István
    Magyar filmek gyűjteménye 18.
    Fantasy Film, 2007. január 12.
    Tartalom a borítóról:
    A Katona-házaspár régi álma, hogy végre valaki rendbe hozza a kertjük végében éktelenkedő pöcegödröt. Amikor egy reggel arra ébrednek, hogy a Fenntartó Vállalat dolgozója csönget be hozzájuk, felcsillan a remény. Jeromos úr és fia, Zserom munkamorálja azonban siralmas, hiába birtokolják már évek óta az állami vándorzászlót. A sör fogy, a táskarádióból üvölt a zene, a fű pedig lassacskán kikopik a pihenő munkások alatt, akik "modellt alszanak" az amatőr festő Katonánénak. A gödör viszont marad. Végül Katonáné és az asszisztens, Juditka bevetik magukat az ügy érdekében. Divatos bikinijük és kitűnő csirkepaprikásuk - némi jóféle házi pálinkával kísérve persze - meghozza a várt eredményt. A dolgozók munkakedve oly mértékben megjavul, hogy egyetlen éjszaka leforgása alatt elkészül a vadonatúj pöcegödör.
    Extrák:
    angol és magyar felirat
    Ajánló (1:41)
    Média információ:
    Video:
    Kodek: MPEG-1/2 Video (mpgv)
    Felbontás: 720x576
    Képkockasebesség: 25
    Képformátum: 1.85:1 (16:9)
    Hang:
    Kodek: A52 Audio (aka AC3) (a52)
    Csatornák: 3F2R/LFE
    Mintavételi frekvencia: 48000 Hz
    Bitsebesség: 448 kb/mp
    Formátum: iso
    Méret: 4,10 GB
    Műsoridő: 1:13:12
    (prémium)
    Rejtett tartalom:
    **Rejtett tartalom: A tartalom megjelenítéséhez kattints a 'Tetszik' gombra.**
    [​IMG]
    Formátum: dvdrip/avi
    Méret: 733 MB
    Felbontás: 720x416
    Mintavételi frekvencia: 48000 Hz
    Bitsebesség: 128 kbps
    Műsoridő: 1:13:12
    Részletes média információ:
    Show Spoiler

    I:\Video\18 - Én vagyok Jeromos.avi
    General
    Complete name : I:\Video\18 - Én vagyok Jeromos.avi
    Format : AVI
    Format/Info : Audio Video Interleave
    File size : 732 MiB
    Duration : 1 h 13 min
    Overall bit rate : 1 398 kb/s
    Writing application : VirtualDubMod 1.5.4.1 (build 2178/release)
    Writing library : VirtualDubMod build 2178/release
    Video #0
    ID : 0
    Format : MPEG-4 Visual
    Format profile : Advanced [email protected]
    Format settings, BVOP : 1
    Format settings, QPel : No
    Format settings, GMC : No warppoints
    Format settings, Matrix : Custom
    Codec ID : XVID
    Codec ID/Hint : XviD
    Duration : 1 h 13 min
    Bit rate : 1 263 kb/s
    Width : 720 pixels
    Height : 416 pixels
    Display aspect ratio : 1.731
    Frame rate : 25.000 FPS
    Color space : YUV
    Chroma subsampling : 4:2:0
    Bit depth : 8 bits
    Scan type : Progressive
    Compression mode : Lossy
    Bits/(Pixel*Frame) : 0.169
    Stream size : 661 MiB (90%)
    Writing library : XviD 1.2.1 (UTC 2008-12-04)
    Audio #1
    ID : 1
    Format : MPEG Audio
    Format version : Version 1
    Format profile : Layer 3
    Mode : Joint stereo
    Mode extension : MS Stereo
    Codec ID : 55
    Codec ID/Hint : MP3
    Duration : 1 h 13 min
    Bit rate mode : Constant
    Bit rate : 128 kb/s
    Channel(s) : 2 channels
    Sampling rate : 48.0 kHz
    Compression mode : Lossy
    Stream size : 67.0 MiB (9%)
    Alignment : Aligned on interleaves
    Interleave, duration : 80 ms (2.00 video frames)
    Interleave, preload duration : 504 ms
    Writing library : LAME3.98r
    Encoding settings : -m j -V 4 -q 2 -lowpass 17 -b 128

    Rejtett tartalom:
    **Rejtett tartalom: A tartalom megjelenítéséhez kattints a 'Tetszik' gombra.**
    vagy free
    Rejtett tartalom:
    **Rejtett tartalom: A tartalom megjelenítéséhez kattints a 'Tetszik' gombra.**
     
    lavor, wagnerur100, hegyisas és 1 másik tag kedveli ezt.
  15. papadi

    papadi Állandó Tag

    [​IMG]
    Falfúró
    Magyar filmszatíra (1985)
    Főszereplők: Bán János, Szatler Renáta, Szirtes Ági, Andorai Péter, Ujlaki Dénes
    Rendezte: Szomjas György
    Magyar filmek gyűjteménye 19.
    Fantasy Film, 2006. október 26.
    Tartalom a borítóról:
    Géza (Bán János) egy lakótelepen él feleségével és két gyermekével. Egy napon elhatározza, hogy szakít minden kötöttséggel és új életet kezd. Még aznap ráborítja a művezetőjére az asztalt és kilép a gyárból. Önálló vállalkozásba kezd a lakótelepen, mint falfúró kisiparos. Így jut be könnyűvérű szomszédasszonya lakásába is, akivel szexuális viszonyt kezd és miatta a családját is otthagyja.
    Extrák:
    magyar felirat
    Ajánló (1:41)
    Média információ:
    Video:
    Kodek: MPEG-1/2 Video (mpgv)
    Felbontás: 720x576
    Képkockasebesség: 25
    Képformátum: 1.37:1 (4:3)
    Hang:
    Kodek: A52 Audio (aka AC3) (a52)
    Csatornák: 3F2R/LFE
    Mintavételi frekvencia: 48000 Hz
    Bitsebesség: 448 kb/mp
    Formátum: iso
    Méret: 4,16 GB
    Műsoridő: 1:32:31
    (prémium)
    Rejtett tartalom:
    **Rejtett tartalom: A tartalom megjelenítéséhez kattints a 'Tetszik' gombra.**
    [​IMG]
    Formátum: dvdrip/avi
    Méret: 925 MB
    Felbontás: 720x544
    Mintavételi frekvencia: 48000 Hz
    Bitsebesség: 128 kbps
    Műsoridő: 1:32:30
    Részletes média információ:
    Show Spoiler

    I:\Video\19 - Falfúró.avi
    General
    Complete name : I:\Video\19 - Falfúró.avi
    Format : AVI
    Format/Info : Audio Video Interleave
    File size : 924 MiB
    Duration : 1 h 32 min
    Overall bit rate : 1 396 kb/s
    Writing application : VirtualDubMod 1.5.4.1 (build 2178/release)
    Writing library : VirtualDubMod build 2178/release
    Video #0
    ID : 0
    Format : MPEG-4 Visual
    Format profile : Advanced [email protected]
    Format settings, BVOP : 1
    Format settings, QPel : No
    Format settings, GMC : No warppoints
    Format settings, Matrix : Custom
    Codec ID : XVID
    Codec ID/Hint : XviD
    Duration : 1 h 32 min
    Bit rate : 1 260 kb/s
    Width : 720 pixels
    Height : 544 pixels
    Display aspect ratio : 4:3
    Frame rate : 25.000 FPS
    Color space : YUV
    Chroma subsampling : 4:2:0
    Bit depth : 8 bits
    Scan type : Progressive
    Compression mode : Lossy
    Bits/(Pixel*Frame) : 0.129
    Stream size : 834 MiB (90%)
    Writing library : XviD 1.2.1 (UTC 2008-12-04)
    Audio #1
    ID : 1
    Format : MPEG Audio
    Format version : Version 1
    Format profile : Layer 3
    Mode : Joint stereo
    Mode extension : MS Stereo
    Codec ID : 55
    Codec ID/Hint : MP3
    Duration : 1 h 32 min
    Bit rate mode : Constant
    Bit rate : 128 kb/s
    Channel(s) : 2 channels
    Sampling rate : 48.0 kHz
    Compression mode : Lossy
    Stream size : 84.7 MiB (9%)
    Alignment : Aligned on interleaves
    Interleave, duration : 80 ms (2.00 video frames)
    Interleave, preload duration : 504 ms
    Writing library : LAME3.98r
    Encoding settings : -m j -V 4 -q 2 -lowpass 17 -b 128

    Rejtett tartalom:
    **Rejtett tartalom: A tartalom megjelenítéséhez kattints a 'Tetszik' gombra.**
    vagy free
    Rejtett tartalom:
    **Rejtett tartalom: A tartalom megjelenítéséhez kattints a 'Tetszik' gombra.**
     
    lavor, Kuttyantó, hegyisas és 1 másik tag kedveli ezt.
  16. papadi

    papadi Állandó Tag

    [​IMG]
    A turné
    Magyar filmvígjáték (1993)
    Főszereplők: Eperjes Károly, Törőcsik Mari, Benedek Miklós, Bordán Irén, Ternyák Zoltán, Börcsök Enikő, Bezerédi Zoltán, Cseh Tamás
    Rendezte: Bereményi Géza
    Magyar filmek gyűjteménye 20.
    Fantasy Film, 2007. január 12.
    Tartalom a borítóról:
    Vége az évadnak, közeleg a nyár. A színtársulatból páran úgy gondolják, csinos extrapénzre tehetnek szert, ha 40 nap alatt végigszáguldanak az országon, és lenyomnak 90 előadást. Hogy kemény menet lesz, azt mind sejtik. "Ha szerettek, én végig tudom csinálni." - mondja a társulat sztárja, Tibor (Eperjes Károly). De úgy tűnik, túl hosszú a negyven nap, és főleg a negyven éjszaka, túl zűrös a színészek lelkivilága. Kuszák a viszonyok, hiányzik a szeretet és szorít az idő. Tibor megérzi: ebbe az útba fog beledögleni.
    Extrák:
    magyar felirat
    Interjú Beremányi Géza rendezővel pályafutásáról (22:46)
    Bereményi Géza "A turné" forgatásáról (14:10)
    Bereményi Géza - Teljes rendezői és forgatóókönyvírói filmográfia
    Ajánló (2:31)
    Média információ:
    Video:
    Kodek: MPEG-1/2 Video (mpgv)
    Felbontás: 720x576
    Képkockasebesség: 25
    Képformátum: 1.37:1 (4:3)
    Hang:
    Kodek: A52 Audio (aka AC3) (a52)
    Csatornák: 3F2R/LFE
    Mintavételi frekvencia: 48000 Hz
    Bitsebesség: 448 kb/mp
    Formátum: iso
    Méret: 5,67 GB
    Műsoridő: 1:29:30 (2:08:59)
    (prémium)
    Rejtett tartalom:
    **Rejtett tartalom: A tartalom megjelenítéséhez kattints a 'Tetszik' gombra.**
    [​IMG]
    Formátum: dvdrip/avi
    Méret: 896 MB
    Felbontás: 720x544
    Mintavételi frekvencia: 48000 Hz
    Bitsebesség: 128 kbps
    Műsoridő: 1:29:29
    Részletes média információ:
    Show Spoiler

    I:\Video\20 - A turné.avi
    General
    Complete name : I:\Video\20 - A turné.avi
    Format : AVI
    Format/Info : Audio Video Interleave
    File size : 895 MiB
    Duration : 1 h 29 min
    Overall bit rate : 1 398 kb/s
    Writing application : VirtualDubMod 1.5.4.1 (build 2178/release)
    Writing library : VirtualDubMod build 2178/release
    Video #0
    ID : 0
    Format : MPEG-4 Visual
    Format profile : Advanced [email protected]
    Format settings, BVOP : 1
    Format settings, QPel : No
    Format settings, GMC : No warppoints
    Format settings, Matrix : Custom
    Codec ID : XVID
    Codec ID/Hint : XviD
    Duration : 1 h 29 min
    Bit rate : 1 262 kb/s
    Width : 720 pixels
    Height : 544 pixels
    Display aspect ratio : 4:3
    Frame rate : 25.000 FPS
    Color space : YUV
    Chroma subsampling : 4:2:0
    Bit depth : 8 bits
    Scan type : Progressive
    Compression mode : Lossy
    Bits/(Pixel*Frame) : 0.129
    Stream size : 808 MiB (90%)
    Writing library : XviD 1.2.1 (UTC 2008-12-04)
    Audio #1
    ID : 1
    Format : MPEG Audio
    Format version : Version 1
    Format profile : Layer 3
    Mode : Joint stereo
    Mode extension : MS Stereo
    Codec ID : 55
    Codec ID/Hint : MP3
    Duration : 1 h 29 min
    Bit rate mode : Constant
    Bit rate : 128 kb/s
    Channel(s) : 2 channels
    Sampling rate : 48.0 kHz
    Compression mode : Lossy
    Stream size : 81.9 MiB (9%)
    Alignment : Aligned on interleaves
    Interleave, duration : 80 ms (2.00 video frames)
    Interleave, preload duration : 504 ms
    Writing library : LAME3.98r
    Encoding settings : -m j -V 4 -q 2 -lowpass 17 -b 128

    Rejtett tartalom:
    **Rejtett tartalom: A tartalom megjelenítéséhez kattints a 'Tetszik' gombra.**
    vagy free
    Rejtett tartalom:
    **Rejtett tartalom: A tartalom megjelenítéséhez kattints a 'Tetszik' gombra.**
     
    datar, wagnerur100, hegyisas és 1 másik tag kedveli ezt.
  17. papadi

    papadi Állandó Tag

    [​IMG]
    Ripacsok
    Magyar film (1980)
    Főszereplők: Garas Dezső, Kern András, Udvaros Dorottya, Bárdi György, Major Tamás, Temessy Hédi
    Rendezte: Sándor Pál
    Magyar filmek gyűjteménye 21.
    Fantasy Film, 2006 október 26.
    Tartalom a borítóról:
    Stock Ede (Garas Dezső) és Salamon András (Kern András) már évek óta ugyanazt a giccses kuplét adja elő estéről estére a "légnadrágban". András azonban hirtelen gondol egyet és lecseréli Edét Bogárkára (Udvaros Dorottya), a főnök szeretőjére. A csere nem váltja be András reményeit, az élet Bogárkával sem boldogabb. Ede is szenved, olyannyira, hogy kétszer is András életére tör. Családjuk és barátaik aggódva figyelik, ahogy kapcsolatuk elmérgesedik, de tehetetlenek. A szakítás mindkettőjüket rákényszeríti, hogy végiggondolják, mit tartanak igazán fontosnak az életben, és végül az elcsépelt dal is új tartalommal telik meg...
    Extrák:
    angol és magyar felirat
    Exluzív interjú Sándor Pállal pályájáról, filmjeiről (17:32)
    Sándor Pál a Ripacsok forgatásáról (12:55)
    Sándor Pál életrajz és teljes filmográfia
    Ajánló (2:31)
    Média információ:
    Video:
    Kodek: MPEG-1/2 Video (mpgv)
    Felbontás: 720x576
    Képkockasebesség: 25
    Képformátum: 1.37:1 (4:3)
    Hang:
    Kodek: A52 Audio (aka AC3) (a52)
    Csatornák: 3F2R/LFE
    Mintavételi frekvencia: 48000 Hz
    Bitsebesség: 448 kb/mp
    Formátum: iso
    Méret: 5,71 GB
    Műsoridő: 1:29:21 (2:02:23)
    (prémium)
    Rejtett tartalom:
    **Rejtett tartalom: A tartalom megjelenítéséhez kattints a 'Tetszik' gombra.**
    [​IMG]
    Formátum: dvdrip/avi
    Méret: 895 MB
    Felbontás: 720x544
    Mintavételi frekvencia: 48000 Hz
    Bitsebesség: 128 kbps
    Műsoridő: 1:29:20
    Részletes média információ:
    Show Spoiler

    I:\Video\21 - Ripacsok.avi
    General
    Complete name : I:\Video\21 - Ripacsok.avi
    Format : AVI
    Format/Info : Audio Video Interleave
    File size : 893 MiB
    Duration : 1 h 29 min
    Overall bit rate : 1 398 kb/s
    Writing application : VirtualDubMod 1.5.4.1 (build 2178/release)
    Writing library : VirtualDubMod build 2178/release
    Video #0
    ID : 0
    Format : MPEG-4 Visual
    Format profile : Advanced [email protected]
    Format settings, BVOP : 1
    Format settings, QPel : No
    Format settings, GMC : No warppoints
    Format settings, Matrix : Custom
    Codec ID : XVID
    Codec ID/Hint : XviD
    Duration : 1 h 29 min
    Bit rate : 1 263 kb/s
    Width : 720 pixels
    Height : 544 pixels
    Display aspect ratio : 4:3
    Frame rate : 25.000 FPS
    Color space : YUV
    Chroma subsampling : 4:2:0
    Bit depth : 8 bits
    Scan type : Progressive
    Compression mode : Lossy
    Bits/(Pixel*Frame) : 0.129
    Stream size : 807 MiB (90%)
    Writing library : XviD 1.2.1 (UTC 2008-12-04)
    Audio #1
    ID : 1
    Format : MPEG Audio
    Format version : Version 1
    Format profile : Layer 3
    Mode : Joint stereo
    Mode extension : MS Stereo
    Codec ID : 55
    Codec ID/Hint : MP3
    Duration : 1 h 29 min
    Bit rate mode : Constant
    Bit rate : 128 kb/s
    Channel(s) : 2 channels
    Sampling rate : 48.0 kHz
    Compression mode : Lossy
    Stream size : 81.8 MiB (9%)
    Alignment : Aligned on interleaves
    Interleave, duration : 80 ms (2.00 video frames)
    Interleave, preload duration : 504 ms
    Writing library : LAME3.98r
    Encoding settings : -m j -V 4 -q 2 -lowpass 17 -b 128

    Rejtett tartalom:
    **Rejtett tartalom: A tartalom megjelenítéséhez kattints a 'Tetszik' gombra.**
    vagy free
    Rejtett tartalom:
    **Rejtett tartalom: A tartalom megjelenítéséhez kattints a 'Tetszik' gombra.**
     
  18. papadi

    papadi Állandó Tag

    [​IMG]
    Kopaszkutya
    Magyar zenés film (1981)
    Főszereplők: Deák „Bill” Gyula, Földes László (Hobo), Kőrös József, Mareczky István, Pálmai Zoltán, Póka Egon, Schuszter Lóránt, Szász László, Szénich János
    Rendezte: Szomjas György
    Magyar filmek gyűjteménye 22.
    Fantasy Film, 2006 október 26.
    Tartalom a borítóról:
    "Le kell menni kutyába, légy a kutyák királya!" - üvölti a mikrofonba Bill és Hobo többezer tabáni rajongó előtt. Hosszú volt az út, amíg a lepukkant vidéki művházakban turnézó, feldolgozásokat előadó zenekarból igazi rockbanda lett. A menedzser (Schuszter Lóránt) vérző orral hallgatja a "Hosszúlábú asszonyt", miután a banda tagjai a koncert előtt módszeresen végigverték, mert nem jött ki a tévé. Miközben mégis csak neki köszönhető a siker, igaz, erre már senki sem emlékszik…
    Szomjas György kultuszfilmje igazi magyar rock-karriertörténet, a 80-as évek életérzésének tökéletes lenyomata, és nem utolsósorban a legjobb zenés filmek egyike, melyben a Hobo Blues Band mellett a korszak legnagyobb zenekarainak dalai, (P. Mobil, Omega, Rolling Stones) is elhangzanak.

    Extrák:
    angol és magyar felirat
    Privát rocktörténet: Hobo Blues Band (A Filmmúzeum dokumentumfilmje) (59:06)
    Szomjas György rendezői filmográfia
    Ajánló (2:31)
    [​IMG]
    Privát rocktörténet 10.: Hobo Blues Band
    Magyar dokumentumfilm (2006)
    Műsorvezető: Veress Dóra, Narrátor: Magyar Kinga
    Szerkesztő-rendező: Gellért Gábor
    Média információ:
    Video:
    Kodek: MPEG-1/2 Video (mpgv)
    Felbontás: 720x576
    Képkockasebesség: 25
    Képformátum: 1.37:1 (4:3)
    Hang:
    Kodek: A52 Audio (aka AC3) (a52)
    Csatornák: 3F2R/LFE
    Mintavételi frekvencia: 48000 Hz
    Bitsebesség: 448 kb/mp
    Formátum: iso
    Méret: 7,86 GB
    Műsoridő: 1:35:25 (2:37:03)
    (prémium)
    Rejtett tartalom:
    **Rejtett tartalom: A tartalom megjelenítéséhez kattints a 'Tetszik' gombra.**
    [​IMG]
    Formátum: dvdrip/avi
    Méret: 953 MB
    Felbontás: 720x544
    Mintavételi frekvencia: 48000 Hz
    Bitsebesség: 128 kbps
    Műsoridő: 1:35:25
    Részletes média információ:
    Show Spoiler

    I:\Video\22a - Kopaszkutya.avi
    General
    Complete name : I:\Video\22a - Kopaszkutya.avi
    Format : AVI
    Format/Info : Audio Video Interleave
    File size : 952 MiB
    Duration : 1 h 35 min
    Overall bit rate : 1 395 kb/s
    Writing application : VirtualDubMod 1.5.4.1 (build 2178/release)
    Writing library : VirtualDubMod build 2178/release
    Video #0
    ID : 0
    Format : MPEG-4 Visual
    Format profile : Advanced [email protected]
    Format settings, BVOP : 1
    Format settings, QPel : No
    Format settings, GMC : No warppoints
    Format settings, Matrix : Custom
    Codec ID : XVID
    Codec ID/Hint : XviD
    Duration : 1 h 35 min
    Bit rate : 1 259 kb/s
    Width : 720 pixels
    Height : 544 pixels
    Display aspect ratio : 4:3
    Frame rate : 25.000 FPS
    Color space : YUV
    Chroma subsampling : 4:2:0
    Bit depth : 8 bits
    Scan type : Progressive
    Compression mode : Lossy
    Bits/(Pixel*Frame) : 0.129
    Stream size : 860 MiB (90%)
    Writing library : XviD 1.2.1 (UTC 2008-12-04)
    Audio #1
    ID : 1
    Format : MPEG Audio
    Format version : Version 1
    Format profile : Layer 3
    Mode : Joint stereo
    Codec ID : 55
    Codec ID/Hint : MP3
    Duration : 1 h 35 min
    Bit rate mode : Constant
    Bit rate : 128 kb/s
    Channel(s) : 2 channels
    Sampling rate : 48.0 kHz
    Compression mode : Lossy
    Stream size : 87.4 MiB (9%)
    Alignment : Aligned on interleaves
    Interleave, duration : 80 ms (2.00 video frames)
    Interleave, preload duration : 504 ms
    Writing library : LAME3.98r
    Encoding settings : -m j -V 4 -q 2 -lowpass 17 -b 128

    Rejtett tartalom:
    **Rejtett tartalom: A tartalom megjelenítéséhez kattints a 'Tetszik' gombra.**
    vagy free
    Rejtett tartalom:
    **Rejtett tartalom: A tartalom megjelenítéséhez kattints a 'Tetszik' gombra.**
    A film extrája:
    [​IMG]
    Privát rocktörténet 10.: Hobo Blues Band
    Magyar dokumentumfilm (2006)
    Műsorvezető: Veress Dóra, Narrátor: Magyar Kinga
    Szerkesztő-rendező: Gellért Gábor
    [​IMG]
    Formátum: dvdrip/avi
    Méret: 692 MB
    Felbontás: 720x482
    Mintavételi frekvencia: 48000 Hz
    Bitsebesség: 192 kbps
    Műsoridő: 59:06
    Részletes média információ:
    Show Spoiler

    I:\Video\22b - Privát rocktörténet 10 - Hobo Blues Band.avi
    General
    Complete name : I:\Video\22b - Privát rocktörténet 10 - Hobo Blues Band.avi
    Format : AVI
    Format/Info : Audio Video Interleave
    File size : 691 MiB
    Duration : 59 min
    Overall bit rate : 1 635 kb/s
    Writing application : VirtualDubMod 1.5.4.1 (build 2178/release)
    Writing library : VirtualDubMod build 2178/release
    Video #0
    ID : 0
    Format : MPEG-4 Visual
    Format profile : Advanced [email protected]
    Format settings, BVOP : 1
    Format settings, QPel : No
    Format settings, GMC : No warppoints
    Format settings, Matrix : Custom
    Codec ID : XVID
    Codec ID/Hint : XviD
    Duration : 59 min
    Bit rate : 1 435 kb/s
    Width : 720 pixels
    Height : 432 pixels
    Display aspect ratio : 5:3
    Frame rate : 25.000 FPS
    Color space : YUV
    Chroma subsampling : 4:2:0
    Bit depth : 8 bits
    Scan type : Progressive
    Compression mode : Lossy
    Bits/(Pixel*Frame) : 0.185
    Stream size : 607 MiB (88%)
    Writing library : XviD 1.2.1 (UTC 2008-12-04)
    Audio #1
    ID : 1
    Format : MPEG Audio
    Format version : Version 1
    Format profile : Layer 3
    Mode : Joint stereo
    Mode extension : MS Stereo
    Codec ID : 55
    Codec ID/Hint : MP3
    Duration : 59 min
    Bit rate mode : Constant
    Bit rate : 192 kb/s
    Channel(s) : 2 channels
    Sampling rate : 48.0 kHz
    Compression mode : Lossy
    Stream size : 81.2 MiB (12%)
    Alignment : Aligned on interleaves
    Interleave, duration : 80 ms (2.00 video frames)
    Interleave, preload duration : 504 ms
    Writing library : LAME3.98r
    Encoding settings : -m j -V 4 -q 2 -lowpass 18.6 -b 192

    Rejtett tartalom:
    **Rejtett tartalom: A tartalom megjelenítéséhez kattints a 'Tetszik' gombra.**
    vagy free
    Rejtett tartalom:
    **Rejtett tartalom: A tartalom megjelenítéséhez kattints a 'Tetszik' gombra.**
     
    hegyisas és nandus kedveli ezt.
  19. papadi

    papadi Állandó Tag

    [​IMG]
    Talpuk alatt fütyül a szél
    Magyar betyárfilm (1976)
    Főszereplők: Djoko Rosic (Besaenyei Ferenc), Bujtor István, Vladan Holec (Cserhalmi György)
    Rendezte: Szomjas György
    Magyar filmek gyűjteménye 23.
    Fantasy Film, 2007. január 12.
    Tartalom a borítóról:
    1837-ben járunk. Karcag városának elöljárói határtalan pénzéhségükben habozás nélkül feldúlják a város melletti, érintetlen pusztákat és megzavarják az ott legeltető pásztorok ősi életvitelét. Farkas Csapó Gyurka, a hírhedt betyár képes lenne megvédeni a puszta rendjét, de vajon kiállhatnak-e egy tömlöcből szökött rablógyilkos mellett a pusztaiak? Különösen nehéz kérdés ez Mérges Balázs csendbiztos számára, aki Gyurka legfőbb ellensége - mégis egyetlen igaz barátja. Egészen addig, míg egy betyárvezér meggyilkolását nem varrják a nyakába. Vérdíjat tűznek ki a fejére, s miután leszámolt ellenfelével, a pásztorok juttatják Gyurkát csendőrkézre és bitófára.
    Extrák:
    angol és magyar felirat
    Ajánló (1:41)
    Média információ:
    Video:
    Kodek: MPEG-1/2 Video (mpgv)
    Felbontás: 720x576
    Képkockasebesség: 25
    Képformátum: 1.37:1 (4:3)
    Hang:
    Kodek: A52 Audio (aka AC3) (a52)
    Csatornák: 3F2R/LFE
    Mintavételi frekvencia: 48000 Hz
    Bitsebesség: 448 kb/mp
    Formátum: iso
    Méret: 4,04 GB
    Műsoridő: 1:27:17
    (prémium)
    Rejtett tartalom:
    **Rejtett tartalom: A tartalom megjelenítéséhez kattints a 'Tetszik' gombra.**
    [​IMG]
    Formátum: dvdrip/avi
    Méret: 871 MB
    Felbontás: 720x544
    Mintavételi frekvencia: 48000 Hz
    Bitsebesség: 128 kbps
    Műsoridő: 1:27:17
    Részletes média információ:
    Show Spoiler

    I:\Video\23 - Talpuk alatt fütyül a szél.avi
    General
    Complete name : I:\Video\23 - Talpuk alatt fütyül a szél.avi
    Format : AVI
    Format/Info : Audio Video Interleave
    File size : 870 MiB
    Duration : 1 h 27 min
    Overall bit rate : 1 394 kb/s
    Writing application : VirtualDubMod 1.5.4.1 (build 2178/release)
    Writing library : VirtualDubMod build 2178/release
    Video #0
    ID : 0
    Format : MPEG-4 Visual
    Format profile : Advanced [email protected]
    Format settings, BVOP : 1
    Format settings, QPel : No
    Format settings, GMC : No warppoints
    Format settings, Matrix : Custom
    Codec ID : XVID
    Codec ID/Hint : XviD
    Duration : 1 h 27 min
    Bit rate : 1 259 kb/s
    Width : 720 pixels
    Height : 544 pixels
    Display aspect ratio : 4:3
    Frame rate : 25.000 FPS
    Color space : YUV
    Chroma subsampling : 4:2:0
    Bit depth : 8 bits
    Scan type : Progressive
    Compression mode : Lossy
    Bits/(Pixel*Frame) : 0.129
    Stream size : 786 MiB (90%)
    Writing library : XviD 1.2.1 (UTC 2008-12-04)
    Audio #1
    ID : 1
    Format : MPEG Audio
    Format version : Version 1
    Format profile : Layer 3
    Mode : Joint stereo
    Mode extension : MS Stereo
    Codec ID : 55
    Codec ID/Hint : MP3
    Duration : 1 h 27 min
    Bit rate mode : Constant
    Bit rate : 128 kb/s
    Channel(s) : 2 channels
    Sampling rate : 48.0 kHz
    Compression mode : Lossy
    Stream size : 79.9 MiB (9%)
    Alignment : Aligned on interleaves
    Interleave, duration : 80 ms (2.00 video frames)
    Interleave, preload duration : 504 ms
    Writing library : LAME3.98r
    Encoding settings : -m j -V 4 -q 2 -lowpass 17 -b 128

    Rejtett tartalom:
    **Rejtett tartalom: A tartalom megjelenítéséhez kattints a 'Tetszik' gombra.**
    vagy free
    Rejtett tartalom:
    **Rejtett tartalom: A tartalom megjelenítéséhez kattints a 'Tetszik' gombra.**
     
  20. papadi

    papadi Állandó Tag

    [​IMG]
    Szerencsés Dániel
    Magyar filmdráma (1982)
    Főszereplők: Törőcsik Mari, Garas Dezső, Margittay Ági, Major Tamás, Bodrogi Gyula, Kern András, Rudolf Péter, Zsótér Sándor
    Rendezte: Sándor Pál
    Magyar filmek gyűjteménye 24.
    Fantasy Film, 2006. október 26.
    Tartalom a borítóról:
    Dani (Rudolf Péter) átlagos budapesti tizenéves a Garai utcából, akinek szerelme 1956 telén családjával együtt disszidál. Dani gondolkodás nélkül a szép Mariann után siet Ausztria felé, az egyik házban lakó fiú, Gyuri társaságában. Disszidensekkel és besúgókkal zsúfolásig tömött vonatuk nemsokára meg is érkezik a határ menti szállodához, ahol a menekülőknek be kell várni vezetőjüket. A szállodában várakozással töltött órák drámai hangulatban telnek. Mindenki számára eljött az utolsó lehetőség, hogy végiggondolja, megy-e vagy marad, hol és kivel éli le életét, s akar-e élni egyáltalán. A döntés csöppet sem könnyű, mert a történelem viharában szinte senkinek sem sikerül talpon maradnia, akármelyik oldalon is áll. Ráadásul az idősebbek éppoly tanácstalanul néznek a jövő elébe, mint a fiatalok.
    Extrák:
    magyar felirat
    Interjú Sándor Pál rendezővel pályafutásáról (17:41)
    Interjú Sándor Pállal a filmről (25:15)
    Interjú Rudolf Péterrel (20:54)
    Interjú Zsótér Sándorral (29:37)
    Ajánló (2:31)
    Média információ:
    Video:
    Kodek: MPEG-1/2 Video (mpgv)
    Felbontás: 720x576
    Képkockasebesség: 25
    Képformátum: 1.37:1 (4:3)
    Hang:
    Kodek: A52 Audio (aka AC3) (a52)
    Csatornák: 3F2R/LFE
    Mintavételi frekvencia: 48000 Hz
    Bitsebesség: 448 kb/mp
    Formátum: iso
    Méret: 7,77 GB
    Műsoridő: 1:28:33 (3:04:31)
    (prémium)
    Rejtett tartalom:
    **Rejtett tartalom: A tartalom megjelenítéséhez kattints a 'Tetszik' gombra.**
    [​IMG]
    Formátum: dvdrip/avi
    Méret: 884 MB
    Felbontás: 720x544
    Mintavételi frekvencia: 48000 Hz
    Bitsebesség: 128 kbps
    Műsoridő: 1:28:32
    Részletes média információ:
    Show Spoiler

    I:\Video\24 - Szerencsés Dániel.avi
    General
    Complete name : I:\Video\24 - Szerencsés Dániel.avi
    Format : AVI
    Format/Info : Audio Video Interleave
    File size : 883 MiB
    Duration : 1 h 28 min
    Overall bit rate : 1 394 kb/s
    Writing application : VirtualDubMod 1.5.4.1 (build 2178/release)
    Writing library : VirtualDubMod build 2178/release
    Video #0
    ID : 0
    Format : MPEG-4 Visual
    Format profile : Advanced [email protected]
    Format settings, BVOP : 1
    Format settings, QPel : No
    Format settings, GMC : No warppoints
    Format settings, Matrix : Custom
    Codec ID : XVID
    Codec ID/Hint : XviD
    Duration : 1 h 28 min
    Bit rate : 1 259 kb/s
    Width : 720 pixels
    Height : 544 pixels
    Display aspect ratio : 4:3
    Frame rate : 25.000 FPS
    Color space : YUV
    Chroma subsampling : 4:2:0
    Bit depth : 8 bits
    Scan type : Progressive
    Compression mode : Lossy
    Bits/(Pixel*Frame) : 0.129
    Stream size : 797 MiB (90%)
    Writing library : XviD 1.2.1 (UTC 2008-12-04)
    Audio #1
    ID : 1
    Format : MPEG Audio
    Format version : Version 1
    Format profile : Layer 3
    Mode : Joint stereo
    Mode extension : MS Stereo
    Codec ID : 55
    Codec ID/Hint : MP3
    Duration : 1 h 28 min
    Bit rate mode : Constant
    Bit rate : 128 kb/s
    Channel(s) : 2 channels
    Sampling rate : 48.0 kHz
    Compression mode : Lossy
    Stream size : 81.1 MiB (9%)
    Alignment : Aligned on interleaves
    Interleave, duration : 80 ms (2.00 video frames)
    Interleave, preload duration : 504 ms
    Writing library : LAME3.98r
    Encoding settings : -m j -V 4 -q 2 -lowpass 17 -b 128

    Rejtett tartalom:
    **Rejtett tartalom: A tartalom megjelenítéséhez kattints a 'Tetszik' gombra.**
    vagy free
    Rejtett tartalom:
    **Rejtett tartalom: A tartalom megjelenítéséhez kattints a 'Tetszik' gombra.**
     

Megosztás