MUSICAL, rockopera, operett és egyéb ZENÉS FILM 2012

papadi

Állandó Tag


The Rolling Stones: Let's Spend the Night Together
Amerikai koncertfilm (1982/2009)
Rendezte: Hal Asby

Az Oscar-díjas Hal Ashby (Hazatérés, Isten hozta, Mister!) felejthetetlen bulira invitál a rocktörténelem egyik legismertebb zenekara, a The Rolling Stones társaságában. Az 1981-es amerikai turnén készült ez a fergeteges koncertfilm, melyben az ötszörös Oscar-jelölt Caleb Deschanel kamerája előtt a csúcsformában pörgő Mick Jagger, Keith Richards és a többiek előadásában a banda legnagyobb slágerei csendülnek fel. (a borítóról)

Az elhangzó dalok:
01 - Intro / Take The A Train
02 - Under My Thumb
03 - Let's Spend The Night Together
04 - Shattered
05 - Neighbors
06 - Black Limo
07 - Just My Imagination
08 - 20 Flight Rock
09 - Let Me Go
10 - Time Is On My Side
11 - Beast of Burden
12 - Waiting On A Friend
13 - Going To A Go-Go
14 - You Can't Always Get What You Want
15 - T & A
16 - Tumbling Dice
17 - She Is So Cold
18 - All Down The Line
19 - Hang Fire
20 - Miss You
21 - Let It Bleed
22 - Start Me Up
23 - Honky Tonk Women
24 - Brown Sugar
25 - Jumping Jack Flash
26 - Satisfaction
27 - Star Spangled / Hendrix

Extra - Ajánlók:
1 - Ádám almái (2:09)
2 - Az ajánlat (2:10)
3 - Fél Nelson (2:12)

dvd/iso - 5,87 GB - 720x576 - 448 kbps - 1:26:50 (1:33:21)
[HIDE-THANKS]
Kód:
https://data.hu/get/11399715/D3293i.part1.rar
https://data.hu/get/11399717/D3293i.part2.rar
https://data.hu/get/11399711/D3293i.part3.rar
https://data.hu/get/11399727/D3293i.part4.rar
https://data.hu/get/11399720/D3293i.part5.rar
https://data.hu/get/11399723/D3293i.part6.rar
[/HIDE-THANKS]
 

papadi

Állandó Tag


The Rolling Stones - Voodoo Lounge Live from Robbie Stadium Miami
Amerikai kocertfilm (1994)
Közreműködik: Bo Diddley, Robert Cray, Whoopi Goldberg
Rendezte: David Mallet

01 - Start Program
02 - Not Fade Away
03 - Tumbling Dice
04 - You Got Me Rocking
05 - (I Can't Get No) Satisfaction
06 - Angie
07 - Sweet Virginia
08 - It's All Over Now
09 - Stop Breaking Down
10 - Who Do You Love
11 - Miss You
12 - Introductions
13 - Honky Tonk Women
14 - The Worst
15 - Sympathy For The Devil
16 - Start Me Up
17 - It's Only Rock 'N' Roll
18 - Brown Sugar
19 - Jumpin' Jack Flash
20 - End Credits

dvd - 4,27 GB - 720x480 - 16/48 - 1:34:37
[HIDE-THANKS]
Kód:
https://data.hu/get/11400273/D3163d.part1.rar
https://data.hu/get/11400271/D3163d.part2.rar
https://data.hu/get/11400269/D3163d.part3.rar
https://data.hu/get/11400272/D3163d.part4.rar
https://data.hu/get/11400268/D3163d.part5.rar
[/HIDE-THANKS]
 
Utoljára módosítva:

papadi

Állandó Tag


The Rolling Stones: Hidak Babylonba turné ’97-98
(The Rolling Stones: Bridges to Babylon - 1998)
Amerikai kocertfilm (1998)
Közreműködők: Dave Matthews, Joshua Redman
Rendezte: Bruce Gowers

Az elhangzó dalok:
Opening (Főcím)
01 - (I Can't Get No) Satisfaction
02 - Let's Spend the Night Together
03 - Flip the Switch
04 - Gimme Shelter
05 - Wild Horses
06 - Saint of Me
07 - Out of Control
08 - Waiting on a Friend
09 - Miss You
10 - I Wanna Hold You
11 - Across The Bridge
12 - It's Only Rock 'n' Roll (But I Like It)
13 - Like a Rolling Stone
14 - Sympathy for the Devil
15 - Tumbling Dice
16 - Honky Tonk Woman
17 - Start Me Up
18 - Jumping Jack Flash
19 - You Can't Always Get What You Want
20 - Brown Sugar
Bows and End Credits (Köszönet és vége főcím)

dvd/iso - 4,28 GB - 720x576 - 448 kbps - 1:59:56
[HIDE-THANKS]
Kód:
https://data.hu/get/11400477/D1234i.part1.rar
https://data.hu/get/11400473/D1234i.part2.rar
https://data.hu/get/11400476/D1234i.part3.rar
https://data.hu/get/11400475/D1234i.part4.rar
https://data.hu/get/11400474/D1234i.part5.rar
[/HIDE-THANKS]
 
Utoljára módosítva:

papadi

Állandó Tag


The Rolling Stones: Havana Moon
Amerikai koncertfilm (2016)
Rendezte: Paul Dugdale

Az elhangzó dalok:
It's About Time...
01 - Jumpin' Jack Flash
02 - It's Only Rock'n'Roll (But I Like It)
03 - Out Of Control
04 - Angie
05 - Paint It Black
06 - Honky Tonk Women
Band Introductions
07 - You Got The Silver
08 - Midnight Rambler
09 - Gimme Shelter
10 - Sympathy For The Devil
11 - Brown Shugar
Still Getting Better...
12 - You Can't Always Get What You Want
13 - (I Can't Get No) Satisfaction

Bonus Tracks:
01 - Tumbling Dice
02 - All Down The Line
03 - Before They Make Me Run
04 - Miss You
05 - Start Me Up

dvd/dvd9 - 7,30 GB - 720x480 - 192 kbps - 1:49:58+28:23
[HIDE-THANKS]
Kód:
https://data.hu/get/11400598/D3300d.part1.rar
https://data.hu/get/11400595/D3300d.part2.rar
https://data.hu/get/11400600/D3300d.part3.rar
https://data.hu/get/11400594/D3300d.part4.rar
https://data.hu/get/11400599/D3300d.part5.rar
https://data.hu/get/11400596/D3300d.part6.rar
https://data.hu/get/11400593/D3300d.part7.rar
https://data.hu/get/11400597/D3300d.part8.rar
[/HIDE-THANKS]
 

papadi

Állandó Tag


The Rolling Stones: 50 Years On Video 60s - 70s - 80s From The Channel
From The Vaults Black Edition (2013)
From The Vaults - FTV003DVD1/2

DVD1

I. 60S PROMO VIDEO (48:06)
01 - (I Can't Get No) Satisfaction
02 - Gather Moss (Around And Around)
03 - The Last Time
04 - Get Off Of My Cloud
05 - 19th Nervous Breakdown
06 - Have You Seen Your Mother, Baby, Standing In The Shadow?
07 - Let's Spend The Night Together
08 - We Love You
09 - 2000 Light Years From Home
10 - Jumpin 'Jack Flash
11 - Sympathy For The Devil
12 - Honky Tonk Women
13 - Gimme Shelter

II. 70s PROMO VIDEO (1:06:08)
14 - Brown Sugar
15 - Tumbling Dice
16 - Rocks Off
17 - Angie
18 - Dancing With Mr.D
19 - It's Only Rock And Roll (But I Like It)
20 - Ain’t Too Proud To Beg
21 - Till The Next Goodbye
22 - Fool To Cry
23 - Hey Negrita
24 - Crazy Mama
25 - Hot Stuff
26 - Miss You
27 - Far Away Eyes
28 - Respectable

III. 80s PROMO VIDEO (1:12:11)
29 - Emotional Rescue
30 - Where The Boys Go
31 - She So Cold
32 - Start Me Up
33 - Worried About You
34 - Neighbours
35 - Waiting On A Friend
36 - Hang Fire
37 - Going To A Go-Go
38 - Time Is On My Side
39 - Undercover Of The Night
40 - She Was Hot
41 - Too Much Blood
42 - Harlem Shuffle
43 - One Hit (To The Body)
44 - Mixed Emotions
45 - Rock And A Hard Place

IV. ALTERNATES AND RARITIES (42:31)
46 - Jumpin 'Jack Flash (B&W)
47 - Child Of The Moon
48 - Angie (Version 2)
49 - Silver Train
50 - Fool To Cry (Top Of The Pops)
51 - Brown Sugar (Live 1976)
52 - Wild Horses (Live 1976)
53 - Emotional Rescue (Version 2)
54 - Undercover Of The Night (B Version)
55 - Time Is On My Side (MTV Version)

dvd/dvd9 - 7,54 GB - 720x480 - 256 kbps - 3:48:56
[HIDE-THANKS]
Kód:
https://data.hu/get/11401181/D3294d.part1.rar
https://data.hu/get/11401183/D3294d.part2.rar
https://data.hu/get/11401179/D3294d.part3.rar
https://data.hu/get/11401177/D3294d.part4.rar
https://data.hu/get/11401174/D3294d.part5.rar
https://data.hu/get/11401185/D3294d.part6.rar
https://data.hu/get/11401184/D3294d.part7.rar
https://data.hu/get/11401182/D3294d.part8.rar
[/HIDE-THANKS]
 

papadi

Állandó Tag


The Rolling Stones: 50 Years On Video 60s - 70s - 80s From The Channel
From The Vaults Black Edition (2013)
From The Vaults - FTV003DVD1/2

DVD2 - LIVE ARCHIVE
01 - Live Archive Vol.1 - Brussels 1973
02 - Live Archive Vol.2 - Hampton 1981
03 - Black Limousine
04 - Little T&A / Happy Birthday Keith
05 - She's So Cold
06 - (I Can not Get No) Satisfaction
07 - Live Archive Vol.3 - LA Friday Live 1975
08 - Ain 't Too Proud To Beg
09 - You Can’t Always Get What You Want
10 - Happy
11 - It's Only Rock' N 'Roll (But I Like It)
12 - Fingerprint File
13 - Angie
14 - Live Archive Vol.4 - Tokyo Dome 1990
15 - Sad Sad Sad
16 - Ruby Tuesday
17 - Rock And A Hard Place
18 - Paint It Black
19 - It's Only Rock 'N' Roll (But I Like It)
20 - Live Archive Vol.5 - Toronto Phoenix 2005
21 - Rough Justice
22 - Live With Me
23 - Get Up Stand Up
24 - Mr. Pitiful
25 - Live Archive Vol.6 - Roundhay Park Leeds 1982
26 - Under My Thumb
27 - Let's Spend The Night Together
28 - Twenty Flight Rock / Going To A Go Go
29 - Time Is On My Side

dvd/dvd5 - 3,85 GB - 720x480 - 256 kbps - 2:35:38
[HIDE-THANKS]
Kód:
https://data.hu/get/11401785/D3295d.part1.rar
https://data.hu/get/11401778/D3295d.part2.rar
https://data.hu/get/11401764/D3295d.part3.rar
https://data.hu/get/11401755/D3295d.part4.rar
[/HIDE-THANKS]
 

papadi

Állandó Tag
2940554-20181013-1uqfRD.jpg


Spooky Tooth: Nomad Poets - Live in Germany 2004
Recorded in Worpswede, June 4th & Hamburg, June 5th
Evangeline Records / Larkio Music. GELMV 4109, 2007
Hang: angol
Felirat: nincs

01 - Waitin' for The Wind (Grosvenor - Harrison - Wright)
02 - Sunshine Help Me (Wright)
03 - That Was Only Yesterday (Wright)
04 - The Wrong Time (Wright - H. McCracken)
05 - Feelin Bad (Kellie - Wright)
06 - Wildfire (Wright)
07 - Better By You, Better Than Me (Wright)
08 - Tobacco Road (J.D.Loudermilk)
09 - Hangman Hang My Shell On A Tree (Wright)
10 - Evil Woman (L. Weiss)

SPOOKY TOOTH:
Mike Kellie - drums
Mike Harrison - lead vocal, keys
Gary Wright - lead vocal, keys
with
Joey Albrecht - guitars
Michael Becker - bass

Bonus (csak a dvd-n):
Interviews
Mike Kellie (11:51)
Mike Harrison (13:54)
Gary Wright (13:50)

Gary Wright in concert San Diego 1976
Love Is Alive (4:40)
Are You Weepin' (5:10)

Spooky Tooth Slideshow (3:14)

Média információ:

Video:
Kodek: MPEG-1/2 Video (mpgv)
Felbontás: 720x576
Képkockasebesség: 25

Hang:
Kodek: A52 Audio (aka AC3) (a52)
Csatornák: Sztereó
Mintavételi frekvencia: 48000 Hz
Bitsebesség: 192 kb/mp

Formátum: dvd
Méret: 4,19 GB
Műsoridő: 55:41 (1:48:20)
(prémium)
[HIDE-THANKS]
Kód:
https://data.hu/get/11469447/D3321d.part1.rar
https://data.hu/get/11469440/D3321d.part2.rar
https://data.hu/get/11469432/D3321d.part3.rar
https://data.hu/get/11469434/D3321d.part4.rar
https://data.hu/get/11469444/D3321d.part5.rar
[/HIDE-THANKS]

2940556-20181013-aGkMJZ.jpg


Formátum: dvdrip/avi
Méret: 760 MB
Felbontás: 640x480
Mintavételi frekvencia: 48000 Hz
Bitsebesség: 192 kbps
Műsoridő: 55:41
Részletes média információ:
C:\Users\user\Videos\Spooky Tooth - Nomad Poets - Live in Germany 2004.avi
General
Complete name : C:\Users\user\Videos\Spooky Tooth - Nomad Poets - Live in Germany 2004.avi
Format : AVI
Format/Info : Audio Video Interleave
File size : 759 MiB
Duration : 55 min
Overall bit rate : 1 906 kb/s
Writing application : Lavf51.12.1
Video #0
ID : 0
Format : xvid
Codec ID : xvid
Duration : 55 min
Bit rate : 1 701 kb/s
Width : 640 pixels
Height : 480 pixels
Display aspect ratio : 4:3
Frame rate : 25.000 FPS
Bits/(Pixel*Frame) : 0.221
Stream size : 677 MiB (89%)
Audio #1
ID : 1
Format : MPEG Audio
Format version : Version 1
Format profile : Layer 3
Mode : Joint stereo
Mode extension : MS Stereo
Codec ID : 55
Codec ID/Hint : MP3
Duration : 55 min
Bit rate mode : Constant
Bit rate : 192 kb/s
Channel(s) : 2 channels
Sampling rate : 48.0 kHz
Compression mode : Lossy
Stream size : 76.5 MiB (10%)
Alignment : Aligned on interleaves
Interleave, duration : 24 ms (0.60 video frame)
Writing library : LAME3.97
[HIDE-THANKS]
Kód:
https://data.hu/get/11469433/D3321a.rar
[/HIDE-THANKS]
vagy free
[HIDE-THANKS]
Kód:
https://data.hu/get/11469443/D3321av.part1.rar
https://data.hu/get/11469449/D3321av.part2.rar
https://data.hu/get/11469437/D3321av.part3.rar
https://data.hu/get/11469448/D3321av.part4.rar
[/HIDE-THANKS]
 

papadi

Állandó Tag
2940555-20181013-wAuG5M.jpg


Spooky Tooth: The Lost Broadcasts
Gonzo Multimedia Group. HST070DVD
Megjelenés: 2012-02-20 (UK)
Hang: angol
Felirat: nincs

1 - The Weight - 5:02
2 - Old As I Was Born - 8:09
3 - Cotton Growing Man 1 - 4:48
4 - Cotton Growing Man 2 - 7:38
5 - Waiting For The Wind - 8:11
6 - Moriah 1 - 5:57
7 - Moriah 2 - 5:09
Beat-Club. 1968. november (1), Musikladen, 1973. április (2-7)

Média információ:

Video:
Kodek: MPEG-1/2 Video (mpgv)
Felbontás: 720x480
Képkockasebesség: 25

Hang:
Kodek: A52 Audio (aka AC3) (a52)
Csatornák: Sztereó
Mintavételi frekvencia: 48000 Hz
Bitsebesség: 256 kb/mp

Formátum: dvd
Méret: 2,20 GB
Műsoridő: 44:45
(prémium)
[HIDE-THANKS]
Kód:
https://data.hu/get/11469436/D3322d.part1.rar
https://data.hu/get/11469442/D3322d.part2.rar
https://data.hu/get/11469438/D3322d.part3.rar
[/HIDE-THANKS]
 

papadi

Állandó Tag
Iron Maiden: Raising Hell
koncertfilm, 1993/2000 (dvdrip - avi)

2975066-20181115-OCX7A8.jpg


Iron Maiden: Raising Hell
Pinewood Studios in London, England, on 28 August 1993
Director: Declan Lowney
BMG Special Products, 72333-80091-9 (2000) US
Platinum Performances
Style: Heavy Metal

Tracklist
01 - Be Quick Or Be Dead (Bruce Dickinson - Janick Gers)
02 - The Trooper (Steve Harris)
03 - The Evil That Men Do (Adrian Smith - Bruce Dickinson - Steve Harris)
04 - The Clairvoyant (Steve Harris)
05 - Hallowed Be Thy Name (Steve Harris)
06 - Wrathchild (Steve Harris)
07 - Transylvania (Steve Harris)
08 - From Here To Eternity (Steve Harris)
09 - Fear Of The Dark (Steve Harris)
10 - The Number Of The Beast (Steve Harris)
11 - Bring Your Daughter ... To The Slaughter (Bruce Dickinson)
12 - Two Minutes To Midnight (Adrian Smith - Bruce Dickinson)
13 - Afraid To Shoot Strangers (Steve Harris)
14 - Heaven Can Wait (Steve Harris)
15 - Sanctuary (Steve Harris - Dave Murray - Paul Di'Anno)
16 - Run To The Hills (Steve Harris)
17 - Iron Maiden (Steve Harris)

IRON MAIDEN:
Bruce Dickinson - vocals
Dave Murray - guitar
Janick Gers - guitar
Steve Harris - bass
Nicko McBrain - drums

Simon Drake - horror illusionist

Média információ:
Video:
Kodek: MPEG-1/2 Video (mpgv)
Felbontás: 720x480
Képkockasebesség: 29,970030
Képformátum: 1.33:1 (4:3)
Hang:
Kodek: A52 Audio (aka AC3) (a52)
Csatornák: Sztereó / 3F2R/LFE
Mintavételi frekvencia: 48000 Hz
Bitsebesség: 192/384 kb/mp
Formátum: iso
Méret: 5,04 GB
Műsoridő: 1:53:09

(prémium)
[HIDE-THANKS]
Kód:
https://data.hu/get/11522653/D3341i.part1.rar
https://data.hu/get/11522659/D3341i.part2.rar
https://data.hu/get/11522656/D3341i.part3.rar
https://data.hu/get/11522661/D3341i.part4.rar
https://data.hu/get/11522650/D3341i.part5.rar
[/HIDE-THANKS]

2975067-20181115-QX72pv.jpg


Formátum: dvdrip/avi
Méret: 1,93 GB
Felbontás: 720x544
Mintavételi frekvencia: 48000 Hz
Bitsebesség: 192 kbps
Műsoridő: 1:53:15
Részletes média információ:
I:\Video\Iron Maiden - Raising Hell.avi
General
Complete name : I:\Video\Iron Maiden - Raising Hell.avi
Format : AVI
Format/Info : Audio Video Interleave
File size : 1.93 GiB
Duration : 1 h 53 min
Overall bit rate : 2 443 kb/s
Writing application : VirtualDubMod 1.5.4.1 (build 2178/release)
Writing library : VirtualDubMod build 2178/release
Video #0
ID : 0
Format : MPEG-4 Visual
Format profile : Advanced [email protected]
Format settings, BVOP : 1
Format settings, QPel : No
Format settings, GMC : No warppoints
Format settings, Matrix : Custom
Codec ID : XVID
Codec ID/Hint : XviD
Duration : 1 h 53 min
Bit rate : 2 047 kb/s
Width : 720 pixels
Height : 544 pixels
Display aspect ratio : 4:3
Frame rate : 29.970 (29970/1000) FPS
Color space : YUV
Chroma subsampling : 4:2:0
Bit depth : 8 bits
Scan type : Progressive
Compression mode : Lossy
Bits/(Pixel*Frame) : 0.174
Stream size : 1.62 GiB (84%)
Writing library : XviD 1.2.1 (UTC 2008-12-04)
Audio #1
ID : 1
Format : MPEG Audio
Format version : Version 1
Format profile : Layer 3
Mode : Joint stereo
Codec ID : 55
Codec ID/Hint : MP3
Duration : 1 h 53 min
Bit rate mode : Constant
Bit rate : 192 kb/s
Channel(s) : 2 channels
Sampling rate : 48.0 kHz
Compression mode : Lossy
Stream size : 156 MiB (8%)
Alignment : Aligned on interleaves
Interleave, duration : 67 ms (2.00 video frames)
Interleave, preload duration : 504 ms
Writing library : LAME3.98r
Encoding settings : -m j -V 4 -q 2 -lowpass 18.6 -b 192
Audio #2
ID : 2
Format : MPEG Audio
Format version : Version 1
Format profile : Layer 3
Mode : Joint stereo
Mode extension : MS Stereo
Codec ID : 55
Codec ID/Hint : MP3
Duration : 1 h 53 min
Bit rate mode : Constant
Bit rate : 192 kb/s
Channel(s) : 2 channels
Sampling rate : 48.0 kHz
Compression mode : Lossy
Stream size : 156 MiB (8%)
Alignment : Aligned on interleaves
Interleave, duration : 67 ms (2.00 video frames)
Interleave, preload duration : 504 ms
Writing library : LAME3.98r
Encoding settings : -m j -V 4 -q 2 -lowpass 18.6 -b 192
[HIDE-THANKS]
Kód:
https://data.hu/get/11522651/D3341a.part1.rar
https://data.hu/get/11522657/D3341a.part2.rar
[/HIDE-THANKS]
vagy free
[HIDE-THANKS]
Kód:
https://data.hu/get/11522665/D3341av.part01.rar
https://data.hu/get/11522666/D3341av.part02.rar
https://data.hu/get/11522658/D3341av.part03.rar
https://data.hu/get/11522660/D3341av.part04.rar
https://data.hu/get/11522652/D3341av.part05.rar
https://data.hu/get/11522662/D3341av.part06.rar
https://data.hu/get/11522654/D3341av.part07.rar
https://data.hu/get/11522649/D3341av.part08.rar
https://data.hu/get/11522664/D3341av.part09.rar
https://data.hu/get/11522655/D3341av.part10.rar
https://data.hu/get/11522663/D3341av.part11.rar
[/HIDE-THANKS]
 

Zauberfl

Állandó Tag
Szerelmi bájital (L’elisir d’amore) 1988
Az opera televíziós változata



Komponálta: Gaetano Donizetti
Szövegíró: Felice Romani
Magyar szöveg: Blum Tamás
Dramaturg: Romhányi Ágnes
Zenei rendező: Vajda János
Vezényel: Selmeczi György
Rendező: Fehér György

Szereplők:
Bátori Éva - Adina
Gulyás Dénes - Nemorino
Miller Lajos - Belcore
Sólyom-nagy Sándor - Dulcamara doktor
Pánczél Éva - Giannetta

Miskolci Új Zenei Múhely és a Magyar Állami Operaház énekkara
Karigazgató - Katona Anikó


Nemorino, a melegszívű, de kissé félszeg falusi legény reménytelenül szerelmes a falu szépébe, a gazdag és olvasott Adinába. A leány azonban más férfit képzel el magának, ezért rendszeresen kiadja Nemorino útját. A faluba érkezik egy csapat katona, élükön Belcoréval, aki azonnal udvarolni kezd a leánynak. Ez Nemorinót rendkívül féltékennyé teszi. Ezért a magát csodadoktorként hirdető Dulcamarához fordul varázsitalért. Adina közben Belcoréval készül eljegyzésre. Mivel a varázsital hatástalan volt, Nemorino még egy adag szerelmi bájitalt szeretne venni. Pénze már nincs, így kénytelen beállni katonának. Még nem tudja, hogy bácsikája meghalt, és nagy örökséget hagyott rá, de feltűnik neki, hogy a falubeli lányok körülzsongják. Adinát meghatja Nemorino elszántsága, hősies tette, és a káplár helyett őt választja, amit a káplár sem bán túlságosan.


Format: Matroska at 2 051 kb/s
Length: 1,38 GiB for 1 óra 36 perc 13 mp 760emp
Video: AVC
Aspect: 720 x 576 (1.250) at 25.000 fps
Audio: AAC
Infos: 2 csatorna, 48,0 kHz



[HIDE-THANKS]https://data.hu/dir/5ae79c4o1m440783[/HIDE-THANKS]​
 

papadi

Állandó Tag
d33fb3d31f8144801c63c9e6f0fb4655.jpg


Dire Straits: Sultans Of Swing - The Very Best Of Dire Straits
982 318-1 Universal, 2004

01 - Sultans Of Swing (Dire Straits, 1978)
02 - Lady Writer (Communique, 1979)
03 - Romeo And Juliet (Making Movies, 1980)
04 - Tunnel Of Love (Making Movies, 1980)
05 - Private Investigations (Love Over Gold, 1982)
06 - Twisting By The Pool (ExtendedancEPlay, 1983)
07 - Love Over Gold (live, Alchemy: Dire Straits Live, 1984)
08 - So Far Away (Brothers In Arms, 1985)
09 - Money For Nothing (Brothers In Arms, 1985) single edit
10 - Brothers In Arms (Brothers In Arms, 1985)
11 - Walk Of Life (Brothers In Arms, 1985)
12 - Calling Elvis (On Every Street, 1991)
13 - Heavy Fuel (On Every Street, 1991)
14 - On Every Street (On Every Street, 1991)
15 - Your Latest Trick (live, On The Night)
16 - Local Hero - Wild Theme (live, On The Night, DVD version)

Extra:
Audio interview with Mark Knopfler

Média információ:

Video:
Kodek: MPEG-1/2 Video (mpgv)
Felbontás: 720x480
Képkockasebesség: 29,970030
Képformátum: 1.33:1 (4:3)

Hang:
Kodek: DVD LPCM Audio (lpcm)
Csatornák: Sztereó
Mintavételi frekvencia: 48000 Hz
Bitsebesség: 16 kb/mp

Formátum: dvd
Méret: 4,05 GB
Műsoridő: 1:19:35+11:57

(prémium)
[HIDE-THANKS]
Kód:
https://data.hu/get/12033484/D2028d.part1.rar
https://data.hu/get/12033482/D2028d.part2.rar
https://data.hu/get/12033485/D2028d.part3.rar
https://data.hu/get/12033486/D2028d.part4.rar
[/HIDE-THANKS]

37b42a430fe5e6e67eec5a26c47cbe4a.jpg


Formátum: dvdrip/avi
Méret: 895 MB
Felbontás: 720x544
Mintavételi frekvencia: 48000 Hz
Bitsebesség: 256 kbps
Műsoridő: 1:19:51

Részletes média információ:
I:\0000\Dire Straits\xDire Straits - Sultans Of Swing\Dire Straits - Sultans Of Swing.avi
General
Complete name : I:\0000\Dire Straits\xDire Straits - Sultans Of Swing\Dire Straits - Sultans Of Swing.avi
Format : AVI
Format/Info : Audio Video Interleave
File size : 891 MiB
Duration : 1 h 19 min
Overall bit rate : 1 559 kb/s
Writing application : VirtualDubMod 1.5.4.1 (build 2178/release)
Writing library : VirtualDubMod build 2178/release
Video #0
ID : 0
Format : MPEG-4 Visual
Format profile : Advanced [email protected]
Format settings, BVOP : 1
Format settings, QPel : No
Format settings, GMC : No warppoints
Format settings, Matrix : Custom
Codec ID : XVID
Codec ID/Hint : XviD
Duration : 1 h 19 min
Bit rate : 1 296 kb/s
Width : 720 pixels
Height : 544 pixels
Display aspect ratio : 4:3
Frame rate : 25.000 FPS
Color space : YUV
Chroma subsampling : 4:2:0
Bit depth : 8 bits
Scan type : Progressive
Compression mode : Lossy
Bits/(Pixel*Frame) : 0.132
Stream size : 740 MiB (83%)
Writing library : XviD 1.2.1 (UTC 2008-12-04)
Audio #1
ID : 1
Format : MPEG Audio
Format version : Version 1
Format profile : Layer 3
Mode : Joint stereo
Codec ID : 55
Codec ID/Hint : MP3
Duration : 1 h 19 min
Bit rate mode : Constant
Bit rate : 256 kb/s
Channel(s) : 2 channels
Sampling rate : 48.0 kHz
Compression mode : Lossy
Stream size : 146 MiB (16%)
Alignment : Aligned on interleaves
Interleave, duration : 80 ms (2.00 video frames)
Interleave, preload duration : 504 ms
Writing library : LAME3.98r
Encoding settings : -m j -V 4 -q 2 -lowpass 19.7

(prémium)
[HIDE-THANKS]
Kód:
https://data.hu/get/12033490/D2028a.rar
[/HIDE-THANKS]
vagy free
[HIDE-THANKS]
Kód:
https://data.hu/get/12033488/D2028av.part1.rar
https://data.hu/get/12033489/D2028av.part2.rar
https://data.hu/get/12033487/D2028av.part3.rar
https://data.hu/get/12033481/D2028av.part4.rar
https://data.hu/get/12033483/D2028av.part5.rar
[/HIDE-THANKS]
 

papadi

Állandó Tag
e1b71980a5d6713b92fc9abbb824d52d.jpg


Mötley Crüe: Carnival of Sins Live
BF-54961 Universal / Budapest Film, 2005/2008

A felvételek a 2005-ös "Red, White and Crue Tour" során készültek.

Az elhangzó dalok:

01 - Opening
02 - Shout At The Devil
03 - Too Fast For Love
04 - Ten Seconds To Love
05 - Red Hot
06 - On With The Show
07 - Too Young To Fall In Love
08 - Looks That Kill
09 - Louder Than Hell
10 - Live Wire
11 - Girls Girls Girls
12 - Wild Side
13 - Don't Go Away Mad (Just Go Away)
14 - Primal Scream
15 - Glitter
16 - Without You
17 - Home Sweet Home
18 - Nikkie's Solo
19 - Dr. Feelgood
20 - Tommy's Solo
21 - Same Ol' Situation
22 - Tommy Cam
23 - Sick Love Song
24 - If I Die Tomorrow
25 - Kickstart My Heart
26 - Helter Skelter
27 - Anarchy In the U.K.

85a20a9efc17c917c6da5eb1b92bc387.jpg


Formátum: dvdrip/avi
Méret: 2,23 GB
Felbontás: 720x400
Mintavételi frekvencia: 48000 Hz
Bitsebesség: 320 kbps
Műsoridő: 2:17:05

Részletes média információ:
C:\Users\user\Videos\Mötley Crüe - Carnival of Sins.avi
General
Complete name : C:\Users\user\Videos\Mötley Crüe - Carnival of Sins.avi
Format : AVI
Format/Info : Audio Video Interleave
Format profile : OpenDML
File size : 2.23 GiB
Duration : 2 h 17 min
Overall bit rate : 2 331 kb/s
Movie name : Carnival of Sins
Director : Mötley Crüe
Genre : Heavy Metal
Recorded date : 2005
Writing application : Lavf58.17.100
Video #0
ID : 0
Format : MPEG-4 Visual
Format profile : Advanced [email protected]
Format settings, BVOP : 3
Format settings, QPel : No
Format settings, GMC : No warppoints
Format settings, Matrix : Default (H.263)
Codec ID : DIVX
Codec ID/Info : Project Mayo
Codec ID/Hint : DivX 4
Duration : 2 h 17 min
Bit rate : 1 999 kb/s
Width : 720 pixels
Height : 400 pixels
Display aspect ratio : 16:9
Frame rate : 23.976 FPS
Color space : YUV
Chroma subsampling : 4:2:0
Bit depth : 8 bits
Scan type : Interlaced
Original scan type : Progressive
Scan order : Bottom Field First
Compression mode : Lossy
Bits/(Pixel*Frame) : 0.289
Stream size : 1.91 GiB (86%)
Writing library : Lavc58.19.104
Audio #1
ID : 1
Format : MPEG Audio
Format version : Version 1
Format profile : Layer 3
Codec ID : 55
Codec ID/Hint : MP3
Duration : 2 h 17 min
Bit rate mode : Constant
Bit rate : 320 kb/s
Channel(s) : 2 channels
Sampling rate : 48.0 kHz
Compression mode : Lossy
Stream size : 314 MiB (14%)
Alignment : Aligned on interleaves
Interleave, duration : 24 ms (0.58 video frame)
Interleave, preload duration : 24 ms
Writing library : LAME3.100

(prémium)
[HIDE-THANKS]
Kód:
https://data.hu/get/12134420/22C5134v.part1.rar
https://data.hu/get/12134414/22C5134v.part2.rar
https://data.hu/get/12134419/22C5134v.part3.rar
[/HIDE-THANKS]
 

papadi

Állandó Tag
5d4d982c283f5b5dfdd968388871895a.jpg


Mötley Crüe: The End - Live in Los Angeles
EVB335529 Eagle Vision, 2016

Az együttes Los Angeles-i Staples Centerben tartott, 2015. december 31-i búcsúkoncertje.

Az elhangzó dalok:

01 - Intro
02 - Girls, Girls, Girls
03 - Wild Side
04 - Primal Scream
05 - Same Ol' Situation (S.O.S.)
06 - Don't Go Away Mad (Just Go Away)
07 - Rock N Roll Part II / Smokin' In The Boys' Room
08 - Looks That Kill
09 - Mutherf***** Of The Year
10 - In The Beginning / Shout At The Devil
11 - Louder Than Hell
12 - Drum Solo
13 - Guitar Solo
14 - Saints Of Los Angeles
15 - Live Wire
16 - T.N.T. (Terror 'N Tinseltown) / Dr. Feelgood
17 - Kickstart My Heart
18 - Home Sweet Home
19 - My Way (Credits)

3d69c8d0e0c900d493d3de1af4650991.jpg


Formátum: bdrip/avi
Méret: 1,73 GB
Felbontás: 720x378
Mintavételi frekvencia: 48000 Hz
Bitsebesség: 320 kbps
Műsoridő: 1:48:08

Részletes média információ:
C:\Users\user\Videos\Mötley Crüe - The End - Live in Los Angeles.avi
General
Complete name : C:\Users\user\Videos\Mötley Crüe - The End - Live in Los Angeles.avi
Format : AVI
Format/Info : Audio Video Interleave
Format profile : OpenDML
File size : 1.73 GiB
Duration : 1 h 48 min
Overall bit rate : 2 292 kb/s
Movie name : The End - Live in Los Angeles
Director : Mötley Crüe
Genre : Heavy Metal
Recorded date : 2016
Writing application : Lavf58.17.100
Video #0
ID : 0
Format : MPEG-4 Visual
Format profile : Advanced [email protected]
Format settings, BVOP : 3
Format settings, QPel : No
Format settings, GMC : No warppoints
Format settings, Matrix : Default (H.263)
Codec ID : DIVX
Codec ID/Info : Project Mayo
Codec ID/Hint : DivX 4
Duration : 1 h 48 min
Bit rate : 1 959 kb/s
Width : 720 pixels
Height : 378 pixels
Display aspect ratio : 1.905
Frame rate : 23.976 FPS
Color space : YUV
Chroma subsampling : 4:2:0
Bit depth : 8 bits
Scan type : Interlaced
Original scan type : Progressive
Scan order : Bottom Field First
Compression mode : Lossy
Bits/(Pixel*Frame) : 0.300
Stream size : 1.48 GiB (85%)
Writing library : Lavc58.19.104
Audio #1
ID : 1
Format : MPEG Audio
Format version : Version 1
Format profile : Layer 3
Codec ID : 55
Codec ID/Hint : MP3
Duration : 1 h 48 min
Bit rate mode : Constant
Bit rate : 320 kb/s
Channel(s) : 2 channels
Sampling rate : 48.0 kHz
Compression mode : Lossy
Stream size : 248 MiB (14%)
Alignment : Aligned on interleaves
Interleave, duration : 24 ms (0.58 video frame)
Title : 2.0

(prémium)
[HIDE-THANKS]
Kód:
https://data.hu/get/12134425/23C5137v.part1.rar
https://data.hu/get/12134427/23C5137v.part2.rar
[/HIDE-THANKS]
 

papadi

Állandó Tag
6f4dac19b15a9b02c713156840f52b63.jpg


Mötley Crüe: Greatest Video Hits
0602498143469 Masters 2000 / Mötley Records, 2003

01 - Kickstart My Heart
02 - Same Ol' Situation
03 - Don't Go Away Mad (Just Go Away)
04 - Without You
05 - Wild Side
06 - Girls, Girls, Girls
07 - Dr. Feelgood
08 - Looks That Kill
09 - Live Wire
10 - You're All That I Need
11 - Too Young To Fall In Love
12 - Primal Scream
13 - Anarchy In The U.K.
14 - Afraid
15 - Smoke The Sky
16 - Misunderstood
17 - Enslaved
18 - Smokin' In The Boys Room
19 - Hooligan's Holiday
20 - Hell On High Heels
21 - Home Sweet Home

Alternate Videos:
01 - Girls, Girls, Girls (X-Rated Version)
02 - Dr. Feelgood (Alternate Version)
03 - Primal Scream (Uncensored)
04 - Misunderstood (Uncensored)
05 - Hell On High Heels (Uncensored)
06 - Home Sweet Home ('91 Remix)

Bonus:
New Interview with Nikki Sixx and Tommy Lee with archive footage

0059c6e1681d1a79f87e7a07a8e4ca1c.jpg


Formátum: dvdrip/avi
Méret: 2,77 GB + 900 MB
Felbontás: 720x544, 720x432
Mintavételi frekvencia: 48000 Hz
Bitsebesség: 192 kbps
Műsoridő: 2:04:26+52:21

Részletes média információ:
I:\0t\Mötley Crüe\MOTLEY CRUE GREATEST VIDEO HITS [DivX]\01 - Kickstart My Heart (1989).avi
General
Complete name : I:\0t\Mötley Crüe\MOTLEY CRUE GREATEST VIDEO HITS [DivX]\01 - Kickstart My Heart (1989).avi
Format : AVI
Format/Info : Audio Video Interleave
File size : 120 MiB
Duration : 5 min
Overall bit rate : 3 199 kb/s
Writing application : VirtualDubMod 1.5.4.1 (build 2178/release)
Writing library : VirtualDubMod build 2178/release
Video #0
ID : 0
Format : MPEG-4 Visual
Format settings, BVOP : 1
Format settings, QPel : No
Format settings, GMC : No warppoints
Format settings, Matrix : Default (H.263)
Muxing mode : Packed bitstream
Codec ID : DX50
Codec ID/Hint : DivX 5
Duration : 5 min
Bit rate : 2 745 kb/s
Width : 720 pixels
Height : 544 pixels
Display aspect ratio : 4:3
Frame rate : 25.000 FPS
Color space : YUV
Chroma subsampling : 4:2:0
Bit depth : 8 bits
Scan type : Progressive
Compression mode : Lossy
Bits/(Pixel*Frame) : 0.280
Stream size : 103 MiB (86%)
Writing library : DivX 6.1.0 (UTC 2005-12-12)
Audio #1
ID : 1
Format : AC-3
Format/Info : Audio Coding 3
Mode extension : CM (complete main)
Format settings, Endianness : Big
Codec ID : 2000
Duration : 5 min
Bit rate mode : Constant
Bit rate : 448 kb/s
Channel(s) : 6 channels
Channel positions : Front: L C R, Side: L R, LFE
Sampling rate : 48.0 kHz
Frame rate : 31.250 FPS (1536 spf)
Compression mode : Lossy
Stream size : 16.7 MiB (14%)
Alignment : Split accross interleaves
Interleave, duration : 96 ms (2.41 video frames)
Interleave, preload duration : 96 ms
Language : English

(Prémium)
klippek:
[HIDE-THANKS]
Kód:
https://data.hu/get/12134424/24C5129va.part1.rar
https://data.hu/get/12134418/24C5129va.part2.rar
https://data.hu/get/12134421/24C5129va.part3.rar
[/HIDE-THANKS]
interjú
[HIDE-THANKS]
Kód:
https://data.hu/get/12134415/24C5129vb.rar
[/HIDE-THANKS]

a klippek vob-ban (720x576) 4,07 GB
[HIDE-THANKS]
Kód:
https://data.hu/get/12134423/24C5129vv.part1.rar
https://data.hu/get/12134422/24C5129vv.part2.rar
https://data.hu/get/12134515/24C5129vv.part3.rar
https://data.hu/get/12134517/24C5129vv.part4.rar
https://data.hu/get/12134513/24C5129vv.part5.rar
[/HIDE-THANKS]
 

papadi

Állandó Tag
Bródy János két koncert dvd-je

725504386e1acbfcdf50694adfa7092d.jpg


Bródy János: Volt egyszer egy Bródy János koncert
Budapest Sportcsarnok, 1994. december 28.
MR004 MalibuRecords, 2006

01 - Filléres emlékeim
02 - Mama kérlek
03 - Mit tehetnék érted
04 - Személyi igazolvány
05 - K. Kata balladája
06 - Hungarian blues
07 - Egy hétig tart
08 - Földvár felé félúton
09 - Légy hű magadhoz
10 - Engedd, hogy szabad legyek
11 - Ha én rózsa volnék
12 - Mindannyian mások vagyunk
13 - Az utcán (A másik oldalon)
14 - Sárika

Zenekar: NO coMMent

Közreműködött:
Lippényi Gábor (sax)
Pásztory Zoltán (dob)

b11ddade3da86cf52d61489a58d238da.jpg


Formátum: dvdrip/avi
Méret: 702 MB
Felbontás: 720x544
Mintavételi frekvencia: 48000 Hz
Bitsebesség: 192 kbps
Műsoridő: 57:09

Részletes média információ:
I:\0000\Brdy Jnos - Volt egyszer egy koncert\Bródy János - Volt egyszer egy koncert.avi
General
Complete name : I:\0000\Brdy Jnos - Volt egyszer egy koncert\Bródy János - Volt egyszer egy koncert.avi
Format : AVI
Format/Info : Audio Video Interleave
File size : 699 MiB
Duration : 57 min
Overall bit rate : 1 710 kb/s
Writing application : VirtualDubMod 1.5.4.1 (build 2178/release)
Writing library : VirtualDubMod build 2178/release
Video #0
ID : 0
Format : MPEG-4 Visual
Format profile : Advanced [email protected]
Format settings, BVOP : 1
Format settings, QPel : No
Format settings, GMC : No warppoints
Format settings, Matrix : Custom
Codec ID : XVID
Codec ID/Hint : XviD
Duration : 57 min
Bit rate : 1 511 kb/s
Width : 720 pixels
Height : 544 pixels
Display aspect ratio : 4:3
Frame rate : 25.000 FPS
Color space : YUV
Chroma subsampling : 4:2:0
Bit depth : 8 bits
Scan type : Progressive
Compression mode : Lossy
Bits/(Pixel*Frame) : 0.154
Stream size : 618 MiB (88%)
Writing library : XviD 1.2.1 (UTC 2008-12-04)
Audio #1
ID : 1
Format : MPEG Audio
Format version : Version 1
Format profile : Layer 3
Mode : Joint stereo
Codec ID : 55
Codec ID/Hint : MP3
Duration : 57 min
Bit rate mode : Constant
Bit rate : 192 kb/s
Channel(s) : 2 channels
Sampling rate : 48.0 kHz
Compression mode : Lossy
Stream size : 78.5 MiB (11%)
Alignment : Aligned on interleaves
Interleave, duration : 80 ms (2.00 video frames)
Interleave, preload duration : 504 ms
Writing library : LAME3.98r
Encoding settings : -m j -V 4 -q 2 -lowpass 18.6 -b 192

(prémium)
[HIDE-THANKS]
Kód:
https://data.hu/get/12223839/D0823a.rar
[/HIDE-THANKS]

free
[HIDE-THANKS]
Kód:
https://data.hu/get/12223828/D0823av.part1.rar
https://data.hu/get/12223829/D0823av.part2.rar
https://data.hu/get/12223838/D0823av.part3.rar
https://data.hu/get/12223833/D0823av.part4.rar
[/HIDE-THANKS]

561a7b21a1faa91a7d334217f8a1cc3d.jpg


Bródy 60
Születésnapi koncert a Madách Színházban, 2006. április 16.
ER6012 Europa Records, 2006

1. A koncert - 2:02:14

01 - Nyitány
02 - Nem történt semmi
03 - Filléres emlékeim
04 - Hungarian Blues
05 - Mama kérlek
06 - Maszkabál
07 - Légy hű magadhoz
08 - Santa Monica
09 - Személyi igazolvány
10 - Bordódi Kristóf
11 - Engedd, hogy szabad legyek
12 - Művészbejáró
13 - Kockázatok és mellékhatások
14 - Haggyá' má' békibe'
15 - Szabadnak születtél
16 - Meg kéne kapaszkodni
17 - Hová tűntek
18 - Hej tulipán
19 - Mindannyian mások vagyunk
20 - Más lesz a holnap
21 - Boldog születésnapot
22 - Ha én rózsa volnék
23 - Csak egy nap az élet
24 - Földvár felé félúton
25 - Az utcán
26 - Micimackó

Közreműködnek:
Gallusz Nikolett (03, 11)
Krassy Renáta (13, 20)
Mahó Andrea (10, 15)
Polyák Lilla (05, 17)
Vágó Zsuzsa (07, 16)
Barát Attila (12, 17)
Feke Pál (04, 11)
Miller Zoltán (06, 13)
Nagy Sándor (08, 15)
Serbán Attila (14, 16)
a Madách Színház Zenekara és Musical Kórusa
Műsorvezető: Nagy György és Székely Nagy Katalin

Bródy János (22-26)

Extrák:

"Álmodom"
Kiállítás a Komédiumban, 2006. április - 3:33

Krónikásénekek
részletek a 2002. december 7-i BKK koncertből - 20:44
01 - Filléres emlékeim
02 - Mama kérlek
03 - Személyi igazolvány
04 - K. Kata balladája
05 - Egy hétig tart

Klipek a múlt századból
01 - A fiam + a lányom (1989) - 2:55
02 - Tangó lemondó (1994) - 2:52
03 - Mit tehetnék érted (1994) - 3:24
04 - Haggyá' má' békibe' (1994) - 4:25
05 - Véletlen találkozás (1994) - 3:57
06 - Santa Monica (1994) - 3:35
07 - Művészbejáró (1994) - 2:55
08 - A földön járj (1994) - 4:33

58362e323aa5f53a38f454a17abb83c5.jpg


Formátum: dvdrip/avi
Méret: 1,68 GB
Felbontás: 720x544
Mintavételi frekvencia: 48000 Hz
Bitsebesség: 256 kbps
Műsoridő: 2:55:12

Részletes média információ:
I:\0000\1 - Bródy 60.avi
General
Complete name : I:\0000\1 - Bródy 60.avi
Format : AVI
Format/Info : Audio Video Interleave
File size : 1.19 GiB
Duration : 2 h 2 min
Overall bit rate : 1 395 kb/s
Writing application : VirtualDubMod 1.5.4.1 (build 2178/release)
Writing library : VirtualDubMod build 2178/release
Video #0
ID : 0
Format : MPEG-4 Visual
Format profile : Advanced [email protected]
Format settings, BVOP : 1
Format settings, QPel : No
Format settings, GMC : No warppoints
Format settings, Matrix : Custom
Codec ID : XVID
Codec ID/Hint : XviD
Duration : 2 h 2 min
Bit rate : 873 kb/s
Width : 720 pixels
Height : 544 pixels
Display aspect ratio : 4:3
Frame rate : 25.000 FPS
Color space : YUV
Chroma subsampling : 4:2:0
Bit depth : 8 bits
Scan type : Progressive
Compression mode : Lossy
Bits/(Pixel*Frame) : 0.089
Stream size : 764 MiB (63%)
Writing library : XviD 1.2.1 (UTC 2008-12-04)
Audio #1
ID : 1
Format : MPEG Audio
Format version : Version 1
Format profile : Layer 3
Mode : Joint stereo
Mode extension : MS Stereo
Codec ID : 55
Codec ID/Hint : MP3
Duration : 2 h 2 min
Bit rate mode : Constant
Bit rate : 256 kb/s
Channel(s) : 2 channels
Sampling rate : 48.0 kHz
Compression mode : Lossy
Stream size : 224 MiB (18%)
Alignment : Aligned on interleaves
Interleave, duration : 80 ms (2.00 video frames)
Interleave, preload duration : 504 ms
Writing library : LAME3.98r
Encoding settings : -m j -V 4 -q 2 -lowpass 19.7
Audio #2
ID : 2
Format : MPEG Audio
Format version : Version 1
Format profile : Layer 3
Mode : Joint stereo
Codec ID : 55
Codec ID/Hint : MP3
Duration : 2 h 2 min
Bit rate mode : Constant
Bit rate : 256 kb/s
Channel(s) : 2 channels
Sampling rate : 48.0 kHz
Compression mode : Lossy
Stream size : 224 MiB (18%)
Alignment : Aligned on interleaves
Interleave, duration : 80 ms (2.00 video frames)
Interleave, preload duration : 504 ms
Writing library : LAME3.98r
Encoding settings : -m j -V 4 -q 2 -lowpass 19.7

(prémium)
[HIDE-THANKS]
Kód:
https://data.hu/get/12223844/D1412a.part1.rar
https://data.hu/get/12223840/D1412a.part2.rar
[/HIDE-THANKS]

free
[HIDE-THANKS]
Kód:
https://data.hu/get/12223841/D1412av.part01.rar
https://data.hu/get/12223832/D1412av.part02.rar
https://data.hu/get/12223843/D1412av.part03.rar
https://data.hu/get/12223830/D1412av.part04.rar
https://data.hu/get/12223836/D1412av.part05.rar
https://data.hu/get/12223831/D1412av.part06.rar
https://data.hu/get/12223837/D1412av.part07.rar
https://data.hu/get/12223834/D1412av.part08.rar
https://data.hu/get/12223842/D1412av.part09.rar
https://data.hu/get/12223835/D1412av.part10.rar
[/HIDE-THANKS]
 

papadi

Állandó Tag
Leonard Cohen: Live At The Isle Of Wight 1970

204f69faa788a0a69d509b93e66f3cab.jpg


Leonard Cohen: Live At The Isle Of Wight 1970 (CD+DVD)
88697 57916 2 Columbia / Legacy, 2009 (EU)

01 - Intro: Diamonds In The Mine
02 - Famous Blue Raincoat
03 - “It’s A Large Nation”
04 - Bird On The Wire
05 - One Of Us Cannot Be Wrong
06 - The Stranger Song
07 - Tonight Will Be Fine
08 - “They’ve Surrounded The Island”
09 - Hey, That’s No Way To Say Goodbye
10 - Sing Another Song Boys
11 - Judy Collins Introduces Suzanne
12 - Suzanne
13 - Joan Baez - Confronting Festival Violence
14 - The Partisan
15 - Seems So Long Ago, Nancy
16 - Credits: So Long, Marianne

Média információ:

Video:
Kodek: MPEG-1/2 Video (mpgv)
Felbontás: 720x480
Képkockasebesség: 29,970030
Dekódolt formátum: Planar 4:2:0 YUV

Hang:
Kodek: DVD LPCM Audio (lpcm)
Csatornák: Sztereó
Mintavételi frekvencia: 48000 Hz
Bitek mintánként: 32
Formátum: dvd
Méret: 3,72 GB
Műsoridő: 1:04:41

(prémium)
[HIDE-THANKS]
Kód:
https://data.hu/get/12308288/D3376d.part1.rar
https://data.hu/get/12308286/D3376d.part2.rar
https://data.hu/get/12308291/D3376d.part3.rar
https://data.hu/get/12308290/D3376d.part4.rar
[/HIDE-THANKS]

e6bf84a01ef0210f16acde98756d52b0.jpg


Formátum: dvdrip/avi
Méret: 1,43 GB
Felbontás: 720x400
Mintavételi frekvencia: 48000 Hz
Bitsebesség: 448 kbps
Műsoridő: 1:04:45

Részletes média információ:
I:\0001\DVD-3376 - Leonard Cohen - Live at the Isle of Wight 1970 (2009)\avi\Leonard Cohen - Live at the Isle of Wight 1970 (2009).avi
General
Complete name : I:\0001\DVD-3376 - Leonard Cohen - Live at the Isle of Wight 1970 (2009)\avi\Leonard Cohen - Live at the Isle of Wight 1970 (2009).avi
Format : AVI
Format/Info : Audio Video Interleave
File size : 1.43 GiB
Duration : 1 h 4 min
Overall bit rate : 3 166 kb/s
Writing application : VirtualDubMod 1.5.10.2 (build 2540/release)
Writing library : VirtualDubMod build 2540/release
Video #0
ID : 0
Format : MPEG-4 Visual
Format profile : Advanced [email protected]
Format settings, BVOP : 1
Format settings, QPel : No
Format settings, GMC : No warppoints
Format settings, Matrix : Default (H.263)
Codec ID : XVID
Codec ID/Hint : XviD
Duration : 1 h 4 min
Bit rate : 2 713 kb/s
Width : 720 pixels
Height : 400 pixels
Display aspect ratio : 16:9
Frame rate : 23.976 (23976/1000) FPS
Color space : YUV
Chroma subsampling : 4:2:0
Bit depth : 8 bits
Scan type : Progressive
Compression mode : Lossy
Bits/(Pixel*Frame) : 0.393
Stream size : 1.23 GiB (86%)
Writing library : XviD 1.2.1 (UTC 2008-12-04)
Audio #1
ID : 1
Format : AC-3
Format/Info : Audio Coding 3
Mode extension : CM (complete main)
Format settings, Endianness : Big
Codec ID : 2000
Duration : 1 h 4 min
Bit rate mode : Constant
Bit rate : 448 kb/s
Channel(s) : 6 channels
Channel positions : Front: L C R, Side: L R, LFE
Sampling rate : 48.0 kHz
Frame rate : 31.250 FPS (1536 spf)
Compression mode : Lossy
Stream size : 206 MiB (14%)
Alignment : Aligned on interleaves
Interleave, duration : 42 ms (1.01 video frame)
Interleave, preload duration : 512 ms

[HIDE-THANKS]
Kód:
https://data.hu/get/12308289/D3376av.part1.rar
https://data.hu/get/12308280/D3376av.part2.rar
https://data.hu/get/12308283/D3376av.part3.rar
https://data.hu/get/12308284/D3376av.part4.rar
https://data.hu/get/12308281/D3376av.part5.rar
https://data.hu/get/12308287/D3376av.part6.rar
https://data.hu/get/12308278/D3376av.part7.rar
https://data.hu/get/12308285/D3376av.part8.rar
[/HIDE-THANKS]
vagy free
[HIDE-THANKS]
Kód:
https://data.hu/get/12308282/D3376a.part1.rar
https://data.hu/get/12308279/D3376a.part2.rar
[/HIDE-THANKS]
 

papadi

Állandó Tag
Shakin' Stevens: The DVD Collection

3b4cab00669967aade03e0433b174d66.jpg


Shakin' Stevens: The DVD Collection
202935 9 Sony / BMG / Epic, 2005 (EU)

01 - A Little Boogie Woogie (In The Back Of My Mind)
02 - Come See About Me
03 - What Do You Want To Make Those Eyes At Me For
04 - A Rockin’ Good Way (To Mess Around And Fall In Love) (duett with Bonnie Tyler)
05 - Love Attack
06 - Teardrops
07 - Turning Away
08 - You Drive Me Crazy
09 - Yes I Do
10 - A Letter To You
11 - Oh Julie
12 - Because I Love You
13 - I Might
14 - Breaking Up My Heart
15 - It's Raining
16 - How Many Tears Can You Hide
17 - Jezebel
18 - This Ole House
19 - Lipstick Powder And Paint
20 - Green Door
21 - A Love Worth Waiting For
22 - Radio
23 - My Cutie Cutie
24 - Pink Champagne
25 - Feel The Need In Me
26 - Give Me Your Heart Tonight
27 - It's Late

BONUS:

Music Videos - 3 Classic Christmas Tracks
1 - The Number 1 Single, Merry Christmas Everyone
2 - I'll Be Home For Christmas
3 - The Best Christmas Of Them All

Arena and TV Performances
1 - Marie, Marie - Recorded Live In Hannover, 2004
2 - Trouble - Winning Performance From The Itv1 Show ‘Hit Me Baby One More Time’, 2005

Photo Gallery - with bonus audio track, ‘I Can Help’

Interview

Média információ:

Video:
Kodek: MPEG-1/2 Video (mpgv)
Felbontás: 720x576
Képkockasebesség: 25
Képformátum: 1.33:1 (4:3)

Hang:
Kodek: A52 Audio (aka AC3) (a52)
Csatornák: Sztereó
Mintavételi frekvencia: 48000 Hz
Bitsebesség: 192 kb/mp

Formátum: dvd
Méret: 6,76 GB
Műsoridő: 1:24:08+21:26

(prémium)
[HIDE-THANKS]
Kód:
https://data.hu/get/12319009/D2578d.part1.rar
https://data.hu/get/12319025/D2578d.part2.rar
https://data.hu/get/12319010/D2578d.part3.rar
https://data.hu/get/12319015/D2578d.part4.rar
https://data.hu/get/12319138/D2578d.part5.rar
https://data.hu/get/12319140/D2578d.part6.rar
https://data.hu/get/12319141/D2578d.part7.rar
[/HIDE-THANKS]

d444b2b1dc417df9ed303bde78e59dba.jpg


Formátum: dvdrip/avi
Méret: 1,52 GB
Felbontás: 720x544
Mintavételi frekvencia: 48000 Hz
Bitsebesség: 256 kbps
Műsoridő: 1:24:08+21:29

Részletes média információ:
I:\0001\DVD-2578 - Shakin' Stevens - The DVD Collection\avi\101 - A Little Boogie Woogie (In The Back Of My Mind).avi
General
Complete name : I:\0001\DVD-2578 - Shakin' Stevens - The DVD Collection\avi\101 - A Little Boogie Woogie (In The Back Of My Mind).avi
Format : AVI
Format/Info : Audio Video Interleave
File size : 50.4 MiB
Duration : 3 min
Overall bit rate : 2 059 kb/s
Writing application : VirtualDubMod 1.5.4.1 (build 2178/release)
Writing library : VirtualDubMod build 2178/release
Video #0
ID : 0
Format : MPEG-4 Visual
Format profile : Advanced [email protected]
Format settings, BVOP : 1
Format settings, QPel : No
Format settings, GMC : No warppoints
Format settings, Matrix : Custom
Codec ID : XVID
Codec ID/Hint : XviD
Duration : 3 min
Bit rate : 1 537 kb/s
Width : 720 pixels
Height : 544 pixels
Display aspect ratio : 4:3
Frame rate : 25.000 FPS
Color space : YUV
Chroma subsampling : 4:2:0
Bit depth : 8 bits
Scan type : Progressive
Compression mode : Lossy
Bits/(Pixel*Frame) : 0.157
Stream size : 37.6 MiB (75%)
Writing library : XviD 1.2.1 (UTC 2008-12-04)
Audio #1
ID : 1
Format : MPEG Audio
Format version : Version 1
Format profile : Layer 3
Mode : Joint stereo
Codec ID : 55
Codec ID/Hint : MP3
Duration : 3 min
Bit rate mode : Constant
Bit rate : 256 kb/s
Channel(s) : 2 channels
Sampling rate : 48.0 kHz
Compression mode : Lossy
Stream size : 6.26 MiB (12%)
Alignment : Aligned on interleaves
Interleave, duration : 80 ms (2.00 video frames)
Interleave, preload duration : 504 ms
Writing library : LAME3.98r
Encoding settings : -m j -V 4 -q 2 -lowpass 19.7
Audio #2
ID : 2
Format : MPEG Audio
Format version : Version 1
Format profile : Layer 3
Mode : Joint stereo
Codec ID : 55
Codec ID/Hint : MP3
Duration : 3 min
Bit rate mode : Constant
Bit rate : 256 kb/s
Channel(s) : 2 channels
Sampling rate : 48.0 kHz
Compression mode : Lossy
Stream size : 6.26 MiB (12%)
Alignment : Aligned on interleaves
Interleave, duration : 80 ms (2.00 video frames)
Interleave, preload duration : 504 ms
Writing library : LAME3.98r
Encoding settings : -m j -V 4 -q 2 -lowpass 19.7

free
[HIDE-THANKS]
Kód:
https://data.hu/get/12319022/D2578av.part01.rar
https://data.hu/get/12319021/D2578av.part02.rar
https://data.hu/get/12319013/D2578av.part03.rar
https://data.hu/get/12319006/D2578av.part04.rar
https://data.hu/get/12319005/D2578av.part05.rar
https://data.hu/get/12319003/D2578av.part06.rar
https://data.hu/get/12319023/D2578av.part07.rar
https://data.hu/get/12319024/D2578av.part08.rar
https://data.hu/get/12319017/D2578av.part09.rar
[/HIDE-THANKS]

prémuium
[HIDE-THANKS]
Kód:
https://data.hu/get/12319011/D2578a.part1.rar
https://data.hu/get/12319002/D2578a.part2.rar
[/HIDE-THANKS]
 

papadi

Állandó Tag
Blind Faith: London Hyde Park 1969

c06b487ce54de16ee7672e18086e347f.jpg


Blind Faith: London Hyde Park 1969
SVEF0090 Sanctuary Records, 2005

1. 60s Intro [1:44]
2. Steve Winwood [2:40]
3. Rick Grech [:36]
4. Ginger Baker [:52]
5. Eric Clapton [4:09]
6. Well All Right [2:02]
7. Sea of Joy [5:37]
8. Sleeping in the Ground [4:24]
9. Under My Thumb [5:54]
10. Can't Find My Way Home [6:00]
11. Do What You Like [5:18]
12. In the Presence of the Lord [6:05]
13. Means to an End [4:25]
14. Had to Cry Today [6:56]

Bonus Features (csak a dvd-n)
1a. Spencer Davis Group: I'm a Man
1b. Traffic: Hole in My Shoe
1c. Cream: I'm So Glad
1d. Stills of Blind Faith/Well All Right
2. Selected Discographies
2a. Blind Faith
2b. Ginger Baker
2c. Eric Clapton
2d. Rick Grech
2e. Steve Winwood
3. Blind Faith Geneaology

Média információ:

Video:
Kodek: MPEG-1/2 Video (mpgv)
Felbontás: 720x576
Képkockasebesség: 25
Képformátum: 1.33:1 (4:3)

Hang:
Kodek: A52 Audio (aka AC3) (a52)
Csatornák: Sztereó
Mintavételi frekvencia: 48000 Hz
Bitsebesség: 192 kb/mp

Formátum: dvd
Méret: 4,12 GB
Műsoridő: 57:30 + 13:22

(prémium)
[HIDE-THANKS]
Kód:
https://data.hu/get/12329198/D3130d.part1.rar
https://data.hu/get/12329196/D3130d.part2.rar
https://data.hu/get/12329204/D3130d.part3.rar
https://data.hu/get/12329199/D3130d.part4.rar
https://data.hu/get/12329194/D3130d.part5.rar
[/HIDE-THANKS]


c4dc31360387363835a127ff6c9193c1.jpg


Formátum: dvdrip/avi
Méret: 780 MB
Felbontás: 640x480
Mintavételi frekvencia: 48000 Hz
Bitsebesség: 192 kbps
Műsoridő: 57:31

Részletes média információ:
G:\0\DVD_ISO\3130 - Blind Faith - London Hyde Park 1969\avi\Blind Faith - London Hyde Park 1969.avi
General
Complete name : G:\0\DVD_ISO\3130 - Blind Faith - London Hyde Park 1969\avi\Blind Faith - London Hyde Park 1969.avi
Format : AVI
Format/Info : Audio Video Interleave
File size : 779 MiB
Duration : 57 min 31 s
Overall bit rate : 1 893 kb/s
Writing application : Lavf51.12.1
Video #0
ID : 0
Format : MPEG-4 Visual
Format profile : [email protected]
Format settings, BVOP : No
Format settings, QPel : No
Format settings, GMC : No warppoints
Format settings, Matrix : Default (H.263)
Codec ID : DX50
Codec ID/Hint : DivX 5
Duration : 57 min 31 s
Bit rate : 1 688 kb/s
Width : 640 pixels
Height : 480 pixels
Display aspect ratio : 4:3
Frame rate : 25.000 FPS
Color space : YUV
Chroma subsampling : 4:2:0
Bit depth : 8 bits
Scan type : Progressive
Compression mode : Lossy
Bits/(Pixel*Frame) : 0.220
Stream size : 694 MiB (89%)
Writing library : Lavc51.40.4
Audio #1
ID : 1
Format : MPEG Audio
Format version : Version 1
Format profile : Layer 3
Format settings : Joint stereo
Codec ID : 55
Codec ID/Hint : MP3
Duration : 57 min 31 s
Bit rate mode : Constant
Bit rate : 192 kb/s
Channel(s) : 2 channels
Sampling rate : 48.0 kHz
Compression mode : Lossy
Stream size : 79.0 MiB (10%)
Alignment : Aligned on interleaves
Interleave, duration : 24 ms (0.60 video frame)

free
[HIDE-THANKS]
Kód:
https://data.hu/get/12329203/D3130av.part1.rar
https://data.hu/get/12329197/D3130av.part2.rar
https://data.hu/get/12329201/D3130av.part3.rar
https://data.hu/get/12329195/D3130av.part4.rar
https://data.hu/get/12329202/D3130av.part5.rar
[/HIDE-THANKS]
vagy prémium
[HIDE-THANKS]
Kód:
https://data.hu/get/12329200/D3130a.rar
[/HIDE-THANKS]
 

papadi

Állandó Tag
Simon and Garfunkel: The Concert in Central Park 1981 (2003)

90004ba5ca2d55abbc35722f1c41cf10.jpg


Simon and Garfunkel: The Concert in Central Park
202223 9 Sony / Columbia, 2003 (EU)
Recorded Live in September 19, 1981, Central Park, New York City

01 - Mrs. Robinson (Paul Simon)
02 - Homeward Bound (Paul Simon)
03 - America (Paul Simon)
04 - Me And Julio Down By The Schoolyard (Paul Simon)
05 - Scarborough Fair (Paul Simon - Art Garfunkel)
06 - April Come She Will (Paul Simon)
07 - Wake Up Little Susie (Boudleaux Bryant - Felice Bryant)
08 - Still Crazy After All These Years (Paul Simon)
09 - American Tune (Paul Simon)
10 - Late In The Evening (Paul Simon)
11 - Slip Slidin' Away (Paul Simon)
12 - A Heart in New York (Benny Gallagher - Graham Lyle)
13 - The Late Great Johnny Ace (Paul Simon)
14 - Kodachrome / Maybellene (Paul Simon - Chuck Berry)
15 - Bridge Over Troubled Water (Paul Simon)
16 - 50 Ways To Leave Your Lover (Paul Simon)
17 - The Boxer (Paul Simon)
18 - Old Friends (Paul Simon)
19 - Bookends (Paul Simon)
20 - 59th Street Bridge Song (Feelin' Groovy) (Paul Simon)
21 - The Sound Of Silence (Paul Simon)
22 - Late In The Evening (Paul Simon)

SIMON & GARFUNKEL
Paul Simon - Vocals, Guitar
Art Garfunkel - Vocals
+
David Brown - Guitar
Pete Carr - Guitar
John Gatchell - Trumpet
Steve Gadd - Drums
John Eckert - Trumpet
Anthony Jackson - Bass
Gerry Niewood - Saxophone
Dave Tofani - Saxophone
Richard Tee - Keyboards
Dave Matthews - Orchestrations

Directed by Michael Lindsay-Hogg

Média információ:

Video:
Kodek: MPEG-1/2 Video (mpgv)
Felbontás: 720x576
Képkockasebesség: 25
Képformátum: 1.33:1 (4:3)

Hang:
Kodek: A52 Audio (aka AC3) (a52)
Csatornák: Sztereó
Mintavételi frekvencia: 48000 Hz
Bitek mintánként: 16

Formátum: iso
Méret: 4,13 GB
Műsoridő: 1:26:34

(prémium)
[HIDE-THANKS]
Kód:
https://data.hu/get/12338061/D1970d.part1.rar
https://data.hu/get/12338062/D1970d.part2.rar
https://data.hu/get/12338072/D1970d.part3.rar
https://data.hu/get/12338060/D1970d.part4.rar
https://data.hu/get/12338057/D1970d.part5.rar
[/HIDE-THANKS]

f2b082aead0bd297e2116f9903244471.jpg


Formátum: dvdrip/avi
Méret: 1,69 GB
Felbontás: 720x544
Mintavételi frekvencia: 48000 Hz
Bitsebesség: 181 kbps
Műsoridő: 1:26:34

Részletes média információ:
I:\0001\DVD-1970 - Simon & Garfunkel - The Concert in Central Park\Simon & Garfunkel - The Concert in Central Park.avi
General
Complete name : I:\0001\DVD-1970 - Simon & Garfunkel - The Concert in Central Park\Simon & Garfunkel - The Concert in Central Park.avi
Format : AVI
Format/Info : Audio Video Interleave
File size : 1.69 GiB
Duration : 1 h 26 min
Overall bit rate mode : Variable
Overall bit rate : 2 796 kb/s
Writing application : VirtualDubMod 1.5.4.1 (build 2178/release)
Writing library : VirtualDubMod build 2178/release
Video #0
ID : 0
Format : MPEG-4 Visual
Format profile : Advanced [email protected]
Format settings, BVOP : 1
Format settings, QPel : No
Format settings, GMC : No warppoints
Format settings, Matrix : Custom
Codec ID : XVID
Codec ID/Hint : XviD
Duration : 1 h 26 min
Bit rate : 2 412 kb/s
Width : 720 pixels
Height : 544 pixels
Display aspect ratio : 4:3
Frame rate : 25.000 FPS
Color space : YUV
Chroma subsampling : 4:2:0
Bit depth : 8 bits
Scan type : Progressive
Compression mode : Lossy
Bits/(Pixel*Frame) : 0.246
Stream size : 1.46 GiB (86%)
Writing library : XviD 1.2.1 (UTC 2008-12-04)
Audio #1
ID : 1
Format : MPEG Audio
Format version : Version 1
Format profile : Layer 3
Mode : Joint stereo
Mode extension : MS Stereo
Codec ID : 55
Codec ID/Hint : MP3
Duration : 1 h 26 min
Bit rate mode : Variable
Bit rate : 182 kb/s
Nominal bit rate : 192 kb/s
Channel(s) : 2 channels
Sampling rate : 48.0 kHz
Compression mode : Lossy
Stream size : 112 MiB (6%)
Alignment : Aligned on interleaves
Interleave, duration : 24 ms (0.60 video frame)
Interleave, preload duration : 101 ms
Writing library : LAME3.98r
Encoding settings : -m j -V 4 -q 2 -lowpass 18.6 --abr 192
Audio #2
ID : 2
Format : MPEG Audio
Format version : Version 1
Format profile : Layer 3
Mode : Joint stereo
Mode extension : MS Stereo
Codec ID : 55
Codec ID/Hint : MP3
Duration : 1 h 26 min
Bit rate mode : Variable
Bit rate : 181 kb/s
Nominal bit rate : 192 kb/s
Channel(s) : 2 channels
Sampling rate : 48.0 kHz
Compression mode : Lossy
Stream size : 112 MiB (6%)
Alignment : Aligned on interleaves
Interleave, duration : 24 ms (0.60 video frame)
Interleave, preload duration : 101 ms
Writing library : LAME3.98r
Encoding settings : -m j -V 4 -q 2 -lowpass 18.6 --abr 192

prémium
[HIDE-THANKS]
Kód:
https://data.hu/get/12338059/D1970a.part1.rar
https://data.hu/get/12338064/D1970a.part2.rar
[/HIDE-THANKS]
vagy free
[HIDE-THANKS]
Kód:
https://data.hu/get/12338066/D1970av.part01.rar
https://data.hu/get/12338065/D1970av.part02.rar
https://data.hu/get/12338069/D1970av.part03.rar
https://data.hu/get/12338056/D1970av.part04.rar
https://data.hu/get/12338063/D1970av.part05.rar
https://data.hu/get/12338070/D1970av.part06.rar
https://data.hu/get/12338071/D1970av.part07.rar
https://data.hu/get/12338068/D1970av.part08.rar
https://data.hu/get/12338058/D1970av.part09.rar
https://data.hu/get/12338067/D1970av.part10.rar
[/HIDE-THANKS]
 

papadi

Állandó Tag
John Lennon: A béke dal

b5d7656859de789a402f0914fc4ec6d3.jpg


John Lennon: A béke dal
(John and Yoko's Year of Peace)
Kanadai dokumentumfilm (2000)
Rendezte: Paul McGrath
Hang: magyar
Felirat: nincs

1969 májusában John Lennon a Beatles tagja és felesége Yoko Ono Montrealba érkeztek, felvették pizsamáikat és befeküdtek az ágyba, hogy így támogassák a békét. A Queen Elizabeth hotel 1742-es szobájának ágyában töltött egy hét egyike a már eleve eseménydús évtized legismertebb történeteinek. Képei szimbolikussá váltak. A dal, melyet itt vettek fel, a "Give Peace a Chance", azaz "Adj egy esélyt a békének", az első egyetemes béke himnusszá vált.
John és Yoko: "Adj a békének egy dalt" az ágyban töltött időszakra és a dalra is új szempontok alapján tekint. Bemutatja az elmúlt 25 év leghosszabb interjúját Ms. Onoval, és még két tucat interjút azokkal, akik meglátogatták őket az ágyban töltött időszak alatt, és akik még sosem meséltek élményeikről. Többek közt megszólal Petula Clark énekesnő, Gerry Deiter a Life magazin fényképésze, a quebec-i zenész Allen Radu, és néhány rajongó, akinek sikerült belopózniuk a népszerű párhoz. Pete Seeger is vendégszerepel a filmben és előadja a "Give Peace a Chance"-t.
Az "Adj a békének egy dalt" olyan eddig még sosem látott jeleneteket mutat be az ágyban töltött időszakról, melyek Yoko Ono magán archívumából származnak. A képsorok többsége ritkán volt látható a képernyőn, és néhány képsort csak egyszer, 35 évvel ezelőtt lehetett látni a CBC-n.
(a borítóról)

Média információ:

Video:
Kodek: MPEG-1/2 Video (mpgv)
Felbontás: 720x576
Képkockasebesség: 25
Képformátum: 1.33:1 (4:3)

Hang:
Kodek: MPEG Audio layer 1/2 (mpga)
Csatornák: Sztereó
Mintavételi frekvencia: 48000 Hz
Bitsebesség: 384 kb/mp

Formátum: iso
Méret: 3,18 GB
Műsoridő: 44:08

(prémium)
[HIDE-THANKS]
Kód:
https://data.hu/get/12370327/D1726i2.part1.rar
https://data.hu/get/12370324/D1726i2.part2.rar
https://data.hu/get/12370325/D1726i2.part3.rar
https://data.hu/get/12370326/D1726i2.part4.rar
[/HIDE-THANKS]

7d95e5d797b30a7d7f7ab0174a6578a6.jpg


Formátum: dvdrip/avi
Méret: 599 MB
Felbontás: 720x544
Mintavételi frekvencia: 48000 Hz
Bitsebesség: 178 kbps
Műsoridő: 44:08

Részletes média információ:
C:\Users\user\Videos\John Lennon - A béke dal.avi
General
Complete name : C:\Users\user\Videos\John Lennon - A béke dal.avi
Format : AVI
Format/Info : Audio Video Interleave
File size : 587 MiB
Duration : 44 min
Overall bit rate mode : Variable
Overall bit rate : 1 859 kb/s
Writing application : VirtualDubMod 1.5.4.1 (build 2178/release)
Writing library : VirtualDubMod build 2178/release
Video #0
ID : 0
Format : MPEG-4 Visual
Format profile : Advanced [email protected]
Format settings, BVOP : 1
Format settings, QPel : No
Format settings, GMC : No warppoints
Format settings, Matrix : Custom
Codec ID : XVID
Codec ID/Hint : XviD
Duration : 44 min
Bit rate : 1 669 kb/s
Width : 720 pixels
Height : 544 pixels
Display aspect ratio : 4:3
Frame rate : 25.000 FPS
Color space : YUV
Chroma subsampling : 4:2:0
Bit depth : 8 bits
Scan type : Progressive
Compression mode : Lossy
Bits/(Pixel*Frame) : 0.170
Stream size : 527 MiB (90%)
Writing library : XviD 1.2.1 (UTC 2008-12-04)
Audio #1
ID : 1
Format : MPEG Audio
Format version : Version 1
Format profile : Layer 3
Mode : Joint stereo
Mode extension : MS Stereo
Codec ID : 55
Codec ID/Hint : MP3
Duration : 44 min
Bit rate mode : Variable
Bit rate : 178 kb/s
Nominal bit rate : 192 kb/s
Channel(s) : 2 channels
Sampling rate : 48.0 kHz
Compression mode : Lossy
Stream size : 56.1 MiB (10%)
Alignment : Aligned on interleaves
Interleave, duration : 24 ms (0.60 video frame)
Interleave, preload duration : 103 ms
Writing library : LAME3.98r
Encoding settings : -m j -V 4 -q 2 -lowpass 18.6 --abr 192

prémium
[HIDE-THANKS]
Kód:
https://data.hu/get/12370321/D1726a2.rar
[/HIDE-THANKS]
vagy free
[HIDE-THANKS]
Kód:
https://data.hu/get/12370323/D1726av2.part1.rar
https://data.hu/get/12370328/D1726av2.part2.rar
https://data.hu/get/12370322/D1726av2.part3.rar
https://data.hu/get/12370320/D1726av2.part4.rar
[/HIDE-THANKS]

Beletörlés miatt újratöltve.
 
Oldal tetejére