Magyar filmek III itt nincs kérés

papadi

Állandó Tag
Állandó Tag


A hölgy egy kissé bogaras
Fekete-fehér magyar film (1938)
Főszereplők: Tolnay Klári, Ráday (Rádai) Imre, Mály Gerő, Gózon Gyula
Rendezte: Ráthonyi Ákos
Régi magyar filmek 5. és Multimix

Ajánló a borítóról:
Bimbi, azaz Takács Klára munkanélküli. Albérletben lakik, és fogalma sincs arról, miből fog élni, miből fogja a számláit kifizetni. De szerencséjére az előző albérlő, akinek volt egy ajánlólevele a Tormássy művek igazgatójához, időközben bolondokházába került. Így aztán a "felhasználatlan" ajánlólevéllel jelentkezhet munkára. Mivel a levélben az áll, hogy a "hölgy egy kissé bogaras" állást nem kap, de elszegődhet a vezérigazgató fiához gépírókisasszonynak...

Média információ:
Video:
Kodek: MPEG-1/2 Video (mpgv)
Felbontás: 720x576
Képkockasebesség: 25
Hang:
Kodek: A52 Audio (aka AC3) (a52)
Csatornák: Sztereó
Mintavételi frekvencia: 48000 Hz
Bitsebesség: 192 kb/mp

Formátum: iso
Méret: 2,55 GB
Műsoridő: 1:16:13
(prémium)
[HIDE-THANKS]
Kód:
https://data.hu/get/11417778/D2219i.part1.rar
https://data.hu/get/11417780/D2219i.part2.rar
https://data.hu/get/11417773/D2219i.part3.rar
[/HIDE-THANKS]



Formátum: dvdrip/avi
Méret: 760 MB
Felbontás: 720x512
Mintavételi frekvencia: 48000 Hz
Bitsebesség: 128 kbps
Műsoridő: 1:16:13

Részletes média információ:
I:\0000\A hlgy egy kiss bogaras\A hölgy egy kissé bogaras\A hölgy egy kissé bogaras.avi
General
Complete name : I:\0000\A hlgy egy kiss bogaras\A hölgy egy kissé bogaras\A hölgy egy kissé bogaras.avi
Format : AVI
Format/Info : Audio Video Interleave
File size : 760 MiB
Duration : 1 h 16 min
Overall bit rate : 1 395 kb/s
Writing application : VirtualDubMod 1.5.4.1 (build 2178/release)
Writing library : VirtualDubMod build 2178/release
Video #0
ID : 0
Format : MPEG-4 Visual
Format profile : Advanced [email protected]
Format settings, BVOP : 1
Format settings, QPel : No
Format settings, GMC : No warppoints
Format settings, Matrix : Custom
Codec ID : XVID
Codec ID/Hint : XviD
Duration : 1 h 16 min
Bit rate : 1 260 kb/s
Width : 720 pixels
Height : 512 pixels
Display aspect ratio : 1.406
Frame rate : 25.000 FPS
Color space : YUV
Chroma subsampling : 4:2:0
Bit depth : 8 bits
Scan type : Progressive
Compression mode : Lossy
Bits/(Pixel*Frame) : 0.137
Stream size : 687 MiB (90%)
Writing library : XviD 1.2.1 (UTC 2008-12-04)
Audio #1
ID : 1
Format : MPEG Audio
Format version : Version 1
Format profile : Layer 3
Mode : Joint stereo
Mode extension : MS Stereo
Codec ID : 55
Codec ID/Hint : MP3
Duration : 1 h 16 min
Bit rate mode : Constant
Bit rate : 128 kb/s
Channel(s) : 2 channels
Sampling rate : 48.0 kHz
Compression mode : Lossy
Stream size : 69.8 MiB (9%)
Alignment : Aligned on interleaves
Interleave, duration : 80 ms (2.00 video frames)
Interleave, preload duration : 504 ms
Writing library : LAME3.98r
Encoding settings : -m j -V 4 -q 2 -lowpass 17 -b 128

[HIDE-THANKS]
Kód:
http://data.hu/get/7145607/A_hlgy_egy_kiss_bogaras.rar
[/HIDE-THANKS]
vagy free
[HIDE-THANKS]
Kód:
http://data.hu/get/7145597/A_hlgy_egy_kiss_bogaras.part1.rar
http://data.hu/get/7145599/A_hlgy_egy_kiss_bogaras.part2.rar
http://data.hu/get/7145600/A_hlgy_egy_kiss_bogaras.part3.rar
http://data.hu/get/7145601/A_hlgy_egy_kiss_bogaras.part4.rar
http://data.hu/get/7145602/A_hlgy_egy_kiss_bogaras.part5.rar
http://data.hu/get/7145603/A_hlgy_egy_kiss_bogaras.part6.rar
http://data.hu/get/7145604/A_hlgy_egy_kiss_bogaras.part7.rar
http://data.hu/get/7145605/A_hlgy_egy_kiss_bogaras.part8.rar
[/HIDE-THANKS]
 

papadi

Állandó Tag
Állandó Tag


Sziámi macska
Fekete-fehér magyar film (1943)
Főszereplők: Szeleczky Zita, Hajmássy Miklós, Bilicsi Tivadar, Erdélyi Mici, Makláry Zoltán, Simon Marcsa, Abonyi Géza, Pethes Sándor
Rendezte: Kalmár László

Ajánló a borítóról:
Takács Manci (Szeleczky Zita), a híres Ázsia- kutató professzor házmesterének lánya, sziámi dizőzként lép fel egy mulatóban. Itt szeret bele Pali (Hajmássy Miklós), aki feleségül szeretné venni, de ezt a tervet barátja, Laci (Bilicsi Tivadar) szeretné megakadályozni. Munkálkodása közben ő is beleszeret Manciba. Ekkor tér haza távol-keleti útjáról a professzor...
Régi magyar filmek 15. és 50., Multimix VCD

Média információ:

Video:
Kodek: MPEG-1/2 Video (mpgv)
Felbontás: 720x576
Képkockasebesség: 25

Hang:
Kodek: A52 Audio (aka AC3) (a52)
Csatornák: Sztereó
Mintavételi frekvencia: 48000 Hz
Bitsebesség: 192 kb/mp

Formátum: iso
Méret: 4,36 GB
Műsoridő: 1:27:18

(prémium)
[HIDE-THANKS]
Kód:
https://data.hu/get/11424035/D2220i.part1.rar
https://data.hu/get/11424026/D2220i.part2.rar
https://data.hu/get/11424033/D2220i.part3.rar
https://data.hu/get/11424031/D2220i.part4.rar
https://data.hu/get/11424029/D2220i.part5.rar
[/HIDE-THANKS]



Formátum: dvdrip/avi
Méret: 873 MB
Felbontás: 720x544
Mintavételi frekvencia: 48000 Hz
Bitsebesség: 128 kbps
Műsoridő: 1:27:18

Részletes média információ:
I:\0000\RMF15 - Szimi macska\RMF15 - Sziámi macska\Sziámi macska.avi
General
Complete name : I:\0000\RMF15 - Szimi macska\RMF15 - Sziámi macska\Sziámi macska.avi
Format : AVI
Format/Info : Audio Video Interleave
File size : 872 MiB
Duration : 1 h 27 min
Overall bit rate : 1 396 kb/s
Writing application : VirtualDubMod 1.5.4.1 (build 2178/release)
Writing library : VirtualDubMod build 2178/release
Video #0
ID : 0
Format : MPEG-4 Visual
Format profile : Advanced [email protected]
Format settings, BVOP : 1
Format settings, QPel : No
Format settings, GMC : No warppoints
Format settings, Matrix : Custom
Codec ID : XVID
Codec ID/Hint : XviD
Duration : 1 h 27 min
Bit rate : 1 261 kb/s
Width : 720 pixels
Height : 544 pixels
Display aspect ratio : 4:3
Frame rate : 25.000 FPS
Color space : YUV
Chroma subsampling : 4:2:0
Bit depth : 8 bits
Scan type : Progressive
Compression mode : Lossy
Bits/(Pixel*Frame) : 0.129
Stream size : 787 MiB (90%)
Writing library : XviD 1.2.1 (UTC 2008-12-04)
Audio #1
ID : 1
Format : MPEG Audio
Format version : Version 1
Format profile : Layer 3
Mode : Joint stereo
Mode extension : MS Stereo
Codec ID : 55
Codec ID/Hint : MP3
Duration : 1 h 27 min
Bit rate mode : Constant
Bit rate : 128 kb/s
Channel(s) : 2 channels
Sampling rate : 48.0 kHz
Compression mode : Lossy
Stream size : 79.9 MiB (9%)
Alignment : Aligned on interleaves
Interleave, duration : 80 ms (2.00 video frames)
Interleave, preload duration : 504 ms
Writing library : LAME3.98r
Encoding settings : -m j -V 4 -q 2 -lowpass 17 -b 128
[HIDE-THANKS]
Kód:
http://data.hu/get/7151279/RMF15_-_Szimi_macska.rar
[/HIDE-THANKS]
vagy free
[HIDE-THANKS]
Kód:
https://data.hu/get/11424036/D2220av.part1.rar
https://data.hu/get/11424030/D2220av.part2.rar
https://data.hu/get/11424027/D2220av.part3.rar
https://data.hu/get/11424028/D2220av.part4.rar
https://data.hu/get/11424025/D2220av.part5.rar
[/HIDE-THANKS]
 

papadi

Állandó Tag
Állandó Tag


Áll a bál
Fekete-fehér magyar film (1939)
Főszereplők: Szeleczky Zita, Simor Erzsébet, Gobby Hilda, Ladomerszky Margit, Gyöngyössy Erzsébet, Sitkey Irén, Tapolczay Erzsébet, Hernádi Gizi, Horváth Magda, Tolnay Magda, Csortos Gyula, Pataky Jenő, Toronyi Imre, Bilicsi Tivadar, Köpeczi Boócz Lajos, Mihályffy Béla, Szakáts Zoltán, Dénes György, Földényi László, Thuri Elemér, Veszely Pál, Gonda György, Kőváry Gyula, Harasztos Gusztáv, Bihari Nándor
Rendezte: Bánky Viktor
Régi magyar filmek 16. és 50.

Ajánló a borítóról:
Erzsébet hercegnő (Szeleczky Zita) rangon aluli szerelmét Balogh Andrással a főherceg nagyapa meg akarja akadályozni. Erzsébetet Svájcba, Balogh Andrást pedig Varsóba küldi követségi titkárnak. Ám Erzsébet nem bírja ki, így elindul szerelme után Varsóba...

Média információ:

Video:
Kodek: MPEG-1/2 Video (mpgv)
Felbontás: 720x576
Képkockasebesség: 25

Hang:
Kodek: A52 Audio (aka AC3) (a52)
Csatornák: Sztereó
Mintavételi frekvencia: 48000 Hz
Bitsebesség: 128 kb/mp

Formátum: iso
Méret: 4,37 GB
Műsoridő: 1:37:29

(prémium)
[HIDE-THANKS]
Kód:
https://data.hu/get/11424208/D2221i.part1.rar
https://data.hu/get/11424203/D2221i.part2.rar
https://data.hu/get/11424206/D2221i.part3.rar
https://data.hu/get/11424201/D2221i.part4.rar
[/HIDE-THANKS]




Formátum: dvdrip/avi
Méret: 976 MB
Felbontás: 720x544
Mintavételi frekvencia: 48000 Hz
Bitsebesség: 128 kbps
Műsoridő: 1:36:00

Részletes média információ:
I:\0000\RMF16 - ll a bl\RMF16 - Áll a bál\Áll a bál.avi
General
Complete name : I:\0000\RMF16 - ll a bl\RMF16 - Áll a bál\Áll a bál.avi
Format : AVI
Format/Info : Audio Video Interleave
File size : 974 MiB
Duration : 1 h 36 min
Overall bit rate : 1 419 kb/s
Video #0
ID : 0
Format : MPEG-4 Visual
Format profile : Advanced [email protected]
Format settings, BVOP : 1
Format settings, QPel : No
Format settings, GMC : No warppoints
Format settings, Matrix : Custom
Codec ID : XVID
Codec ID/Hint : XviD
Duration : 1 h 36 min
Bit rate : 1 273 kb/s
Width : 720 pixels
Height : 544 pixels
Display aspect ratio : 4:3
Frame rate : 25.000 FPS
Color space : YUV
Chroma subsampling : 4:2:0
Bit depth : 8 bits
Scan type : Progressive
Compression mode : Lossy
Bits/(Pixel*Frame) : 0.130
Stream size : 874 MiB (90%)
Writing library : XviD 1.2.1 (UTC 2008-12-04)
Audio #1
ID : 1
Format : MPEG Audio
Format version : Version 1
Format profile : Layer 3
Mode : Joint stereo
Mode extension : MS Stereo
Codec ID : 55
Codec ID/Hint : MP3
Duration : 1 h 36 min
Bit rate mode : Constant
Bit rate : 128 kb/s
Channel(s) : 2 channels
Sampling rate : 48.0 kHz
Compression mode : Lossy
Stream size : 87.9 MiB (9%)
Alignment : Aligned on interleaves
Interleave, duration : 24 ms (0.60 video frame)
Writing library : LAME3.98r
Encoding settings : -m j -V 4 -q 2 -lowpass 17 -b 128
[HIDE-THANKS]
Kód:
http://data.hu/get/7140903/RMF16_-_ll_a_bl.rar
[/HIDE-THANKS]
vagy free
[HIDE-THANKS]
Kód:
https://data.hu/get/11424204/D2221av.part1.rar
https://data.hu/get/11424205/D2221av.part2.rar
https://data.hu/get/11424209/D2221av.part3.rar
https://data.hu/get/11424210/D2221av.part4.rar
https://data.hu/get/11424200/D2221av.part5.rar
https://data.hu/get/11424202/D2221av.part6.rar
[/HIDE-THANKS]
 

papadi

Állandó Tag
Állandó Tag


Karosszék
Fekete-fehér magyar film (1939)
Főszereplők: Rajnay Gábor, Szeleczky Zita, Szilassy László, Latabár Kálmán, Pataky Miklós
Rendezte: Balogh Béla, Nádasdy Kálmán
Régi magyar filmek 17. és 50. Multimix VCD

Orosz András építészmérnök árverésen licitál egy öreg stílbútorra, egy karosszékre. Végül 500 pengőért egy csinos nő, Klári viszi el az orra elől. Barátja és üzlettársa, Anday Péter építőmester segítségével András hajszát indít a szék, azaz a hölgy után. Föl is lelik a kivénhedt alkalmatosságot az asszony férjénél, Bihari ügyvédnél, aki örömmel sózza rá a drága holmit Oroszra, de a nő nem enged, még házassága fölbomlását is vállalja, csak hogy az övé maradjon a szék. Visszaköltözik apjához, a nyugállományú ezredeshez. Itt aztán Orosz András nemcsak lakás-átalakítást végez, hanem be is épül a családba.

Média információ:

Video:
Kodek: MPEG-1/2 Video (mpgv)
Felbontás: 720x576
Képkockasebesség: 25

Hang:
Kodek: A52 Audio (aka AC3) (a52)
Csatornák: Sztereó
Mintavételi frekvencia: 48000 Hz
Bitsebesség: 128 kb/mp

Formátum: iso
Méret: 4,37 GB
Műsoridő: 1:29:26

(prémium)
[HIDE-THANKS]
Kód:
https://data.hu/get/11424566/D2222i.part1.rar
https://data.hu/get/11424570/D2222i.part2.rar
https://data.hu/get/11424558/D2222i.part3.rar
https://data.hu/get/11424551/D2222i.part4.rar
https://data.hu/get/11424555/D2222i.part5.rar
[/HIDE-THANKS]



Formátum: dvdrip/avi
Méret: 795 MB
Felbontás: 720x544
Mintavételi frekvencia: 48000 Hz
Bitsebesség: 128 kbps
Műsoridő: 1:29:26

Részletes média információ:
I:\0000\RMF17 - Karosszk\RMF17 - Karosszék\Karosszék.avi
General
Complete name : I:\0000\RMF17 - Karosszk\RMF17 - Karosszék\Karosszék.avi
Format : AVI
Format/Info : Audio Video Interleave
File size : 793 MiB
Duration : 1 h 19 min
Overall bit rate : 1 397 kb/s
Writing application : VirtualDubMod 1.5.4.1 (build 2178/release)
Writing library : VirtualDubMod build 2178/release
Video #0
ID : 0
Format : MPEG-4 Visual
Format profile : Advanced [email protected]
Format settings, BVOP : 1
Format settings, QPel : No
Format settings, GMC : No warppoints
Format settings, Matrix : Custom
Codec ID : XVID
Codec ID/Hint : XviD
Duration : 1 h 19 min
Bit rate : 1 261 kb/s
Width : 720 pixels
Height : 544 pixels
Display aspect ratio : 4:3
Frame rate : 25.000 FPS
Color space : YUV
Chroma subsampling : 4:2:0
Bit depth : 8 bits
Scan type : Progressive
Compression mode : Lossy
Bits/(Pixel*Frame) : 0.129
Stream size : 717 MiB (90%)
Writing library : XviD 1.2.1 (UTC 2008-12-04)
Audio #1
ID : 1
Format : MPEG Audio
Format version : Version 1
Format profile : Layer 3
Mode : Joint stereo
Mode extension : MS Stereo
Codec ID : 55
Codec ID/Hint : MP3
Duration : 1 h 19 min
Bit rate mode : Constant
Bit rate : 128 kb/s
Channel(s) : 2 channels
Sampling rate : 48.0 kHz
Compression mode : Lossy
Stream size : 72.7 MiB (9%)
Alignment : Aligned on interleaves
Interleave, duration : 80 ms (2.00 video frames)
Interleave, preload duration : 504 ms
Writing library : LAME3.98r
Encoding settings : -m j -V 4 -q 2 -lowpass 17 -b 128

[HIDE-THANKS]
Kód:
http://data.hu/get/7146306/RMF17_-_Karosszk.rar
[/HIDE-THANKS]
vagy free
[HIDE-THANKS]
Kód:
http://data.hu/get/7146298/RMF17_-_Karosszk.part01.rar
http://data.hu/get/7146299/RMF17_-_Karosszk.part02.rar
http://data.hu/get/7146300/RMF17_-_Karosszk.part03.rar
http://data.hu/get/7146301/RMF17_-_Karosszk.part04.rar
http://data.hu/get/7146302/RMF17_-_Karosszk.part05.rar
http://data.hu/get/7146303/RMF17_-_Karosszk.part06.rar
http://data.hu/get/7146304/RMF17_-_Karosszk.part07.rar
http://data.hu/get/7146305/RMF17_-_Karosszk.part08.rar
[/HIDE-THANKS]
 

papadi

Állandó Tag
Állandó Tag


Rózsafabot
Fekete-fehér magyar film (1940)
Főszereplők: Szeleczky Zita, Zímár József, Rózsahegyi Kálmán, Berky Lili, Gózon Gyula, Dajbukát Ilona, Juhász József, Simon Marcs, Mihályfi Béla, Cserba Erzsi, Pethes Ferenc
Rendezte: Balogh Béla
Régi magyar filmek 36. és 50.

Ajánló a borítóról:
Sipos Katalinba a szép vak lányba ketten is szerelmesek. Egyikük Viktor, ártatlanul ült börtönben, és nehezen illeszkedik be a szabad életbe. Szabadulása után ismerkedik meg Katalinnal vidéki rokonainál. A másik, a dologtalan, anyján élősködő Józsi a falu rossza. Józsi kirabolja Berek fűszerest, és persze Viktort vádolják meg. Katalin rózsafabotja segítségével leleplezi az igazi bűnöst. Katalint megoperálják, visszanyeri látását, és boldogan öleli magához Viktort.

Média információ:

Video:
Kodek: MPEG-1/2 Video (mpgv)
Felbontás: 720x576
Képkockasebesség: 25

Hang:
Kodek: A52 Audio (aka AC3) (a52)
Csatornák: Sztereó
Mintavételi frekvencia: 48000 Hz
Bitsebesség: 192 kb/mp

Formátum: iso
Méret: 3,77 GB
Műsoridő: 1:13:07

(prémium)
[HIDE-THANKS]
Kód:
https://data.hu/get/11424565/D2223i.part1.rar
https://data.hu/get/11424567/D2223i.part2.rar
https://data.hu/get/11424563/D2223i.part3.rar
https://data.hu/get/11424553/D2223i.part4.rar
[/HIDE-THANKS]



Formátum: dvdrip/avi
Méret: 731 MB
Felbontás: 720x544
Mintavételi frekvencia: 48000 Hz
Bitsebesség: 128 kbps
Műsoridő: 1:13:07

Részletes média információ:
I:\0000\RMF36 - Rzsafabot\RMF36 - Rózsafabot\Rózsafabot.avi
General
Complete name : I:\0000\RMF36 - Rzsafabot\RMF36 - Rózsafabot\Rózsafabot.avi
Format : AVI
Format/Info : Audio Video Interleave
File size : 729 MiB
Duration : 1 h 13 min
Overall bit rate : 1 394 kb/s
Writing application : VirtualDubMod 1.5.4.1 (build 2178/release)
Writing library : VirtualDubMod build 2178/release
Video #0
ID : 0
Format : MPEG-4 Visual
Format profile : Advanced [email protected]
Format settings, BVOP : 1
Format settings, QPel : No
Format settings, GMC : No warppoints
Format settings, Matrix : Custom
Codec ID : XVID
Codec ID/Hint : XviD
Duration : 1 h 13 min
Bit rate : 1 259 kb/s
Width : 720 pixels
Height : 544 pixels
Display aspect ratio : 4:3
Frame rate : 25.000 FPS
Color space : YUV
Chroma subsampling : 4:2:0
Bit depth : 8 bits
Scan type : Progressive
Compression mode : Lossy
Bits/(Pixel*Frame) : 0.129
Stream size : 659 MiB (90%)
Writing library : XviD 1.2.1 (UTC 2008-12-04)
Audio #1
ID : 1
Format : MPEG Audio
Format version : Version 1
Format profile : Layer 3
Mode : Joint stereo
Mode extension : MS Stereo
Codec ID : 55
Codec ID/Hint : MP3
Duration : 1 h 13 min
Bit rate mode : Constant
Bit rate : 128 kb/s
Channel(s) : 2 channels
Sampling rate : 48.0 kHz
Compression mode : Lossy
Stream size : 66.9 MiB (9%)
Alignment : Aligned on interleaves
Interleave, duration : 80 ms (2.00 video frames)
Interleave, preload duration : 504 ms
Writing library : LAME3.98r
Encoding settings : -m j -V 4 -q 2 -lowpass 17 -b 128
[HIDE-THANKS]
Kód:
http://data.hu/get/7150712/RMF36_-_Rzsafabot.rar
[/HIDE-THANKS]
vagy free
[HIDE-THANKS]
Kód:
https://data.hu/get/11424560/D2223av.part1.rar
https://data.hu/get/11424550/D2223av.part2.rar
https://data.hu/get/11424554/D2223av.part3.rar
https://data.hu/get/11424547/D2223av.part4.rar
[/HIDE-THANKS]
 

papadi

Állandó Tag
Állandó Tag


Egy csók és más semmi
Fekete-fehér magyar film (1940)
Főszereplők: Jávor Pál, Tolnay Klári, Rajnay Gábor, Peéry Piri, Pataky Jenő, Ölvedy Zsóka, Sárossy Andor
Rendezte: Ráthonyi Ákos
Régi magyar filmek 21., Multimix

Ajánló a borítóról:
Albert Sándor ügyvédnek (Jávor Pál) megtetszik Annie (Tolnay Klári), aki éppen válófélben van. Az asszony a válás miatt úgy érzi, hogy nem kellene új kapcsolatba kezdenie, pláne, hogy a férjének Sándor az ügyvédje.

Média információ:

Video:
Kodek: MPEG-1/2 Video (mpgv)
Felbontás: 720x576
Képkockasebesség: 25

Hang:
Kodek: A52 Audio (aka AC3) (a52)
Csatornák: Sztereó
Mintavételi frekvencia: 48000 Hz

Bitsebesség: 192 kb/mp
Formátum: iso
Méret: 2,31 GB
Műsoridő: 1:08:16
(prémium)
[HIDE-THANKS]
Kód:
https://data.hu/get/11428739/D2224i.part1.rar
https://data.hu/get/11428740/D2224i.part2.rar
https://data.hu/get/11428741/D2224i.part3.rar
[/HIDE-THANKS]



Formátum: dvdrip/avi
Méret: 683 MB
Felbontás: 720x544
Mintavételi frekvencia: 48000 Hz
Bitsebesség: 128 kbps
Műsoridő: 1:08:16

Részletes média információ:
I:\0000\Egy csk s ms semmi\Egy csók és más semmi\Egy csók és más semmi.avi
General
Complete name : I:\0000\Egy csk s ms semmi\Egy csók és más semmi\Egy csók és más semmi.avi
Format : AVI
Format/Info : Audio Video Interleave
File size : 683 MiB
Duration : 1 h 8 min
Overall bit rate : 1 398 kb/s
Writing application : VirtualDubMod 1.5.4.1 (build 2178/release)
Writing library : VirtualDubMod build 2178/release
Video #0
ID : 0
Format : MPEG-4 Visual
Format profile : Advanced [email protected]
Format settings, BVOP : 1
Format settings, QPel : No
Format settings, GMC : No warppoints
Format settings, Matrix : Custom
Codec ID : XVID
Codec ID/Hint : XviD
Duration : 1 h 8 min
Bit rate : 1 263 kb/s
Width : 720 pixels
Height : 544 pixels
Display aspect ratio : 4:3
Frame rate : 25.000 FPS
Color space : YUV
Chroma subsampling : 4:2:0
Bit depth : 8 bits
Scan type : Progressive
Compression mode : Lossy
Bits/(Pixel*Frame) : 0.129
Stream size : 617 MiB (90%)
Writing library : XviD 1.2.1 (UTC 2008-12-04)
Audio #1
ID : 1
Format : MPEG Audio
Format version : Version 1
Format profile : Layer 3
Mode : Joint stereo
Mode extension : MS Stereo
Codec ID : 55
Codec ID/Hint : MP3
Duration : 1 h 8 min
Bit rate mode : Constant
Bit rate : 128 kb/s
Channel(s) : 2 channels
Sampling rate : 48.0 kHz
Compression mode : Lossy
Stream size : 62.5 MiB (9%)
Alignment : Aligned on interleaves
Interleave, duration : 80 ms (2.00 video frames)
Interleave, preload duration : 504 ms
Writing library : LAME3.98r
Encoding settings : -m j -V 4 -q 2 -lowpass 17 -b 128
[HIDE-THANKS]
Kód:
http://data.hu/get/7143436/Egy_csk_s_ms_semmi.rar
[/HIDE-THANKS]
vagy free
[HIDE-THANKS]
Kód:
http://data.hu/get/7143429/Egy_csk_s_ms_semmi.part1.rar
http://data.hu/get/7143430/Egy_csk_s_ms_semmi.part2.rar
http://data.hu/get/7143431/Egy_csk_s_ms_semmi.part3.rar
http://data.hu/get/7143432/Egy_csk_s_ms_semmi.part4.rar
http://data.hu/get/7143433/Egy_csk_s_ms_semmi.part5.rar
http://data.hu/get/7143434/Egy_csk_s_ms_semmi.part6.rar
http://data.hu/get/7143435/Egy_csk_s_ms_semmi.part7.rar
[/HIDE-THANKS]
 

papadi

Állandó Tag
Állandó Tag


A férfi mind őrült
Fekete-fehér magyar film (1937)
Főszereplők: Lázár Mária, Jávor Pál, Vaszary Piri, Pethes Sándor, Páger Antal, Dénes György, Mály Gerő, Dajbukát Ilona, Justh Gyula, Peti Sándor, Köpeczi-Boócz Lajos
Rendezte: Gertler Viktor
Régi magyar filmek 40., Multimix

Ajánló a boritóról:
Sóváry tehetséges festőművész, de még a szállodai szobáját sem tudja kifizetni. Különböző ravaszkodásokkal próbálja hitelképességének látszatát fenntartani és ebben barátai segítik. Megérkezik a szállodába Elena, a gazdag, magyar származású művésznő a komornájával. A véletlen folytán szobaszomszédok lesznek Sóváryval, amiből veszekedések támadnak. A festő és a művésznő végül összemelegednek, de a férfi titkolja szegénységét.

Média információ:

Video:
Kodek: MPEG-1/2 Video (mpgv)
Felbontás: 720x576
Képkockasebesség: 25

Hang:
Kodek: A52 Audio (aka AC3) (a52)
Csatornák: Sztereó
Mintavételi frekvencia: 48000 Hz
Bitsebesség: 192 kb/mp

Formátum: iso
Méret: 3,96 GB
Műsoridő: 1:22:52
(prémium)
[HIDE-THANKS]
Kód:
https://data.hu/get/11429262/D2225i.part1.rar
https://data.hu/get/11429259/D2225i.part2.rar
https://data.hu/get/11429258/D2225i.part3.rar
https://data.hu/get/11429260/D2225i.part4.rar
https://data.hu/get/11429261/D2225i.part5.rar
[/HIDE-THANKS]



Formátum: dvdrip/avi
Méret: 828 MB
Felbontás: 720x512
Mintavételi frekvencia: 48000 Hz
Bitsebesség: 128 kbps
Műsoridő: 1:22:52

Részletes média információ:
I:\0000\A frfi mind rlt\A férfi mind örült\A férfi mind örült.avi
General
Complete name : I:\0000\A frfi mind rlt\A férfi mind örült\A férfi mind örült.avi
Format : AVI
Format/Info : Audio Video Interleave
File size : 826 MiB
Duration : 1 h 22 min
Overall bit rate : 1 394 kb/s
Writing application : VirtualDubMod 1.5.4.1 (build 2178/release)
Writing library : VirtualDubMod build 2178/release
Video #0
ID : 0
Format : MPEG-4 Visual
Format profile : Advanced [email protected]
Format settings, BVOP : 1
Format settings, QPel : No
Format settings, GMC : No warppoints
Format settings, Matrix : Custom
Codec ID : XVID
Codec ID/Hint : XviD
Duration : 1 h 22 min
Bit rate : 1 259 kb/s
Width : 720 pixels
Height : 512 pixels
Display aspect ratio : 1.406
Frame rate : 25.000 FPS
Color space : YUV
Chroma subsampling : 4:2:0
Bit depth : 8 bits
Scan type : Progressive
Compression mode : Lossy
Bits/(Pixel*Frame) : 0.137
Stream size : 746 MiB (90%)
Writing library : XviD 1.2.1 (UTC 2008-12-04)
Audio #1
ID : 1
Format : MPEG Audio
Format version : Version 1
Format profile : Layer 3
Mode : Joint stereo
Mode extension : MS Stereo
Codec ID : 55
Codec ID/Hint : MP3
Duration : 1 h 22 min
Bit rate mode : Constant
Bit rate : 128 kb/s
Channel(s) : 2 channels
Sampling rate : 48.0 kHz
Compression mode : Lossy
Stream size : 75.9 MiB (9%)
Alignment : Aligned on interleaves
Interleave, duration : 80 ms (2.00 video frames)
Interleave, preload duration : 504 ms
Writing library : LAME3.98r
Encoding settings : -m j -V 4 -q 2 -lowpass 17 -b 128
[HIDE-THANKS]
Kód:
http://data.hu/get/7144802/A_frfi_mind_rlt.rar
[/HIDE-THANKS]
vagy free
[HIDE-THANKS]
Kód:
http://data.hu/get/7144792/A_frfi_mind_rlt.part01.rar
http://data.hu/get/7144793/A_frfi_mind_rlt.part02.rar
http://data.hu/get/7144794/A_frfi_mind_rlt.part03.rar
http://data.hu/get/7144795/A_frfi_mind_rlt.part04.rar
http://data.hu/get/7144796/A_frfi_mind_rlt.part05.rar
http://data.hu/get/7144798/A_frfi_mind_rlt.part06.rar
http://data.hu/get/7144799/A_frfi_mind_rlt.part07.rar
http://data.hu/get/7144800/A_frfi_mind_rlt.part08.rar
http://data.hu/get/7144801/A_frfi_mind_rlt.part09.rar
[/HIDE-THANKS]
 

papadi

Állandó Tag
Állandó Tag


Ópiumkeringő
Fekete-fehér magyar film (1942)
Főszereplők: Karády Katalin, Jávor Pál, Petrovics Iván, Greguss Zoltán, Pálóczy László, Baksa Soós László
Rendezte: Balogh Béla
Régi magyar filmek 6.

Ajánló a borítóról:
Öt férfi, öt gyerekkori jó barát gyűlik össze egy vidéki kastélyba, hogy megemlékezzenek fiatalságukról és szembenézzenek életükkel. A nagy fogadkozásokat és jókedélyű baráti társaságot az egyik éjjel azonban megzavarja valaki. Ollai Éva (Karády Katalin) énekesnő, a külföldön is ünnepelt díva a fenyegető árvíz elől menekül a kastélyba sofőrjével együtt. Rövid időn belül az érzéki nő mind az öt jó barát érdeklődését felkelti, és bár későn veszik észre, egymás vetélytársaivá válnak. A sokak által bírált híres kritikus, Borovszky Iván (Jávor Pál) közeledik legfurcsábban a művésznőhöz. Vajon melyik férfi nyeri el Éva szerelmét és fény derül-e a nő valódi szándékaira? És ami a legfontosabb: a kibontakozó szerelem miatt a férfiak barátsága örökre megszakad?

Média információ:

Video:
Kodek: MPEG-1/2 Video (mpgv)
Felbontás: 720x576
Képkockasebesség: 25

Hang:
Kodek: A52 Audio (aka AC3) (a52)
Csatornák: Sztereó
Mintavételi frekvencia: 48000 Hz

Bitsebesség: 192 kb/mp
Formátum: iso
Méret: 4,04 GB
Műsoridő: 1:18:39
(prémium)
[HIDE-THANKS]
Kód:
https://data.hu/get/11433593/D2226i.part1.rar
https://data.hu/get/11433581/D2226i.part2.rar
https://data.hu/get/11433586/D2226i.part3.rar
https://data.hu/get/11433589/D2226i.part4.rar
https://data.hu/get/11433582/D2226i.part5.rar
[/HIDE-THANKS]



Formátum: dvdrip/avi
Méret: 787 MB
Felbontás: 720x544
Mintavételi frekvencia: 48000 Hz
Bitsebesség: 128 kbps
Műsoridő: 1:18:39
Részletes média információ:
I:\0000\RMF06 - Ópiumkeringö\Ópiumkeringö.avi
General
Complete name : I:\0000\RMF06 - Ópiumkeringö\Ópiumkeringö.avi
Format : AVI
Format/Info : Audio Video Interleave
File size : 786 MiB
Duration : 1 h 18 min
Overall bit rate : 1 397 kb/s
Writing application : VirtualDubMod 1.5.4.1 (build 2178/release)
Writing library : VirtualDubMod build 2178/release
Video #0
ID : 0
Format : MPEG-4 Visual
Format profile : Advanced [email protected]
Format settings, BVOP : 1
Format settings, QPel : No
Format settings, GMC : No warppoints
Format settings, Matrix : Custom
Codec ID : XVID
Codec ID/Hint : XviD
Duration : 1 h 18 min
Bit rate : 1 261 kb/s
Width : 720 pixels
Height : 544 pixels
Display aspect ratio : 4:3
Frame rate : 25.000 FPS
Color space : YUV
Chroma subsampling : 4:2:0
Bit depth : 8 bits
Scan type : Progressive
Compression mode : Lossy
Bits/(Pixel*Frame) : 0.129
Stream size : 710 MiB (90%)
Writing library : XviD 1.2.1 (UTC 2008-12-04)
Audio #1
ID : 1
Format : MPEG Audio
Format version : Version 1
Format profile : Layer 3
Mode : Joint stereo
Mode extension : MS Stereo
Codec ID : 55
Codec ID/Hint : MP3
Duration : 1 h 18 min
Bit rate mode : Constant
Bit rate : 128 kb/s
Channel(s) : 2 channels
Sampling rate : 48.0 kHz
Compression mode : Lossy
Stream size : 72.0 MiB (9%)
Alignment : Aligned on interleaves
Interleave, duration : 80 ms (2.00 video frames)
Interleave, preload duration : 504 ms
Writing library : LAME3.98r
Encoding settings : -m j -V 4 -q 2 -lowpass 17 -b 128
[HIDE-THANKS]
Kód:
http://data.hu/get/7149953/RMF06_-_piumkering.rar
[/HIDE-THANKS]
vagy free
[HIDE-THANKS]
Kód:
https://data.hu/get/11433590/D2226av.part1.rar
https://data.hu/get/11433583/D2226av.part2.rar
https://data.hu/get/11433595/D2226av.part3.rar
https://data.hu/get/11433591/D2226av.part4.rar
https://data.hu/get/11433594/D2226av.part5.rar
[/HIDE-THANKS]
 

papadi

Állandó Tag
Állandó Tag


Behajtani tilos!
Fekete-fehér magyar film (1941)
Főszereplők: Bilicsi Tivadar, Latabár Kálmán, Simor Erzsi, Vágóné Margit, Rajnay Gábor, Vaszary Piri, Mihályfi Béla, Makláry Zoltán, Kiss Manyi, Solthy György, Juhász József
Rendezte: Martonffy Emil
Régi magyar filmek 9.

Ajánló a borítóról:
Tóni (Bilicsi Tivadar) árukihordóként dolgozik egy bútorüzletben. Szállása nem lévén, éjszakánként egy, a kirakatban lévő ágyban alszik. Főnöke észreveszi, ezért egy albérleti szobát vesz ki, ahol megismerkedik Juliskával (Simor Erzsi), akinek udvarolni kezd, Tóni, hogy fizetni tudja albérletét, esténként kocsimosást vállal egy garázsban. Juliska félreérti a kimaradozásokat és kapcsolatuk kezd megromlani. Tónit szerencsenapján - hetedikén - kidobják a munkahelyéről és az albérletéből és a tetejében még Juliska is összeveszik vele...

Média információ:

Video:
Kodek: MPEG-1/2 Video (mpgv)
Felbontás: 720x576
Képkockasebesség: 25

Hang:
Kodek: DVD LPCM Audio (lpcm)
Csatornák: Sztereó
Mintavételi frekvencia: 48000 Hz
Bitsebesség: 128 kb/mp

Formátum: iso
Méret: 3,73 GB
Műsoridő: 1:21:06
(prémium)
[HIDE-THANKS]
Kód:
https://data.hu/get/11434096/D2227i.part1.rar
https://data.hu/get/11434093/D2227i.part2.rar
https://data.hu/get/11434094/D2227i.part3.rar
https://data.hu/get/11434090/D2227i.part4.rar
[/HIDE-THANKS]



Formátum: dvdrip/avi
Méret: 810 MB
Felbontás: 720x544
Mintavételi frekvencia: 48000 Hz
Bitsebesség: 128 kbps
Műsoridő: 1:21:06
Részletes média információ:
I:\0000\RMF09 - Behajtani tilos!\Behajtani tilos!.avi
General
Complete name : I:\0000\RMF09 - Behajtani tilos!\Behajtani tilos!.avi
Format : AVI
Format/Info : Audio Video Interleave
File size : 809 MiB
Duration : 1 h 21 min
Overall bit rate : 1 395 kb/s
Writing application : VirtualDubMod 1.5.4.1 (build 2178/release)
Writing library : VirtualDubMod build 2178/release
Video #0
ID : 0
Format : MPEG-4 Visual
Format profile : Advanced [email protected]
Format settings, BVOP : 1
Format settings, QPel : No
Format settings, GMC : No warppoints
Format settings, Matrix : Custom
Codec ID : XVID
Codec ID/Hint : XviD
Duration : 1 h 21 min
Bit rate : 1 260 kb/s
Width : 720 pixels
Height : 544 pixels
Display aspect ratio : 4:3
Frame rate : 25.000 FPS
Color space : YUV
Chroma subsampling : 4:2:0
Bit depth : 8 bits
Scan type : Progressive
Compression mode : Lossy
Bits/(Pixel*Frame) : 0.129
Stream size : 731 MiB (90%)
Writing library : XviD 1.2.1 (UTC 2008-12-04)
Audio #1
ID : 1
Format : MPEG Audio
Format version : Version 1
Format profile : Layer 3
Mode : Joint stereo
Mode extension : MS Stereo
Codec ID : 55
Codec ID/Hint : MP3
Duration : 1 h 21 min
Bit rate mode : Constant
Bit rate : 128 kb/s
Channel(s) : 2 channels
Sampling rate : 48.0 kHz
Compression mode : Lossy
Stream size : 74.2 MiB (9%)
Alignment : Aligned on interleaves
Interleave, duration : 80 ms (2.00 video frames)
Interleave, preload duration : 504 ms
Writing library : LAME3.98r
Encoding settings : -m j -V 4 -q 2 -lowpass 17 -b 128
[HIDE-THANKS]
Kód:
http://data.hu/get/7140966/RMF09_-_Behajtani_tilos.rar
[/HIDE-THANKS]
vagy free
[HIDE-THANKS]
Kód:
https://data.hu/get/11434092/D2227av.part1.rar
https://data.hu/get/11434091/D2227av.part2.rar
https://data.hu/get/11434098/D2227av.part3.rar
https://data.hu/get/11434097/D2227av.part4.rar
https://data.hu/get/11434095/D2227av.part5.rar
[/HIDE-THANKS]
 

papadi

Állandó Tag
Állandó Tag


A döntő pillanat
Fekete-fehér magyar film (1938)
Főszereplők: Tolnay Klári, Páger Antal, Ajtay Andor
Rendezte: Vajda László
Régi magyar filmek 11. és 48.

Ajánló a borítóról:
A budapesti színházi titkárt, Kulinyit (Kabos Gyula) egy vidéki színház igazgatójává nevezik ki. Új pozíciójához magával viszi a fiatal és tehetséges színészházaspárt, Pap Évát (Tolnay Klári) és Bálint Gábort (Páger Antal). Reménytelen küzdelmet folytat a színészekkel, a közönséggel, és a hitelezőkkel is. A kudarcba belefáradva mindhárman visszamennek Pestre. Kulinyi ismét színházi titkár lesz. Bálint megkéri a híres színészt, Tőrős Ferencet (Ajtay Andor), hogy egyetlen estére adja át neki szerepét, azt remélve, hogy majd bizonyíthat.

Média információ:

Video:
Kodek: MPEG-1/2 Video (mpgv)
Felbontás: 720x576
Képkockasebesség: 25

Hang:
Kodek: A52 Audio (aka AC3) (a52)
Csatornák: Sztereó
Mintavételi frekvencia: 48000 Hz
Bitsebesség: 192 kb/mp

Formátum: iso
Méret: 3,97 GB
Műsoridő: 1:07:53
(prémium)
[HIDE-THANKS]
Kód:
https://data.hu/get/11435605/D2228i.part1.rar
https://data.hu/get/11435603/D2228i.part2.rar
https://data.hu/get/11435607/D2228i.part3.rar
https://data.hu/get/11435604/D2228i.part4.rar
[/HIDE-THANKS]



Formátum: dvdrip/avi
Méret: 681 MB
Felbontás: 720x544
Mintavételi frekvencia: 48000 Hz
Bitsebesség: 128 kbps
Műsoridő: 1:07:53
Részletes média információ:
I:\0000\RMF11 - A dnt pillanat\RMF11 - A döntö pillanat\A döntö pillanat.avi
General
Complete name : I:\0000\RMF11 - A dnt pillanat\RMF11 - A döntö pillanat\A döntö pillanat.avi
Format : AVI
Format/Info : Audio Video Interleave
File size : 679 MiB
Duration : 1 h 7 min
Overall bit rate : 1 398 kb/s
Writing application : VirtualDubMod 1.5.4.1 (build 2178/release)
Writing library : VirtualDubMod build 2178/release
Video #0
ID : 0
Format : MPEG-4 Visual
Format profile : Advanced [email protected]
Format settings, BVOP : 1
Format settings, QPel : No
Format settings, GMC : No warppoints
Format settings, Matrix : Custom
Codec ID : XVID
Codec ID/Hint : XviD
Duration : 1 h 7 min
Bit rate : 1 263 kb/s
Width : 720 pixels
Height : 544 pixels
Display aspect ratio : 4:3
Frame rate : 25.000 FPS
Color space : YUV
Chroma subsampling : 4:2:0
Bit depth : 8 bits
Scan type : Progressive
Compression mode : Lossy
Bits/(Pixel*Frame) : 0.129
Stream size : 613 MiB (90%)
Writing library : XviD 1.2.1 (UTC 2008-12-04)
Audio #1
ID : 1
Format : MPEG Audio
Format version : Version 1
Format profile : Layer 3
Mode : Joint stereo
Mode extension : MS Stereo
Codec ID : 55
Codec ID/Hint : MP3
Duration : 1 h 7 min
Bit rate mode : Constant
Bit rate : 128 kb/s
Channel(s) : 2 channels
Sampling rate : 48.0 kHz
Compression mode : Lossy
Stream size : 62.1 MiB (9%)
Alignment : Aligned on interleaves
Interleave, duration : 80 ms (2.00 video frames)
Interleave, preload duration : 504 ms
Writing library : LAME3.98r
Encoding settings : -m j -V 4 -q 2 -lowpass 17 -b 128
[HIDE-THANKS]
Kód:
http://data.hu/get/7142846/RMF11_-_A_dnt_pillanat.rar
[/HIDE-THANKS]
vagy free
[HIDE-THANKS]
Kód:
http://data.hu/get/7142837/RMF11_-_A_dnt_pillanat.part1.rar
http://data.hu/get/7142838/RMF11_-_A_dnt_pillanat.part2.rar
http://data.hu/get/7142839/RMF11_-_A_dnt_pillanat.part3.rar
http://data.hu/get/7142841/RMF11_-_A_dnt_pillanat.part4.rar
http://data.hu/get/7142844/RMF11_-_A_dnt_pillanat.part5.rar
http://data.hu/get/7142845/RMF11_-_A_dnt_pillanat.part6.rar
http://data.hu/get/7142847/RMF11_-_A_dnt_pillanat.part7.rar
[/HIDE-THANKS]
 

papadi

Állandó Tag
Állandó Tag


Végre…
Fekete-fehér magyar film (1941)
Főszereplők: Muráti Lili, Turay Ida, Páger Antal, Bilicsi TivadarMály Gerő, Mihályfy Béla, Pethes Sándor, Somlay Artur és Makkay Lacika
Rendezte: Farkas Zoltán
Régi magyar filmek 20. és 48.

Ajánló a borítóról:
Júlia (Muráti Lili) saját eljegyzése elől elszökve, egy céltalan autózgatás után kénytelen egy éjszakára két mérnök egyszerű erdei szállásán aludni. A két férfi másképp ítéli meg a lányt. Péter (Páger Antal) felelőtlennek tartja és nem akar segíteni rajta, míg Tibor (Bilicsi Tivadar) beleszeret. Júlia nem tudja, hogyan kezelje a két férfit. Reggelre virradóra már tudja melyiküket kellene választania...

Média információ:

Video:
Kodek: MPEG-1/2 Video (mpgv)
Felbontás: 720x576
Képkockasebesség: 25

Hang:
Kodek: DVD LPCM Audio (lpcm)
Csatornák: Sztereó
Mintavételi frekvencia: 48000 Hz
Bitsebesség: 192 kb/mp

Formátum: iso
Méret: 4,37 GB
Műsoridő: 1:17:48 (1:20:00)
(prémium)
[HIDE-THANKS]
Kód:
https://data.hu/get/11436058/D2229i.part1.rar
https://data.hu/get/11436055/D2229i.part2.rar
https://data.hu/get/11436057/D2229i.part3.rar
https://data.hu/get/11436059/D2229i.part4.rar
https://data.hu/get/11436052/D2229i.part5.rar
[/HIDE-THANKS]



Formátum: dvdrip/avi
Méret: 796 MB
Felbontás: 720x544
Mintavételi frekvencia: 48000 Hz
Bitsebesség: 128 kbps
Műsoridő: 1:17:48

Részletes média információ:
I:\0000\RMF20 - Vgre\RMF20 - Végre\Végre.avi
General
Complete name : I:\0000\RMF20 - Vgre\RMF20 - Végre\Végre.avi
Format : AVI
Format/Info : Audio Video Interleave
File size : 794 MiB
Duration : 1 h 17 min
Overall bit rate : 1 428 kb/s
Video #0
ID : 0
Format : MPEG-4 Visual
Format profile : Advanced [email protected]
Format settings, BVOP : 1
Format settings, QPel : No
Format settings, GMC : No warppoints
Format settings, Matrix : Default (H.263)
Codec ID : XVID
Codec ID/Hint : XviD
Duration : 1 h 17 min
Bit rate : 1 282 kb/s
Width : 720 pixels
Height : 544 pixels
Display aspect ratio : 4:3
Frame rate : 25.000 FPS
Color space : YUV
Chroma subsampling : 4:2:0
Bit depth : 4 bits
Scan type : Progressive
Compression mode : Lossy
Bits/(Pixel*Frame) : 0.131
Stream size : 714 MiB (90%)
Writing library : XviD 1.2.1 (UTC 2008-12-04)
Audio #1
ID : 1
Format : MPEG Audio
Format version : Version 1
Format profile : Layer 3
Mode : Joint stereo
Mode extension : MS Stereo
Codec ID : 55
Codec ID/Hint : MP3
Duration : 1 h 17 min
Bit rate mode : Constant
Bit rate : 128 kb/s
Channel(s) : 2 channels
Sampling rate : 48.0 kHz
Compression mode : Lossy
Delay relative to video : 8 ms
Stream size : 71.2 MiB (9%)
Alignment : Split accross interleaves
Interleave, duration : 24 ms (0.60 video frame)
Interleave, preload duration : 8 ms
[HIDE-THANKS]
Kód:
http://data.hu/get/7151785/RMF20_-_Vgre.rar
[/HIDE-THANKS]
vagy free
[HIDE-THANKS]
Kód:
https://data.hu/get/11436054/D2229av.part1.rar
https://data.hu/get/11436050/D2229av.part2.rar
https://data.hu/get/11436056/D2229av.part3.rar
https://data.hu/get/11436053/D2229av.part4.rar
https://data.hu/get/11436049/D2229av.part5.rar
[/HIDE-THANKS]
 

papadi

Állandó Tag
Állandó Tag


Régi keringő
Fekete-fehér magyar film (1941)
Főszereplők: Szörényi Éva, Páger Antal
Rendezte: Bánky Viktor
Magyar klasszikusok 39., Régi magyar filmek 30. és 48.

Ajánló a borítóról:
Gál Fülöp, az amerikai milliomos és lánya, Dorothy hazatérőben Magyarországra a vonatablakból meglátnak egy kastélyt. Dorothy azt követeli apjától, hogy vegye meg neki. A kastély ugyan nem eladó, de a házigazda, gróf Bakonyi Péter vendégül látja Gálékat.
Bakonyinénak megtetszik Dorothy, ezért táviratban hazarendeli Pesten tanuló fiát, hogy összehozza a fiatalokat.
Az ifjú grófnak azonban esze ágában sincs hazajönni, mert egy pesti primadonnába, Tavasz Erzsibe (Szörényi Éva) szerelmes. Ezért segítőjét, Dudva Mihály (Páger Antal) taxisofőrt küldi el maga helyett Gálékhoz...


Média információ:

Video:
Kodek: MPEG-1/2 Video (mpgv)
Felbontás: 720x576
Képkockasebesség: 25

Hang:
Kodek: DVD LPCM Audio (lpcm)
Csatornák: Sztereó
Mintavételi frekvencia: 48000 Hz
Bitsebesség: 192 kb/mp

Formátum: iso
Méret: 4,05 GB
Műsoridő: 1:28:02
(prémium)
[HIDE-THANKS]
Kód:
https://data.hu/get/11436209/D2230i.part1.rar
https://data.hu/get/11436214/D2230i.part2.rar
https://data.hu/get/11436217/D2230i.part3.rar
https://data.hu/get/11436207/D2230i.part4.rar
[/HIDE-THANKS]



Formátum: dvdrip/avi
Méret: 880 MB
Felbontás: 720x544
Mintavételi frekvencia: 48000 Hz
Bitsebesség: 128 kbps
Műsoridő: 1:28:02
Részletes média információ:
I:\0000\MK39 - Rgi kering\MK39 - Régi keringö\39 - Régi keringö.avi
General
Complete name : I:\0000\MK39 - Rgi kering\MK39 - Régi keringö\39 - Régi keringö.avi
Format : AVI
Format/Info : Audio Video Interleave
File size : 879 MiB
Duration : 1 h 28 min
Overall bit rate : 1 396 kb/s
Writing application : VirtualDubMod 1.5.4.1 (build 2178/release)
Writing library : VirtualDubMod build 2178/release
Video #0
ID : 0
Format : MPEG-4 Visual
Format profile : Advanced [email protected]
Format settings, BVOP : 1
Format settings, QPel : No
Format settings, GMC : No warppoints
Format settings, Matrix : Custom
Codec ID : XVID
Codec ID/Hint : XviD
Duration : 1 h 28 min
Bit rate : 1 261 kb/s
Width : 720 pixels
Height : 544 pixels
Display aspect ratio : 4:3
Frame rate : 25.000 FPS
Color space : YUV
Chroma subsampling : 4:2:0
Bit depth : 8 bits
Scan type : Progressive
Compression mode : Lossy
Bits/(Pixel*Frame) : 0.129
Stream size : 794 MiB (90%)
Writing library : XviD 1.2.1 (UTC 2008-12-04)
Audio #1
ID : 1
Format : MPEG Audio
Format version : Version 1
Format profile : Layer 3
Mode : Joint stereo
Mode extension : MS Stereo
Codec ID : 55
Codec ID/Hint : MP3
Duration : 1 h 28 min
Bit rate mode : Constant
Bit rate : 128 kb/s
Channel(s) : 2 channels
Sampling rate : 48.0 kHz
Compression mode : Lossy
Stream size : 80.6 MiB (9%)
Alignment : Aligned on interleaves
Interleave, duration : 80 ms (2.00 video frames)
Interleave, preload duration : 504 ms
Writing library : LAME3.98r
Encoding settings : -m j -V 4 -q 2 -lowpass 17 -b 128
[HIDE-THANKS]
Kód:
http://data.hu/get/7150631/MK39_-_Rgi_kering.rar
[/HIDE-THANKS]
vagy free
[HIDE-THANKS]
Kód:
https://data.hu/get/11436206/D2230av.part1.rar
https://data.hu/get/11436212/D2230av.part2.rar
https://data.hu/get/11436216/D2230av.part3.rar
https://data.hu/get/11436215/D2230av.part4.rar
https://data.hu/get/11436211/D2230av.part5.rar
[/HIDE-THANKS]
 

papadi

Állandó Tag
Állandó Tag


Egy éjszaka Erdélyben
Fekete-fehér magyar film (1941)
Főszereplők: Szeleczky Zita, Lázár Mária, Páger Antal, Mezei Mária, Nagy István, Hajmássy Miklós
Rendezte: Bán Frigyes
Magyar klasszikusok 24., Régi magyar filmek 34. és 48.

Ajánló a borítóról:
II. József császár (Páger Antal) adjutánsa, Kléber (Nagy István) kíséretében Erdély útjait járja. Egy napon kocsijuk meghibásodik, így a császár álruhában, gyalog folytatja útját, Kléber pedig Alvinczy Krisztina (Szeleczky Zita) udvarába kéredzkedik be a kocsi javíttatása végett. A szép özvegyasszony azt hiszi, a császárral van dolga, s kölcsönösen megszeretik egymást. Krisztinát hamarosan Mária Terézia (Lázár Mária) kéreti az udvarba, aki értesült fia erdélyi kalandjáról. Meglepetést készít elő, ami azonban csalódást okoz mindenki számára.

Média információ:

Video:
Kodek: MPEG-1/2 Video (mpgv)
Felbontás: 720x576
Képkockasebesség: 25

Hang:
Kodek: A52 Audio (aka AC3) (a52)
Csatornák: Sztereó
Mintavételi frekvencia: 48000 Hz
Bitsebesség: 192 kb/mp

Formátum: iso
Méret: 4,09 GB
Műsoridő: 1:29:31
(prémium)
[HIDE-THANKS]
Kód:
https://data.hu/get/11436383/D2231i.part1.rar
https://data.hu/get/11436381/D2231i.part2.rar
https://data.hu/get/11436382/D2231i.part3.rar
https://data.hu/get/11436384/D2231i.part4.rar
https://data.hu/get/11436385/D2231i.part5.rar
[/HIDE-THANKS]



Formátum: dvdrip/avi
Méret: 795 MB
Felbontás: 720x544
Mintavételi frekvencia: 48000 Hz
Bitsebesség: 128 kbps
Műsoridő: 1:19:29
Részletes média információ:
I:\0000\MK24 - Egy jszaka Erdlyben\MK24 - Egy éjszaka Erdélyben\Egy éjszaka Erdélyben.avi
General
Complete name : I:\0000\MK24 - Egy jszaka Erdlyben\MK24 - Egy éjszaka Erdélyben\Egy éjszaka Erdélyben.avi
Format : AVI
Format/Info : Audio Video Interleave
File size : 794 MiB
Duration : 1 h 19 min
Overall bit rate : 1 396 kb/s
Writing application : VirtualDubMod 1.5.4.1 (build 2178/release)
Writing library : VirtualDubMod build 2178/release
Video #0
ID : 0
Format : MPEG-4 Visual
Format profile : Advanced [email protected]
Format settings, BVOP : 1
Format settings, QPel : No
Format settings, GMC : No warppoints
Format settings, Matrix : Custom
Codec ID : XVID
Codec ID/Hint : XviD
Duration : 1 h 19 min
Bit rate : 1 260 kb/s
Width : 720 pixels
Height : 544 pixels
Display aspect ratio : 4:3
Frame rate : 25.000 FPS
Color space : YUV
Chroma subsampling : 4:2:0
Bit depth : 8 bits
Scan type : Progressive
Compression mode : Lossy
Bits/(Pixel*Frame) : 0.129
Stream size : 717 MiB (90%)
Writing library : XviD 1.2.1 (UTC 2008-12-04)
Audio #1
ID : 1
Format : MPEG Audio
Format version : Version 1
Format profile : Layer 3
Mode : Joint stereo
Mode extension : MS Stereo
Codec ID : 55
Codec ID/Hint : MP3
Duration : 1 h 19 min
Bit rate mode : Constant
Bit rate : 128 kb/s
Channel(s) : 2 channels
Sampling rate : 48.0 kHz
Compression mode : Lossy
Stream size : 72.8 MiB (9%)
Alignment : Aligned on interleaves
Interleave, duration : 80 ms (2.00 video frames)
Interleave, preload duration : 504 ms
Writing library : LAME3.98r
Encoding settings : -m j -V 4 -q 2 -lowpass 17 -b 128
[HIDE-THANKS]
Kód:
http://data.hu/get/7143455/MK24_-_Egy_jszaka_Erdlyben.rar
[/HIDE-THANKS]
vagy free
[HIDE-THANKS]
Kód:
https://data.hu/get/11436210/D2231av.part1.rar
https://data.hu/get/11436208/D2231av.part2.rar
https://data.hu/get/11436213/D2231av.part3.rar
https://data.hu/get/11436219/D2231av.part4.rar
https://data.hu/get/11436218/D2231av.part5.rar
[/HIDE-THANKS]
 

papadi

Állandó Tag
Állandó Tag


A 111-es
Fekete-fehér magyar film (1937)
Főszereplők: Lázár Mária, Törzs Jenő, Jávor Pál, Csortos Gyula, Gervay Marica, Rajnay Gábor,
Rendezte: Székely István
Régi magyar filmek 19.

Ajánló a borítóról:
Heltai (a borítón: Heltay) Jenő titokzatos cselekményű bűnügyi kisregénye alapján készült a film. A történet Párizsban játszódik, szereplőink artisták. Joe Selfridge (Törzs Jenő) a bűvész, reménytelenül szerelmes partnerébe. Legsikeresebb száma a "lenyakazott ember"...

Média információ:
Video:
Kodek: MPEG-1/2 Video (mpgv)
Felbontás: 720x576
Képkockasebesség: 25
Hang:
Kodek: DVD LPCM Audio (lpcm)
Csatornák: Sztereó
Mintavételi frekvencia: 48000 Hz
Bitsebesség: 128 kb/mp
Formátum: iso
Méret: 3,62 GB
Műsoridő: 1:19:53
(prémium)
[HIDE-THANKS]
Kód:
https://data.hu/get/11439141/D2235i.part1.rar
https://data.hu/get/11439139/D2235i.part2.rar
https://data.hu/get/11439142/D2235i.part3.rar
https://data.hu/get/11439140/D2235i.part4.rar
[/HIDE-THANKS]



Formátum: dvdrip/avi
Méret: 799 MB
Felbontás: 720x544
Mintavételi frekvencia: 48000 Hz
Bitsebesség: 128 kbps
Műsoridő: 1:19:53
Részletes média információ:
I:\0000\A 111-es.avi
General
Complete name : I:\0000\A 111-es.avi
Format : AVI
Format/Info : Audio Video Interleave
File size : 798 MiB
Duration : 1 h 19 min
Overall bit rate : 1 397 kb/s
Writing application : VirtualDubMod 1.5.4.1 (build 2178/release)
Writing library : VirtualDubMod build 2178/release
Video #0
ID : 0
Format : MPEG-4 Visual
Format profile : Advanced [email protected]
Format settings, BVOP : 1
Format settings, QPel : No
Format settings, GMC : No warppoints
Format settings, Matrix : Custom
Codec ID : XVID
Codec ID/Hint : XviD
Duration : 1 h 19 min
Bit rate : 1 262 kb/s
Width : 720 pixels
Height : 544 pixels
Display aspect ratio : 4:3
Frame rate : 25.000 FPS
Color space : YUV
Chroma subsampling : 4:2:0
Bit depth : 8 bits
Scan type : Progressive
Compression mode : Lossy
Bits/(Pixel*Frame) : 0.129
Stream size : 721 MiB (90%)
Writing library : XviD 1.2.1 (UTC 2008-12-04)
Audio #1
ID : 1
Format : MPEG Audio
Format version : Version 1
Format profile : Layer 3
Mode : Joint stereo
Codec ID : 55
Codec ID/Hint : MP3
Duration : 1 h 19 min
Bit rate mode : Constant
Bit rate : 128 kb/s
Channel(s) : 2 channels
Sampling rate : 48.0 kHz
Compression mode : Lossy
Stream size : 73.1 MiB (9%)
Alignment : Aligned on interleaves
Interleave, duration : 80 ms (2.00 video frames)
Interleave, preload duration : 504 ms
Writing library : LAME3.98r
Encoding settings : -m j -V 4 -q 2 -lowpass 17 -b 128
[HIDE-THANKS]
Kód:
http://data.hu/get/7150979/RMF19_-_A_111-es.rar
[/HIDE-THANKS]
vagy free
[HIDE-THANKS]
Kód:
http://data.hu/get/7150971/RMF19_-_A_111-es.part01.rar
http://data.hu/get/7150972/RMF19_-_A_111-es.part02.rar
http://data.hu/get/7150973/RMF19_-_A_111-es.part03.rar
http://data.hu/get/7150974/RMF19_-_A_111-es.part04.rar
http://data.hu/get/7150975/RMF19_-_A_111-es.part05.rar
http://data.hu/get/7150976/RMF19_-_A_111-es.part06.rar
http://data.hu/get/7150977/RMF19_-_A_111-es.part07.rar
http://data.hu/get/7150978/RMF19_-_A_111-es.part08.rar
[/HIDE-THANKS]
 

papadi

Állandó Tag
Állandó Tag


Külvárosi őrszoba
Fekete-fehér magyar film (1943/2007)
Főszereplők: Karády Katalin, Nagy István, Csikós Rózsi, Törönyi Imre, Dajbukát Ilona, Csortos Gyula, Somogyi Nusi, Makláry János
Rendezte: Hamza Dezső Ákos

Ajánló a borítóról:
Tóth János (Nagy István), a fiatal rendőr és felettese Nagy Miklós főtörzsőrmester, Angyalföldön teljesít szolgálatot. A börtönből frissen szabadult rablógyilkos, Karcsi (Makláry János) meggyilkol egy öregasszonyt, hogy elraboljon tőle egy vaskazettát, amit aztán szerelménél, Harmonikás Gizinél (Karády Katalin), a kocsma énekesnőjénél rejt el. A fiatal rendőr teljesen a vonzó énekesnő hatása alá kerül. Gizi szeretője biztatására János bizalmába férkőzik. Karcsi ugyanis, hogy megússza a börtönt, el akarja tenni láb alól Nagy főtörzsőrmestert, nehogy az rábizonyítsa az újabb gyilkosságot. Amikor aztán János megtalálja Gizi lakásán a régóta keresett vaskazettát, a lány bevallja, hogy szerelmes belé és elárulja a felettese ellen készülő merényletet...
Magyar klasszikusok 35.. Régi magyar filmek 14. és 51.

Média információ:

Video:
Kodek: MPEG-1/2 Video (mpgv)
Felbontás: 720x576
Képkockasebesség: 25
Dekódolt formátum: Planar 4:2:0 YUV

Hang:
Kodek: DVD LPCM Audio (lpcm)
Csatornák: Sztereó
Mintavételi frekvencia: 48000 Hz
Bitsebesség: 192 kb/mp

Formátum: iso
Méret: 4,36 GB
Műsoridő: 1:24:51

(prémium)
[HIDE-THANKS]
Kód:
https://data.hu/get/11447737/D2205i.part1.rar
https://data.hu/get/11447739/D2205i.part2.rar
https://data.hu/get/11447738/D2205i.part3.rar
https://data.hu/get/11447736/D2205i.part4.rar
https://data.hu/get/11447735/D2205i.part5.rar
[/HIDE-THANKS]

Hibássá vált link miatt újratöltve.
 

szteca

Állandó Tag
Állandó Tag
Pappa Pia

magyar romantikus vígjáték, 105 perc, 2017
Pappa.pia.2017.WEBRIP.x264.HUN-nubira


MV5BMjkyOWM1YTQtYjc4ZS00NWFmLWIyNWMtNTc2NjViNWRhOTUzXkEyXkFqcGdeQXVyNzc5NzQ4NzA@._V1_SY1000_CR0,0,706,1000_AL_.jpg


RENDEZŐ-KOREOGRÁFUS: Seres Attila
PRODUCER: Tőzsér Attila, Kálomista Gábor
ZENE: Rakonczai Viktor, Kozma Katalin
OPERATŐR: Tóth Zsolt
FORGATÓKÖNYVÍRÓ: Divinyi Réka
RENDEZŐ: Csupó Gábor

Szereplők
Tomit - Szabó Kimmel Tamás
Papi - Nagy Feró
Wizy - Stohl András
Csavargó - Reviczky Gábor
Mara - Ostorházi Bernadett
Zita - Kováts Vera
Tibó - Mózes András
Peti - Miller Dávid
Rocker lady - Martin Márta
Kitty - Tolnai Klára

Legyőzheti Dávid Góliátot? Állítólag igen, de aki biztosra megy, inkább ellene fogadjon. A kicsi és gyenge és pénztelen többnyire alulmarad, amikor szembeszáll valakivel, aki gazdagabb és hatalmasabb - és néhány nagyra nőtt, kopaszra borotvált alkalmazottja kíséri mindenhova.
Papi (Nagy Feró) a világ legkedvesebb nyugdíjas linkje, aki mindenkinek tartozik és csak a jókedvét ajánlhatja törlesztés helyett. Már laknia sincs hol, egy lepukkant Duna-parti csónakházban húzza meg magát. Ám szomszédja, egy menő szuperdiszkó tulajdonosa, Wizy (Stohl András) most ezt is elvenné tőle, hogy valami csilivili buliplázát építtessen a parton. Az öreg nem esik kétségbe, de fogalma sincs, mit csináljon, úgyhogy a bonyolultabb megoldást választja: segítséget kér az unokájától, Tomitól (Szabó Kimmel Tamás). A srác legalább olyan link, mint a nagyapja, viszont sokkal sármosabb - és habozás nélkül hívja a haverjait.
A pesti vagányok, bohémek és egyéb szélfútta figurák tarkabarka csapata szembeszáll Wizy zsoldosaival meg bombázó, de jéghideg alvezérével, és megkísérli a lehetetlent: a csónakházból átmenetileg romkocsmát varázsolnak, hogy összegyűjtsék a túléléshez szükséges összeget.
A kedvük jó, az esélyeik rosszak - de ha egy romantikus vígjátékban mindenki zenész és/vagy szerelmes, akkor bármi megtörténhet. És addig is szól néhány ismerős, mégis egészen átalakult sláger...


EREDETI CIM.........: Pappa pia
MAGYAR CIM..........: Pappa pia
JATEKIDO............: 104 PERC
HIVATKOZAS..........: https://tinyurl.com/yb94q8op
MERET...............: 1368 MB
FORRAS..............: WEB-DL

Videó:
KODEK...............: x264 DXVA
FELBONTAS...........: 720X300
BITRATA.............: 1650 KBPS
FPS.................: 25.000

Hang:
FORMATUM............: AAC
NYELV...............: MAGYAR
BITRATA.............: 192 KBPS
CSATORNAK...........: 2
FREKVENCIA..........: 48000 HZ
FELIRAT.............: NINCS

[HIDE-THANKS]
Kód:
https://data.hu/get/11450568/pppp.rar

https://data.hu/get/11450576/pppp_fr.part1.rar
https://data.hu/get/11450577/pppp_fr.part2.rar
https://data.hu/get/11450578/pppp_fr.part3.rar
https://data.hu/get/11450579/pppp_fr.part4.rar
https://data.hu/get/11450580/pppp_fr.part5.rar
https://data.hu/get/11450581/pppp_fr.part6.rar
https://data.hu/get/11450582/pppp_fr.part7.rar
https://data.hu/get/11450583/pppp_fr.part8.rar
[/HIDE-THANKS]
 

uzi9mm

Állandó Tag
Állandó Tag


Zsákutca (1985) TVRip

oatzvzlnk4fsuxdhz763.jpg


fuy68cobjg7ntnfg1sex.png


rendező:
Málnay Levente

Lukács Sándor
Sinkovits Imre
Avar István
Andrea Čunderlíková
Kállay Ilona
Mécs Károly
Szersén Gyula
Andai Györgyi
Tímár Éva
Fabó Györgyi
Horkai János
Balogh Emese
Bessenyei Emma...


A történet főszereplője Dr. Gál Péter, tehetséges, fiatal kardiológus, aki az egyetem elvégzése, majd egy lepusztult vidéki kórház után főorvosi segítséggel végre egy kiemelt megyei kórházba kerül. A munkájáért rajongó, azt őszinte hivatástudattal végző fiatalember hosszú ideig szinte bekötött szemmel él: semmit nem érzékel a kórházban uralkodó állapotokról. Ahogy azonban múlik az idő s egyre több a keserű tapasztalata, kénytelen feladni addigi tartózkodó álláspontját, s végül szembekerül főnökével.


Kép
Kódek azonosító/Tipp : XviD
Időtartam : 73 perc
Adatsebesség : 1 966 kb/s
Szélesség : 704 képpont
Magasság : 528 képpont
Képarány : 4:3
Képkockasebesség : 25,000 FPS

Hang
Kódek azonosító/Tipp : MP3
Adatsebesség : 128 kb/s
Csatornák száma : 2 csatorna
Mintavételezési gyakoriság : 48,0 kHz

fuy68cobjg7ntnfg1sex.png

[HIDE-THANKS][/HIDE-THANKS]​
[HIDE-THANKS]

https://ulozto.net/!s3oKU5l0Ljt1/zsakutca-1985-tvrip-xvid-hun-avi
[/HIDE-THANKS]
 

papadi

Állandó Tag
Állandó Tag
Magyar filmek gyűjteménye 1-30
Válogatás a Hunnia Filmstúdió filmjeiből (iso + dvdrip/avi)

3022583-20190102-DIM5O4.jpg


A gyűjtemény a következő filmeket tartalmazza:
1. A tizedes meg a többiek
2. A legényanya
3. Portugál
4. Pacsirta
5. Szent Péter esernyője
6. Mici néni két élete
7. Banánhéjkeringő
8. Édes Anna
9. Két félidő a pokolban
10. Hattyúdal
11. Hahó, Öcsi!
12. Hahó, a tenger!
13. Kincskereső kisködmön
14. Budapesti mesék
15. Szabadíts meg a gonosztól!
16. Idő van
17. A skorpió megeszi az ikreket reggelire
18. Én vagyok Jeromos
19. Falfúró
20. A turné
21. Ripacsok
22. Kopaszkutya (+ Privát rocktörténet: Hobo Blues Band)
23. Talpuk alatt fütyül a szél
24. Szerencsés Dániel
25. Uramisten
26. Eldorádó
27. Szamárköhögés
28. Régi idők focija
29. Bogáncs
30. Rosszemberek

A feliratok és egyéb extrák csak az iso változaton.
 

papadi

Állandó Tag
Állandó Tag
3022584-20190102-ANxdw0.jpg

A tizedes meg a többiek
Fekete-fehér háborús komédia (1965)
Főszereplők: Major Tamás, Sinkovits Imre, Darvas Iván, Pálos György, Ungváry László, Kozák László, Szabó Gyula, Márkus László, Horváth Tivadar, Cs. Németh Lajos
Rendező: Keleti Márton
Magyar filmek gyűjteménye 1.
Fantasy Film, 2006. október 2.
Tartalom a borítóról:
Molnár tizedes (Sinkovits Imre) úgy dönt, hogy a maga részéről befejezettnek nyilvánítja a II. Világháborús részvételét és kézigránátokba rejtett zsoldjával a nyakában olajra lép. Egy kastélyban próbál elrejtőzni, melynek fenntartását egy meglehetősen pikírt inasra, Albertre (Major Tamás) bízták rá. Pechjére a jó kis búvóhely tele van katonaszökevényekkel, akik szintén a lelépés mellett döntöttek. Molnár átveszi a parancsnokságot és a dezertőr szakasz élén hamarosan több életveszélyes feladat szakad a nyakába, mint addig összesen: ha kell, honvédeknek adják ki magukat, szovjet katonát mentenek meg, a nyilasokkal harcolnak.
Hiába sikerül túljárni mindenki eszén, végül ők is a szovjet hadifogságban végzik, ahol partizán szabadcsapatot szerveznek...

Extrák:
magyar és angol felirat
Ajánló (0:51)
Média információ:
Video:
Kodek: MPEG-1/2 Video (mpgv)
Felbontás: 720x576
Képkockasebesség: 25
Képformátum: 1.37:1 (4:3)
Hang:
Kodek: A52 Audio (aka AC3) (a52)
Csatornák: 3F2R/LFE
Mintavételi frekvencia: 48000 Hz
Bitsebesség: 448 kb/mp
Formátum: iso
Méret: 4,21 GB
Műsoridő: 1:40:46
(prémium)
[HIDE-THANKS]
Kód:
https://data.hu/get/11601325/D1255i.part1.rar
https://data.hu/get/11601328/D1255i.part2.rar
https://data.hu/get/11601327/D1255i.part3.rar
https://data.hu/get/11601316/D1255i.part4.rar
https://data.hu/get/11601317/D1255i.part5.rar
[/HIDE-THANKS]

3022585-20190102-flBSIT.jpg

Formátum: dvdrip/avi
Méret: 0,98 GB
Felbontás: 720x544
Mintavételi frekvencia: 48000 Hz
Bitsebesség: 128 kbps
Műsoridő: 1:40:46
Részletes média információ:
I:\Video\01 - A tizedes meg a többiek.avi
General
Complete name : I:\Video\01 - A tizedes meg a többiek.avi
Format : AVI
Format/Info : Audio Video Interleave
File size : 1 006 MiB
Duration : 1 h 40 min
Overall bit rate : 1 396 kb/s
Writing application : VirtualDubMod 1.5.4.1 (build 2178/release)
Writing library : VirtualDubMod build 2178/release
Video #0
ID : 0
Format : MPEG-4 Visual
Format profile : Advanced [email protected]
Format settings, BVOP : 1
Format settings, QPel : No
Format settings, GMC : No warppoints
Format settings, Matrix : Custom
Codec ID : XVID
Codec ID/Hint : XviD
Duration : 1 h 40 min
Bit rate : 1 260 kb/s
Width : 720 pixels
Height : 544 pixels
Display aspect ratio : 4:3
Frame rate : 25.000 FPS
Color space : YUV
Chroma subsampling : 4:2:0
Bit depth : 8 bits
Scan type : Progressive
Compression mode : Lossy
Bits/(Pixel*Frame) : 0.129
Stream size : 908 MiB (90%)
Writing library : XviD 1.2.1 (UTC 2008-12-04)
Audio #1
ID : 1
Format : MPEG Audio
Format version : Version 1
Format profile : Layer 3
Mode : Joint stereo
Mode extension : MS Stereo
Codec ID : 55
Codec ID/Hint : MP3
Duration : 1 h 40 min
Bit rate mode : Constant
Bit rate : 128 kb/s
Channel(s) : 2 channels
Sampling rate : 48.0 kHz
Compression mode : Lossy
Stream size : 92.3 MiB (9%)
Alignment : Aligned on interleaves
Interleave, duration : 80 ms (2.00 video frames)
Interleave, preload duration : 504 ms
Writing library : LAME3.98r
Encoding settings : -m j -V 4 -q 2 -lowpass 17 -b 128
[HIDE-THANKS]
Kód:
https://data.hu/get/11601322/D1255a.part1.rar
https://data.hu/get/11601324/D1255a.part2.rar
[/HIDE-THANKS]
vagy free
Kód:
[HIDE-THANKS]https://data.hu/get/11601318/D1255av.part1.rar
https://data.hu/get/11601323/D1255av.part2.rar
https://data.hu/get/11601321/D1255av.part3.rar
https://data.hu/get/11601326/D1255av.part4.rar
https://data.hu/get/11601320/D1255av.part5.rar
https://data.hu/get/11601319/D1255av.part6.rar
[/HIDE-THANKS]
 

papadi

Állandó Tag
Állandó Tag
3022586-20190102-Jy6ari.jpg

A legényanya
Fekete-fehér magyar vígjáték (1990)
Főszereplők: Kállai Ferenc, Eperjes Károly, Pogány Judit, Garas Dezső, Kibédi Ervin, Horváth József, Eszenyi Enikő, Andorai Péter
Rendezte: Garas Dezső
Magyar filmek gyűjteménye 2.
Fantasy Film, 2006. október 2.
Tartalom a borítóról:
Nagy a felzúdulás Rátóton, mert Rozi újszülött fiúgyermekének a Józsi nevet merte adni és nem a pedig Bélát! A hagyomány szerint minden újszülött fiút kötelesek Bélának keresztelni a tanácselnök neve után. Szegény Józsi (Eperjes Károly) ilyen világban kell, hogy felcseperedjen, de végül is csak fölnő az istenadta. Csak a lányok nem érdeklik ezt a kissé fura legényt. Az Úr meghallgatja édesanyja imáit és mivel ő maga nem ér rá, Ágikát (Eszenyi Enikő) küldi maga helyett segítségül, akitől Józsi hamarosan teherbe esik. A falu elöljárói nem akarnak újabb rátóti csodát, és ki akarják közösíteni őt, a legényanya ennek ellenére világra hozza gyermekét…
Extrák:
magyar felirat
Ajánló (0:51)
Média információ:
Video:
Kodek: MPEG-1/2 Video (mpgv)
Felbontás: 720x576
Képkockasebesség: 25
Képformátum: 1.37:1 (4:3)
Hang:
Kodek: A52 Audio (aka AC3) (a52)
Csatornák: 3F2R/LFE
Mintavételi frekvencia: 48000 Hz
Bitsebesség: 448 kb/mp
Formátum: iso
Méret: 4,25 GB
Műsoridő: 1:15:23
(prémium)
[HIDE-THANKS]
Kód:
https://data.hu/get/11602010/D2397i.part1.rar
https://data.hu/get/11602018/D2397i.part2.rar
https://data.hu/get/11602017/D2397i.part3.rar
https://data.hu/get/11602023/D2397i.part4.rar
https://data.hu/get/11602014/D2397i.part5.rar
[/HIDE-THANKS]

3022587-20190102-BLg9xb.jpg

Formátum: dvdrip/avi
Méret: 754 MB
Felbontás: 720x544
Mintavételi frekvencia: 48000 Hz
Bitsebesség: 128 kbps
Műsoridő: 1:15:22
Részletes média információ:
I:\Video\02 - A legényanya.avi
General
Complete name : I:\Video\02 - A legényanya.avi
Format : AVI
Format/Info : Audio Video Interleave
File size : 753 MiB
Duration : 1 h 15 min
Overall bit rate : 1 397 kb/s
Writing application : VirtualDubMod 1.5.4.1 (build 2178/release)
Writing library : VirtualDubMod build 2178/release
Video #0
ID : 0
Format : MPEG-4 Visual
Format profile : Advanced [email protected]
Format settings, BVOP : 1
Format settings, QPel : No
Format settings, GMC : No warppoints
Format settings, Matrix : Custom
Codec ID : XVID
Codec ID/Hint : XviD
Duration : 1 h 15 min
Bit rate : 1 261 kb/s
Width : 720 pixels
Height : 544 pixels
Display aspect ratio : 4:3
Frame rate : 25.000 FPS
Color space : YUV
Chroma subsampling : 4:2:0
Bit depth : 8 bits
Scan type : Progressive
Compression mode : Lossy
Bits/(Pixel*Frame) : 0.129
Stream size : 680 MiB (90%)
Writing library : XviD 1.2.1 (UTC 2008-12-04)
Audio #1
ID : 1
Format : MPEG Audio
Format version : Version 1
Format profile : Layer 3
Mode : Joint stereo
Mode extension : MS Stereo
Codec ID : 55
Codec ID/Hint : MP3
Duration : 1 h 15 min
Bit rate mode : Constant
Bit rate : 128 kb/s
Channel(s) : 2 channels
Sampling rate : 48.0 kHz
Compression mode : Lossy
Stream size : 69.0 MiB (9%)
Alignment : Aligned on interleaves
Interleave, duration : 80 ms (2.00 video frames)
Interleave, preload duration : 504 ms
Writing library : LAME3.98r
Encoding settings : -m j -V 4 -q 2 -lowpass 17 -b 128
[HIDE-THANKS]
Kód:
https://data.hu/get/11602007/D2397a.rar
[/HIDE-THANKS]
vagy free
[HIDE-THANKS]
Kód:
https://data.hu/get/11602024/D2397av.part1.rar
https://data.hu/get/11602020/D2397av.part2.rar
https://data.hu/get/11602022/D2397av.part3.rar
https://data.hu/get/11602025/D2397av.part4.rar
[/HIDE-THANKS]
 
Oldal tetejére