Magyar filmek III itt nincs kérés

papadi

Állandó Tag
Állandó Tag
3022589-20190102-s9IhCs.jpg

Portugál
Színes magyar vígjáték (1999)
Főszereplők: Csuja Imre, Pelsőczy Réka, Szirtes Ági, Lengyel Ferenc, Varga Zoltán, Kelemen József, Kovács Zsolt, Nagy Viktor, Ónodi Eszter
Rendezte: Lukáts Andor
Magyar filmek gyűjteménye 3.
Fantasy Film, 2006. október 2.
Tartalom a borítóról:
Rozzant kocsma Igrácson, a falu közepén. A település prominens képviselői itt múlatják idejüket néhány feles kíséretében. Sok izgalom nemigen történik errefelé, hacsak egy évtizedben egyszer oda nem vetődik egy idegen. És lőn csoda: betér a kocsmába egy fiatal esszéíró, aki épp Portugália felé vette az irányt, hogy meneküljön romokban heverő házasságából. Pechjére beleszeret Masniba, a kocsmáros lányába, így továbbutazását bizonytalan időre elhalasztja. Ennek cseppet sem örül Retek, az egykoron kényszervallatás miatt kirúgott rendőr, aki egyébként Masni vőlegénye. Ráadásul hamarosan megérkezik a hisztiző elhagyott feleség is.
Extrák:
magyar felirat
Ajánló (0:51)
Média információ:
Video:
Kodek: MPEG-1/2 Video (mpgv)
Felbontás: 720x576
Képkockasebesség: 25
Képformátum: 1.66:1 (4:3)
Hang:
Kodek: A52 Audio (aka AC3) (a52)
Csatornák: 3F2R/LFE
Mintavételi frekvencia: 48000 Hz
Bitsebesség: 448 kb/mp
Formátum: iso
Méret: 4,14 GB
Műsoridő: 1:37:13
(prémium)
[HIDE-THANKS]
Kód:
https://data.hu/get/11602281/D2398i.part1.rar
https://data.hu/get/11602287/D2398i.part2.rar
https://data.hu/get/11602282/D2398i.part3.rar
https://data.hu/get/11602288/D2398i.part4.rar
https://data.hu/get/11602277/D2398i.part5.rar
[/HIDE-THANKS]

3022590-20190102-ebbuhg.jpg

Formátum: dvdrip/avi
Méret: 971 MB
Felbontás: 720x464
Mintavételi frekvencia: 48000 Hz
Bitsebesség: 128 kbps
Műsoridő: 1:37:13
Részletes média információ:
I:\Video\03 - Portugál.avi
General
Complete name : I:\Video\03 - Portugál.avi
Format : AVI
Format/Info : Audio Video Interleave
File size : 970 MiB
Duration : 1 h 37 min
Overall bit rate : 1 395 kb/s
Writing application : VirtualDubMod 1.5.4.1 (build 2178/release)
Writing library : VirtualDubMod build 2178/release
Video #0
ID : 0
Format : MPEG-4 Visual
Format profile : Advanced [email protected]
Format settings, BVOP : 1
Format settings, QPel : No
Format settings, GMC : No warppoints
Format settings, Matrix : Custom
Codec ID : XVID
Codec ID/Hint : XviD
Duration : 1 h 37 min
Bit rate : 1 260 kb/s
Width : 720 pixels
Height : 464 pixels
Display aspect ratio : 16:10
Frame rate : 25.000 FPS
Color space : YUV
Chroma subsampling : 4:2:0
Bit depth : 8 bits
Scan type : Progressive
Compression mode : Lossy
Bits/(Pixel*Frame) : 0.151
Stream size : 876 MiB (90%)
Writing library : XviD 1.2.1 (UTC 2008-12-04)
Audio #1
ID : 1
Format : MPEG Audio
Format version : Version 1
Format profile : Layer 3
Mode : Joint stereo
Mode extension : MS Stereo
Codec ID : 55
Codec ID/Hint : MP3
Duration : 1 h 37 min
Bit rate mode : Constant
Bit rate : 128 kb/s
Channel(s) : 2 channels
Sampling rate : 48.0 kHz
Compression mode : Lossy
Stream size : 89.0 MiB (9%)
Alignment : Aligned on interleaves
Interleave, duration : 80 ms (2.00 video frames)
Interleave, preload duration : 504 ms
Writing library : LAME3.98r
Encoding settings : -m j -V 4 -q 2 -lowpass 17 -b 128
[HIDE-THANKS]
Kód:
https://data.hu/get/11602276/D2398a.rar
[/HIDE-THANKS]
vagy free
[HIDE-THANKS]
Kód:
https://data.hu/get/11602286/D2398av.part1.rar
https://data.hu/get/11602283/D2398av.part2.rar
https://data.hu/get/11602284/D2398av.part3.rar
https://data.hu/get/11602280/D2398av.part4.rar
https://data.hu/get/11602279/D2398av.part5.rar
https://data.hu/get/11602278/D2398av.part6.rar
[/HIDE-THANKS]
 

papadi

Állandó Tag
Állandó Tag
3022591-20190102-QrWdC9.jpg

Pacsirta
Fekete-fehér magyar dráma (1963)
Főszereplők: Tolnay Klári, Páger Antal, Nagy Anna, Törőcsik Mari, Bara Margit, Latinovits Zoltán, Bessenyei Ferenc, Darvas Iván, Greguss Zoltán, Szakács Sándor
Rendezte: Ranódy László
Magyar filmek gyűjteménye 4.
Fantasy Film, 2006. október 5.
Tartalom a borítóról:
Kosztolányi Dezső regénye a Vajkay család tragikus történetét dolgozza fel. Vajkay Ákos (Páger Antal) és felesége (Tolnay Klári) évek óta abban reménykednek, hogy csúf és szerencsétlen sorsú lányukat, Pacsirtát végre sikerül férjhez adniuk. A család egy ideje szinte ki sem mozdul otthonából, még a tükröket is eltakarják, hogy ne szembesüljenek a valósággal: amíg Pacsirta a nyakukon marad, semmi esélyük a boldog és normális életre. Egy napon a lányt elküldik pár napra a rokonokhoz, hátha sikerül férjet találni ott neki. A magára maradt házaspár előtt hamar kinyílik a világ: ismét összetalálkoznak régi barátaikkal, színházba járnak, társasági életet élnek, de mindvégig ott van bennük a szörnyű tudat, hogy ez a boldogság csak addig tarthat, amíg Pacsirta vissza nem tér a szülői házba...
Extrák:
magyar felirat
Ajánló (0:51)
Média információ:
Video:
Kodek: MPEG-1/2 Video (mpgv)
Felbontás: 720x576
Képkockasebesség: 25
Képformátum: 1.37:1 (4:3)
Hang:
Kodek: A52 Audio (aka AC3) (a52)
Csatornák: 3F2R/LFE
Mintavételi frekvencia: 48000 Hz
Bitsebesség: 448 kb/mp
Formátum: iso
Méret: 4,12 GB
Műsoridő: 1:36:57
(prémium)
[HIDE-THANKS]
Kód:
https://data.hu/get/11602393/D2108i.part1.rar
https://data.hu/get/11602384/D2108i.part2.rar
https://data.hu/get/11602387/D2108i.part3.rar
https://data.hu/get/11602394/D2108i.part4.rar
https://data.hu/get/11602386/D2108i.part5.rar
[/HIDE-THANKS]

3022592-20190102-lUxByg.jpg

Formátum: dvdrip/avi
Méret: 969 MB
Felbontás: 720x544
Mintavételi frekvencia: 48000 Hz
Bitsebesség: 128 kbps
Műsoridő: 1:36:56
Részletes média információ:
I:\Video\04 - Pacsirta.avi
General
Complete name : I:\Video\04 - Pacsirta.avi
Format : AVI
Format/Info : Audio Video Interleave
File size : 968 MiB
Duration : 1 h 36 min
Overall bit rate : 1 396 kb/s
Writing application : VirtualDubMod 1.5.4.1 (build 2178/release)
Writing library : VirtualDubMod build 2178/release
Video #0
ID : 0
Format : MPEG-4 Visual
Format profile : Advanced [email protected]
Format settings, BVOP : 1
Format settings, QPel : No
Format settings, GMC : No warppoints
Format settings, Matrix : Custom
Codec ID : XVID
Codec ID/Hint : XviD
Duration : 1 h 36 min
Bit rate : 1 261 kb/s
Width : 720 pixels
Height : 544 pixels
Display aspect ratio : 4:3
Frame rate : 25.000 FPS
Color space : YUV
Chroma subsampling : 4:2:0
Bit depth : 8 bits
Scan type : Progressive
Compression mode : Lossy
Bits/(Pixel*Frame) : 0.129
Stream size : 874 MiB (90%)
Writing library : XviD 1.2.1 (UTC 2008-12-04)
Audio #1
ID : 1
Format : MPEG Audio
Format version : Version 1
Format profile : Layer 3
Mode : Joint stereo
Mode extension : MS Stereo
Codec ID : 55
Codec ID/Hint : MP3
Duration : 1 h 36 min
Bit rate mode : Constant
Bit rate : 128 kb/s
Channel(s) : 2 channels
Sampling rate : 48.0 kHz
Compression mode : Lossy
Stream size : 88.8 MiB (9%)
Alignment : Aligned on interleaves
Interleave, duration : 80 ms (2.00 video frames)
Interleave, preload duration : 504 ms
Writing library : LAME3.98r
Encoding settings : -m j -V 4 -q 2 -lowpass 17 -b 128
[HIDE-THANKS]
Kód:
https://data.hu/get/11602388/D2108a.rar
[/HIDE-THANKS]
vagy free
[HIDE-THANKS]
Kód:
https://data.hu/get/11602392/D2108av.part1.rar
https://data.hu/get/11602390/D2108av.part2.rar
https://data.hu/get/11602391/D2108av.part3.rar
https://data.hu/get/11602385/D2108av.part4.rar
https://data.hu/get/11602382/D2108av.part5.rar
https://data.hu/get/11602389/D2108av.part6.rar
[/HIDE-THANKS]
 

papadi

Állandó Tag
Állandó Tag
3022599-20190102-xDR0JH.jpg

Szent Péter esernyője
Színes magyar-csehszlovák film (1958)
Főszereplők: Pécsi Sándor, Törőcsik Mari, Karol Machata, Rajz János, Samuel Adamcik, Ján Bzdúch
Rendezte: Bán Frigyes
Magyar filmek gyűjteménye 5.
Fantasy Film, 2006. október 5.
Tartalom a borítóról:
Gregorics, a volt kém még halála után is tud meglepetéseket okozni: rokonai helyett házasságon kívül született gyermekére, Gyurkára hagyja minden vagyonát. Az értékpapírokat az öreg elmaradhatatlan esernyőjének nyelébe rejtette, ám a rokonok ezt nem tudják, és megszabadulnak a kacattól. Az öreg Müncz, az ószeres ezt az ernyőt teszi a glogovai plébános húgocskája fölé a záporban. A falubeliek a csodát Szent Péternek tulajdonítják, az esernyőt nagy becsben tartják. A gyerekek felcseperednek, Gyurka kideríti, hogy hol lehet az öröksége - amit Veronikával való házassága útján próbál megszerezni. Félreértések követik egymást, de végül minden kiderül. A vagyon ugyan elveszett, de a fiatalok egymásra találnak.
Extrák:
magyar felirat
Ajánló (0:51)
Média információ:
Video:
Kodek: MPEG-1/2 Video (mpgv)
Felbontás: 720x576
Képkockasebesség: 25
Képformátum: 1.37:1 (4:3)
Hang:
Kodek: A52 Audio (aka AC3) (a52)
Csatornák: 3F2R/LFE
Mintavételi frekvencia: 48000 Hz
Bitsebesség: 448 kb/mp
Formátum: iso
Méret: 3,92 GB
Műsoridő: 1:25:35
(prémium)
[HIDE-THANKS]
Kód:
https://data.hu/get/11602405/D2117i.part1.rar
https://data.hu/get/11602409/D2117i.part2.rar
https://data.hu/get/11602406/D2117i.part3.rar
https://data.hu/get/11602404/D2117i.part4.rar
[/HIDE-THANKS]

3022600-20190102-EZjow6.jpg

Formátum: dvdrip/avi
Méret: 856 MB
Felbontás: 720x544
Mintavételi frekvencia: 48000 Hz
Bitsebesség: 128 kbps
Műsoridő: 1:25:34
Részletes média információ:
I:\Video\05 - Szent Péter esernyöje.avi
General
Complete name : I:\Video\05 - Szent Péter esernyöje.avi
Format : AVI
Format/Info : Audio Video Interleave
File size : 854 MiB
Duration : 1 h 25 min
Overall bit rate : 1 396 kb/s
Writing application : VirtualDubMod 1.5.4.1 (build 2178/release)
Writing library : VirtualDubMod build 2178/release
Video #0
ID : 0
Format : MPEG-4 Visual
Format profile : Advanced [email protected]
Format settings, BVOP : 1
Format settings, QPel : No
Format settings, GMC : No warppoints
Format settings, Matrix : Custom
Codec ID : XVID
Codec ID/Hint : XviD
Duration : 1 h 25 min
Bit rate : 1 261 kb/s
Width : 720 pixels
Height : 544 pixels
Display aspect ratio : 4:3
Frame rate : 25.000 FPS
Color space : YUV
Chroma subsampling : 4:2:0
Bit depth : 8 bits
Scan type : Progressive
Compression mode : Lossy
Bits/(Pixel*Frame) : 0.129
Stream size : 772 MiB (90%)
Writing library : XviD 1.2.1 (UTC 2008-12-04)
Audio #1
ID : 1
Format : MPEG Audio
Format version : Version 1
Format profile : Layer 3
Mode : Joint stereo
Mode extension : MS Stereo
Codec ID : 55
Codec ID/Hint : MP3
Duration : 1 h 25 min
Bit rate mode : Constant
Bit rate : 128 kb/s
Channel(s) : 2 channels
Sampling rate : 48.0 kHz
Compression mode : Lossy
Stream size : 78.3 MiB (9%)
Alignment : Aligned on interleaves
Interleave, duration : 80 ms (2.00 video frames)
Interleave, preload duration : 504 ms
Writing library : LAME3.98r
Encoding settings : -m j -V 4 -q 2 -lowpass 17 -b 128
[HIDE-THANKS]
Kód:
https://data.hu/get/11602408/D2117a.rar
[/HIDE-THANKS]
vagy free
[HIDE-THANKS]
Kód:
https://data.hu/get/11602411/D2117av.part1.rar
https://data.hu/get/11602410/D2117av.part2.rar
https://data.hu/get/11602407/D2117av.part3.rar
https://data.hu/get/11602412/D2117av.part4.rar
https://data.hu/get/11602403/D2117av.part5.rar
[/HIDE-THANKS]
 

papadi

Állandó Tag
Állandó Tag
3022601-20190102-IkLpzT.jpg

Mici néni két élete
Fekete-fehér magyar vígjáték (1962)
Főszereplők: Kiss Manyi, Páger Antal, Szokolai Ottó, Tóth Judit
Rendezte: Mamcserov Frigyes
Magyar filmek gyűjteménye 6.
Fantasy Film, 2006. október 2.
Tartalom a borítóról:
Mici néni (Kiss Manyi), az egykori díva már rég nem áll reflektorfényben, de azt még mindig nagyon szereti, ha körülrajongják. A pesti bérház lakói mindannyian arra számítanak, hogy a nagybeteget játszó öreglány egyszer majd elpatkol és megöröklik bútorait, esetleg lakását. Mici néni ügyvédje tanácsára magához vesz egy szigorúan gyerektelen és otthontalan házaspárt, akik haláláig gondját viselik. Cserébe beköltözhetnek a lakásba, ahol féltő gonddal kell teljesíteniük az ő minden óhaját. Csakhogy van egy kis bökkenő: a házaspár gyereket vár, ráadásul Mici néni is alig várja, hogy a fiatalok kitegyék a lábukat a lakásból. Ilyenkor kipattan a betegágyból és rohan randevúzni Alfréddal (Páger Antal), a sármos taxisofőrrel, akivel motorra pattannak, mulatni járnak, akárcsak a fiatalok. Ebből persze számtalan bonyodalom és mulatságos helyzet kerekedik...
Extrák:
magyar és angol felirat
Ajánló (0:51)
Média információ:
Video:
Kodek: MPEG-1/2 Video (mpgv)
Felbontás: 720x576
Képkockasebesség: 25
Képformátum: 1.33:1 (4:3)
Hang:
Kodek: A52 Audio (aka AC3) (a52)
Csatornák: 3F2R/LFE
Mintavételi frekvencia: 48000 Hz
Bitsebesség: 448 kb/mp
Formátum: iso
Méret: 3,95 GB
Műsoridő: 1:22:07
(prémium)
[HIDE-THANKS]
Kód:
https://data.hu/get/11602544/D2109i.part1.rar
https://data.hu/get/11602549/D2109i.part2.rar
https://data.hu/get/11602551/D2109i.part3.rar
https://data.hu/get/11602554/D2109i.part4.rar
[/HIDE-THANKS]

3022602-20190102-1dIySF.jpg

Formátum: dvdrip/avi
Méret: 820 MB
Felbontás: 720x544
Mintavételi frekvencia: 48000 Hz
Bitsebesség: 128 kbps
Műsoridő: 1:22:06
Részletes média információ:
I:\Video\06 - Mici néni két élete.avi
General
Complete name : I:\Video\06 - Mici néni két élete.avi
Format : AVI
Format/Info : Audio Video Interleave
File size : 819 MiB
Duration : 1 h 22 min
Overall bit rate : 1 395 kb/s
Writing application : VirtualDubMod 1.5.4.1 (build 2178/release)
Writing library : VirtualDubMod build 2178/release
Video #0
ID : 0
Format : MPEG-4 Visual
Format profile : Advanced [email protected]
Format settings, BVOP : 1
Format settings, QPel : No
Format settings, GMC : No warppoints
Format settings, Matrix : Custom
Codec ID : XVID
Codec ID/Hint : XviD
Duration : 1 h 22 min
Bit rate : 1 260 kb/s
Width : 720 pixels
Height : 544 pixels
Display aspect ratio : 4:3
Frame rate : 25.000 FPS
Color space : YUV
Chroma subsampling : 4:2:0
Bit depth : 8 bits
Scan type : Progressive
Compression mode : Lossy
Bits/(Pixel*Frame) : 0.129
Stream size : 740 MiB (90%)
Writing library : XviD 1.2.1 (UTC 2008-12-04)
Audio #1
ID : 1
Format : MPEG Audio
Format version : Version 1
Format profile : Layer 3
Mode : Joint stereo
Mode extension : MS Stereo
Codec ID : 55
Codec ID/Hint : MP3
Duration : 1 h 22 min
Bit rate mode : Constant
Bit rate : 128 kb/s
Channel(s) : 2 channels
Sampling rate : 48.0 kHz
Compression mode : Lossy
Stream size : 75.2 MiB (9%)
Alignment : Aligned on interleaves
Interleave, duration : 80 ms (2.00 video frames)
Interleave, preload duration : 504 ms
Writing library : LAME3.98r
Encoding settings : -m j -V 4 -q 2 -lowpass 17 -b 128
[HIDE-THANKS]
Kód:
https://data.hu/get/11602548/D2109a.rar
[/HIDE-THANKS]
vagy free
[HIDE-THANKS]
Kód:
https://data.hu/get/11602546/D2109av.part1.rar
https://data.hu/get/11602550/D2109av.part2.rar
https://data.hu/get/11602553/D2109av.part3.rar
https://data.hu/get/11602555/D2109av.part4.rar
https://data.hu/get/11602552/D2109av.part5.rar
[/HIDE-THANKS]
 

papadi

Állandó Tag
Állandó Tag
3022603-20190102-LH0QsV.jpg

Banánhéjkeringő
Magyar vígjáték (1986)
Főszereplők: Udvaros Dorottya, Dés Mihály, Básti Juli, Torday Teri, Melis György, Garas Dezső
Rendezte: Bacsó Péter
Magyar filmek gyűjteménye 7.
Fantasy Film, 2006. október 5.
Tartalom a borítóról:
Kondacs doktor pechsorozata és kálváriája március 15-én kezdődik, amikor épp az esküvőjére sietne, de útközben egy megkattant és mellesleg pucér lányra teríti szánalomból a kabátját. Ez olyan lavinát indít el, ami fenekestül felfordítja az életét. Az esküvője elmarad, menyasszonya kirúgja a házukból, a főnöke pedig az állásából, mivel politikailag is gyanússá válik. Innen már nincs visszaút, vagy mégis? Az elmegyógyintézet még tárt karokkal várja… Bacsó Péter, A tanú rendezőjének szatírája a rendszerváltás előtti utolsó évek elé tart görbe tükröt.
Extrák:
magyar felirat
Ajánló (0:51)
Média információ:
Video:
Kodek: MPEG-1/2 Video (mpgv)
Felbontás: 720x576
Képkockasebesség: 25
Képformátum: 1.37:1 (4:3)
Hang:
Kodek: A52 Audio (aka AC3) (a52)
Csatornák: 3F2R/LFE
Mintavételi frekvencia: 48000 Hz
Bitsebesség: 448 kb/mp
Formátum: iso
Méret: 4,34 GB
Műsoridő: 1:44:42
(prémium)
[HIDE-THANKS]
Kód:
https://data.hu/get/11611034/D2399i.part1.rar
https://data.hu/get/11611031/D2399i.part2.rar
https://data.hu/get/11611033/D2399i.part3.rar
https://data.hu/get/11611030/D2399i.part4.rar
https://data.hu/get/11611029/D2399i.part5.rar
[/HIDE-THANKS]

3022604-20190102-36KhFA.jpg

Formátum: dvdrip/avi
Méret: 1,02 GB
Felbontás: 720x544
Mintavételi frekvencia: 48000 Hz
Bitsebesség: 128 kbps
Műsoridő: 1:44:42
Részletes média információ:
I:\Video\07 - Banánhéjkeringö.avi
General
Complete name : I:\Video\07 - Banánhéjkeringö.avi
Format : AVI
Format/Info : Audio Video Interleave
File size : 1.02 GiB
Duration : 1 h 44 min
Overall bit rate : 1 394 kb/s
Writing application : VirtualDubMod 1.5.4.1 (build 2178/release)
Writing library : VirtualDubMod build 2178/release
Video #0
ID : 0
Format : MPEG-4 Visual
Format profile : Advanced [email protected]
Format settings, BVOP : 1
Format settings, QPel : No
Format settings, GMC : No warppoints
Format settings, Matrix : Custom
Codec ID : XVID
Codec ID/Hint : XviD
Duration : 1 h 44 min
Bit rate : 1 259 kb/s
Width : 720 pixels
Height : 544 pixels
Display aspect ratio : 4:3
Frame rate : 25.000 FPS
Color space : YUV
Chroma subsampling : 4:2:0
Bit depth : 8 bits
Scan type : Progressive
Compression mode : Lossy
Bits/(Pixel*Frame) : 0.129
Stream size : 943 MiB (90%)
Writing library : XviD 1.2.1 (UTC 2008-12-04)
Audio #1
ID : 1
Format : MPEG Audio
Format version : Version 1
Format profile : Layer 3
Mode : Joint stereo
Mode extension : MS Stereo
Codec ID : 55
Codec ID/Hint : MP3
Duration : 1 h 44 min
Bit rate mode : Constant
Bit rate : 128 kb/s
Channel(s) : 2 channels
Sampling rate : 48.0 kHz
Compression mode : Lossy
Stream size : 95.9 MiB (9%)
Alignment : Aligned on interleaves
Interleave, duration : 80 ms (2.00 video frames)
Interleave, preload duration : 504 ms
Writing library : LAME3.98r
Encoding settings : -m j -V 4 -q 2 -lowpass 17 -b 128
[HIDE-THANKS]
Kód:
https://data.hu/get/11602954/D2399a.part1.rar
https://data.hu/get/11602955/D2399a.part2.rar
[/HIDE-THANKS]
vagy free
[HIDE-THANKS]
Kód:
https://data.hu/get/11602946/D2399av.part1.rar
https://data.hu/get/11602948/D2399av.part2.rar
https://data.hu/get/11602944/D2399av.part3.rar
https://data.hu/get/11602950/D2399av.part4.rar
https://data.hu/get/11602945/D2399av.part5.rar
https://data.hu/get/11602953/D2399av.part6.rar
[/HIDE-THANKS]
 

papadi

Állandó Tag
Állandó Tag
3022605-20190102-Q2lpQW.jpg

Édes Anna
Fekete-fehér magyar filmdráma (1958)
Főszereplők: Törőcsik Mari, Mezei Mária, Kovács Károly, Fülöp Zsigmond fh.
Rendezte: Fábri Zoltán
Magyar filmek gyűjteménye 8.
Fantasy Film, 2006. október 5.
Tartalom a borítóról:
Vizyék a kommün bukása után igyekeznek úgy folytatni életüket, mint a felfordulás előtt. Felvesznek egy új mindenest, a csendes és szorgalmas Annát. A lánynak udvarlója is akad, a tisztességes kéményseprőfiú, de Anna az úr unokaöccsébe, Jancsiba lesz szerelmes. A férfi elcsábítja a lányt, de többet nem törődik vele, csak akkor, amikor kiderül: terhes. Ekkor pénzt ad a műtétre. Vizyék egy pompázatos vacsorán vendégül látják Jancsit és új barátnőjét. Anna mélységes megaláztatásában éjjel leszúrja a Vizy házaspárt.
Extrák:
magyar és angol felirat
Ajánló (0:51)
Média információ:
Video:
Kodek: MPEG-1/2 Video (mpgv)
Felbontás: 720x576
Képkockasebesség: 25
Képformátum: 1.37:1 (4:3)
Hang:
Kodek: A52 Audio (aka AC3) (a52)
Csatornák: 3F2R/LFE
Mintavételi frekvencia: 48000 Hz
Bitsebesség: 448 kb/mp
Formátum: iso
Méret: 3,91 GB
Műsoridő: 1:23:54
(prémium)
[HIDE-THANKS]
Kód:
https://data.hu/get/11603215/D2116i.part1.rar
https://data.hu/get/11603212/D2116i.part2.rar
https://data.hu/get/11603210/D2116i.part3.rar
https://data.hu/get/11603209/D2116i.part4.rar
[/HIDE-THANKS]

3022606-20190102-SdZnb3.jpg

Formátum: dvdrip/avi
Méret: 833 MB
Felbontás: 720x544
Mintavételi frekvencia: 48000 Hz
Bitsebesség: 128 kbps
Műsoridő: 1:23:54
Részletes média információ:
I:\Video\08 - Édes Anna.avi
General
Complete name : I:\Video\08 - Édes Anna.avi
Format : AVI
Format/Info : Audio Video Interleave
File size : 837 MiB
Duration : 1 h 23 min
Overall bit rate : 1 395 kb/s
Writing application : VirtualDubMod 1.5.4.1 (build 2178/release)
Writing library : VirtualDubMod build 2178/release
Video #0
ID : 0
Format : MPEG-4 Visual
Format profile : Advanced [email protected]
Format settings, BVOP : 1
Format settings, QPel : No
Format settings, GMC : No warppoints
Format settings, Matrix : Custom
Codec ID : XVID
Codec ID/Hint : XviD
Duration : 1 h 23 min
Bit rate : 1 260 kb/s
Width : 720 pixels
Height : 544 pixels
Display aspect ratio : 4:3
Frame rate : 25.000 FPS
Color space : YUV
Chroma subsampling : 4:2:0
Bit depth : 8 bits
Scan type : Progressive
Compression mode : Lossy
Bits/(Pixel*Frame) : 0.129
Stream size : 756 MiB (90%)
Writing library : XviD 1.2.1 (UTC 2008-12-04)
Audio #1
ID : 1
Format : MPEG Audio
Format version : Version 1
Format profile : Layer 3
Mode : Joint stereo
Mode extension : MS Stereo
Codec ID : 55
Codec ID/Hint : MP3
Duration : 1 h 23 min
Bit rate mode : Constant
Bit rate : 128 kb/s
Channel(s) : 2 channels
Sampling rate : 48.0 kHz
Compression mode : Lossy
Stream size : 76.8 MiB (9%)
Alignment : Aligned on interleaves
Interleave, duration : 80 ms (2.00 video frames)
Interleave, preload duration : 504 ms
Writing library : LAME3.98r
Encoding settings : -m j -V 4 -q 2 -lowpass 17 -b 128
[HIDE-THANKS]
Kód:
https://data.hu/get/11603216/D2116a.rar
[/HIDE-THANKS]
vagy free
[HIDE-THANKS]
Kód:
https://data.hu/get/11603217/D2116av.part1.rar
https://data.hu/get/11603213/D2116av.part2.rar
https://data.hu/get/11603218/D2116av.part3.rar
https://data.hu/get/11603211/D2116av.part4.rar
https://data.hu/get/11603214/D2116av.part5.rar
[/HIDE-THANKS]
 

papadi

Állandó Tag
Állandó Tag
3022608-20190102-27pCAZ.jpg

Két félidő a pokolban
Fekete-fehér magyar háborús filmdráma (1961)
Főszereplők: Sinkovits Imre, Garas Dezső, Márkus László, Molnár Tibor, Koltai János fh., Benkő Gyula, Suka Sándor, Gera Zoltán, Velenczey István, Horváth József, Komlós András, Szilágyi Gyula, Végvári Tamás fh., Rajz János, Görbe János, Egri István, Solti Bertalan, Misoga László, Apor Noémi, Fenyő Emil, Brachfeld Siegfried, Maklári János, Farkas Antal, Szendrő József, Bángyörgyi Károly, Iványi József
Rendezte: Fábri Zoltán
Magyar filmek gyűjteménye 9.
Fantasy Film, 2006. október 2.
Tartalom a borítóról:
Valahol Ukrajnában vagyunk. A testileg-lelkileg meggyengült munkaszolgálatosok egy utolsó esélyt kapnak: mivel Hitler születésnapja van, összemérhetik erejüket egy futballmérkőzés keretében a német katonák válogatottjával. A szervezéssel Ónodi II.-t az egykori futballcsillagot bízzák meg, aki eleinte nem akarja elvállalni, hogy megszervezze a mérkőzést. Pedig ez lehet a foglyok utolsó esélye, és a focisták élelmet kapnak és mentesülnek a bányamunka alól is. A meccs ezúttal a túlélésért folyik, és a győzelem nem marad el. Az önfeledt ünneplés közben a német parancsnok tűzparancsot ad a gépfegyvereseknek...
Extrák:
magyar és angol felirat
Ajánló (0:51)
Média információ:
Video:
Kodek: MPEG-1/2 Video (mpgv)
Felbontás: 720x576
Képkockasebesség: 25
Képformátum: 1.37:1 (4:3)
Hang:
Kodek: A52 Audio (aka AC3) (a52)
Csatornák: 3F2R/LFE
Mintavételi frekvencia: 48000 Hz
Bitsebesség: 448 kb/mp
Formátum: iso
Méret: 4,27 GB
Műsoridő: 1:59:17
(prémium)
[HIDE-THANKS]
Kód:
https://data.hu/get/11603524/D2110i.part1.rar
https://data.hu/get/11603530/D2110i.part2.rar
https://data.hu/get/11603531/D2110i.part3.rar
https://data.hu/get/11603522/D2110i.part4.rar
https://data.hu/get/11603528/D2110i.part5.rar
[/HIDE-THANKS]

3022609-20190102-KZZRkR.jpg

Formátum: dvdrip/avi
Méret: 1,16 GB
Felbontás: 720x544
Mintavételi frekvencia: 48000 Hz
Bitsebesség: 128 kbps
Műsoridő: 1:59:16
Részletes média információ:
I:\Video\09 - Két félidö a pokolban.avi
General
Complete name : I:\Video\09 - Két félidö a pokolban.avi
Format : AVI
Format/Info : Audio Video Interleave
File size : 1.16 GiB
Duration : 1 h 59 min
Overall bit rate : 1 397 kb/s
Writing application : VirtualDubMod 1.5.4.1 (build 2178/release)
Writing library : VirtualDubMod build 2178/release
Video #0
ID : 0
Format : MPEG-4 Visual
Format profile : Advanced [email protected]
Format settings, BVOP : 1
Format settings, QPel : No
Format settings, GMC : No warppoints
Format settings, Matrix : Custom
Codec ID : XVID
Codec ID/Hint : XviD
Duration : 1 h 59 min
Bit rate : 1 261 kb/s
Width : 720 pixels
Height : 544 pixels
Display aspect ratio : 4:3
Frame rate : 25.000 FPS
Color space : YUV
Chroma subsampling : 4:2:0
Bit depth : 8 bits
Scan type : Progressive
Compression mode : Lossy
Bits/(Pixel*Frame) : 0.129
Stream size : 1.05 GiB (90%)
Writing library : XviD 1.2.1 (UTC 2008-12-04)
Audio #1
ID : 1
Format : MPEG Audio
Format version : Version 1
Format profile : Layer 3
Mode : Joint stereo
Mode extension : MS Stereo
Codec ID : 55
Codec ID/Hint : MP3
Duration : 1 h 59 min
Bit rate mode : Constant
Bit rate : 128 kb/s
Channel(s) : 2 channels
Sampling rate : 48.0 kHz
Compression mode : Lossy
Stream size : 109 MiB (9%)
Alignment : Aligned on interleaves
Interleave, duration : 80 ms (2.00 video frames)
Interleave, preload duration : 504 ms
Writing library : LAME3.98r
Encoding settings : -m j -V 4 -q 2 -lowpass 17 -b 128
[HIDE-THANKS]
Kód:
https://data.hu/get/11603525/D2110a.part1.rar
https://data.hu/get/11603520/D2110a.part2.rar
[/HIDE-THANKS]
vagy free
[HIDE-THANKS]
Kód:
https://data.hu/get/11603521/D2110av.part1.rar
https://data.hu/get/11603532/D2110av.part2.rar
https://data.hu/get/11603526/D2110av.part3.rar
https://data.hu/get/11603529/D2110av.part4.rar
https://data.hu/get/11603523/D2110av.part5.rar
https://data.hu/get/11603533/D2110av.part6.rar
https://data.hu/get/11603527/D2110av.part7.rar
[/HIDE-THANKS]
 

papadi

Állandó Tag
Állandó Tag
3022610-20190102-udINu7.jpg

Hattyúdal
Fekete-fehér magyar vígjáték(1963)
Főszereplők: Páger Antal, Várkonyi Zoltán, Szirtes Ádám, Sztankay István, Bodrogi Gyula, Béres Ilona fh., Kállai Ferenc, Kiss Manyi, Győrffy György, Gobbi Hilda, Pécsi Ildikó, Rajz János, Rátonyi Róbert, Szendrő József, Avar István, Peti Sándor
Rendezte: Keleti Márton
Magyar filmek gyűjteménye 10.
Fantasy Film, 2006. október 2.
Tartalom a borítóról:
A Villa Negra valóban nem fényes lokál, hanem egy kültelki viskó az épülő lakótelep szomszédságában. Itt él Tamburás (Páger Antal), a vén csavargó és kisstílű szélhámos, aki gondtalan életét apróbb lopásokkal, stiklikkel, néha alkalmi munkákkal színesíti. Maga köré gyűjti a kallódó fiatalokat, akiket szintén a könnyed életre nevel. Ám Tamburásnak is be kell látnia, hogy társai ennél többre vágynak és hamarosan nemcsak ők fogják elhagyni, hanem a féktelen mulatozásoktól hangos otthonát, a Villa Negrát is maga alá gyűri a gyorsan terjeszkedő városrész.
Extrák:
magyar és angol felirat
Ajánló (0:51)
Média információ:
Video:
Kodek: MPEG-1/2 Video (mpgv)
Felbontás: 720x576
Képkockasebesség: 25
Képformátum: 1.37:1 (4:3)
Hang:
Kodek: A52 Audio (aka AC3) (a52)
Csatornák: 3F2R/LFE
Mintavételi frekvencia: 48000 Hz
Bitsebesség: 448 kb/mp
Formátum: iso
Méret: 4,16 GB
Műsoridő: 1:35:47
(prémium)
[HIDE-THANKS]
Kód:
https://data.hu/get/11603658/D1757i.part1.rar
https://data.hu/get/11603664/D1757i.part2.rar
https://data.hu/get/11603662/D1757i.part3.rar
https://data.hu/get/11603661/D1757i.part4.rar
https://data.hu/get/11603669/D1757i.part5.rar
[/HIDE-THANKS]

3022611-20190102-sDVt8u.jpg

Formátum: dvdrip/avi
Méret: 955 MB
Felbontás: 720x544
Mintavételi frekvencia: 48000 Hz
Bitsebesség: 128 kbps
Műsoridő: 1:35:47
Részletes média információ:
I:\Video\10 - Hattyúdal.avi
General
Complete name : I:\Video\10 - Hattyúdal.avi
Format : AVI
Format/Info : Audio Video Interleave
File size : 954 MiB
Duration : 1 h 35 min
Overall bit rate : 1 393 kb/s
Writing application : VirtualDubMod 1.5.4.1 (build 2178/release)
Writing library : VirtualDubMod build 2178/release
Video #0
ID : 0
Format : MPEG-4 Visual
Format profile : Advanced [email protected]
Format settings, BVOP : 1
Format settings, QPel : No
Format settings, GMC : No warppoints
Format settings, Matrix : Custom
Codec ID : XVID
Codec ID/Hint : XviD
Duration : 1 h 35 min
Bit rate : 1 258 kb/s
Width : 720 pixels
Height : 544 pixels
Display aspect ratio : 4:3
Frame rate : 25.000 FPS
Color space : YUV
Chroma subsampling : 4:2:0
Bit depth : 8 bits
Scan type : Progressive
Compression mode : Lossy
Bits/(Pixel*Frame) : 0.128
Stream size : 862 MiB (90%)
Writing library : XviD 1.2.1 (UTC 2008-12-04)
Audio #1
ID : 1
Format : MPEG Audio
Format version : Version 1
Format profile : Layer 3
Mode : Joint stereo
Mode extension : MS Stereo
Codec ID : 55
Codec ID/Hint : MP3
Duration : 1 h 35 min
Bit rate mode : Constant
Bit rate : 128 kb/s
Channel(s) : 2 channels
Sampling rate : 48.0 kHz
Compression mode : Lossy
Stream size : 87.7 MiB (9%)
Alignment : Aligned on interleaves
Interleave, duration : 80 ms (2.00 video frames)
Interleave, preload duration : 504 ms
Writing library : LAME3.98r
Encoding settings : -m j -V 4 -q 2 -lowpass 17 -b 128
[HIDE-THANKS]
Kód:
https://data.hu/get/11603665/D1757a.rar
[/HIDE-THANKS]
vagy free
[HIDE-THANKS]
Kód:
https://data.hu/get/11603659/D1757av.part1.rar
https://data.hu/get/11603660/D1757av.part2.rar
https://data.hu/get/11603667/D1757av.part3.rar
https://data.hu/get/11603666/D1757av.part4.rar
https://data.hu/get/11603657/D1757av.part5.rar
https://data.hu/get/11603668/D1757av.part6.rar
[/HIDE-THANKS]
 

papadi

Állandó Tag
Állandó Tag
3022613-20190102-v3dYX8.jpg

Hahó, Öcsi!
Magyar ifjúsági film (1971)
Főszereplők: Kovács Krisztián, Kiss Manyi, Koncz Gábor, Szakács Eszter
Rendezte: Palásthy György
Magyar filmek gyűjteménye 11.
Fantasy Film, 2006. november 15.
Tartalom a borítóról:
A Balog család mindig rohan, az öt éves Öcsire soha nincs senkinek ideje. Ráadásul rossz viselkedése miatt a fürdőszobába is bezárják egy nyári reggelen. A fürdőkád vizén azonban kis vitorláson Kököjszi és Bobojsza siet a kisfiú megmentésére. A jóságos törpék segítenek a Öcsinek megtalálni az "Időt", hogy szülei végre tudjanak vele foglalkozni. A kisfiú útja az óragyárba, majd a bergengóc király udvarába vezet. Ott megtudja, hogy az "Időt" a hétfejű sárkány rabolta el. Hála a kis királylánytól kapott varázsvirágnak, a hős Öcsi legyőzi a rettenetes sárkányt. Így elnyeri a királylány kezét, a fele királyságot, de legfőképpen az "Időt". Így visszatértekor már kedves, türelmes szülők várják, s boldogan indul az óvodába.
Extrák:
magyar felirat
Palásthy György Érdemes Művész (1977) - 1:19
Palásthy György forgatja a Szeleburdi családot (1981) - 1:48
Korabeli filmhíradó: Palásthy rendez: A Varázsló forgatásáról (1968) - 1:18
Ajánlók - 2:31
Média információ:
Video:
Kodek: MPEG-1/2 Video (mpgv)
Felbontás: 720x576
Képkockasebesség: 25
Képformátum: 1.85:1 (16:9)
Hang:
Kodek: A52 Audio (aka AC3) (a52)
Csatornák: 3F2R/LFE
Mintavételi frekvencia: 48000 Hz
Bitsebesség: 448 kb/mp
Formátum: iso
Méret: 4,15 GB
Műsoridő: 1:20:07 (1:27:03)
(prémium)
[HIDE-THANKS]
Kód:
https://data.hu/get/11604055/D2055i.part1.rar
https://data.hu/get/11604054/D2055i.part2.rar
https://data.hu/get/11604061/D2055i.part3.rar
https://data.hu/get/11604062/D2055i.part4.rar
https://data.hu/get/11604056/D2055i.part5.rar
[/HIDE-THANKS]

3022614-20190102-W5hhQq.jpg

Formátum: dvdrip/avi
Méret: 802 MB
Felbontás: 720x416
Mintavételi frekvencia: 48000 Hz
Bitsebesség: 128 kbps
Műsoridő: 1:20:07
Részletes média információ:
I:\Video\11 - Hahó Öcsi!.avi
General
Complete name : I:\Video\11 - Hahó Öcsi!.avi
Format : AVI
Format/Info : Audio Video Interleave
File size : 802 MiB
Duration : 1 h 20 min
Overall bit rate : 1 399 kb/s
Writing application : VirtualDubMod 1.5.4.1 (build 2178/release)
Writing library : VirtualDubMod build 2178/release
Video #0
ID : 0
Format : MPEG-4 Visual
Format profile : Advanced [email protected]
Format settings, BVOP : 1
Format settings, QPel : No
Format settings, GMC : No warppoints
Format settings, Matrix : Custom
Codec ID : XVID
Codec ID/Hint : XviD
Duration : 1 h 20 min
Bit rate : 1 263 kb/s
Width : 720 pixels
Height : 416 pixels
Display aspect ratio : 1.731
Frame rate : 25.000 FPS
Color space : YUV
Chroma subsampling : 4:2:0
Bit depth : 8 bits
Scan type : Progressive
Compression mode : Lossy
Bits/(Pixel*Frame) : 0.169
Stream size : 724 MiB (90%)
Writing library : XviD 1.2.1 (UTC 2008-12-04)
Audio #1
ID : 1
Format : MPEG Audio
Format version : Version 1
Format profile : Layer 3
Mode : Joint stereo
Mode extension : MS Stereo
Codec ID : 55
Codec ID/Hint : MP3
Duration : 1 h 20 min
Bit rate mode : Constant
Bit rate : 128 kb/s
Channel(s) : 2 channels
Sampling rate : 48.0 kHz
Compression mode : Lossy
Stream size : 73.4 MiB (9%)
Alignment : Aligned on interleaves
Interleave, duration : 80 ms (2.00 video frames)
Interleave, preload duration : 504 ms
Writing library : LAME3.98r
Encoding settings : -m j -V 4 -q 2 -lowpass 17 -b 128
[HIDE-THANKS]
Kód:
https://data.hu/get/11604063/D2055a.rar
[/HIDE-THANKS]
vagy free
[HIDE-THANKS]
Kód:
https://data.hu/get/11604057/D2055av.part1.rar
https://data.hu/get/11604059/D2055av.part2.rar
https://data.hu/get/11604060/D2055av.part3.rar
https://data.hu/get/11604064/D2055av.part4.rar
https://data.hu/get/11604058/D2055av.part5.rar
[/HIDE-THANKS]
 

papadi

Állandó Tag
Állandó Tag
3022615-20190102-P3nn0G.jpg

Hahó, a tenger!
Magyar ifjúsági film (1972)
Főszereplők: Kovács Krisztián, Muszte Anna, Balázsovits Lajos, Gobbi Hilda, Schütz Ila, György László, Csákányi László, Alfonzó, Markos Kati (Zeitler Orsi)
Rendezte: Palásthy György
Magyar filmek gyűjteménye 12.
Fantasy Film, 2006. november 15.
Tartalom a borítóról:
A szülők nagy gondban vannak. Hamarosan kisbabájuk születik, és fogalmuk sincs, hogy közöljék a hírt az első osztályos Öcsivel. Addig halogatják a dolgot, míg végül a kisfiú barátnőjétől, Évitől értesül a nagy újságról. Öcsi fel van háborodva, hogy mindent ő tud meg utoljára. Ráadásul fogalma sincs, miért örülnek szülei annyira egy idegennek, akiről azt sem tudni, fiú-e vagy lány. Mire azonban a családi Trabanttal hazaszállítják a kórházból a kis jövevényt, Öcsi is megbarátkozik a helyzettel. Még az "Öcsi" nevet is átadja a család legifjabb tagjának, és úgy dönt, ő ezután valódi keresztnevét fogja használni.
Extrák:
magyar felirat
Palásthy György Érdemes Művész (1977) - 1:19
Palásthy György forgatja a Szeleburdi családot (1981) - 1:48
Korabeli filmhíradó: Palásthy rendez: A Varázsló forgatásáról (1968) - 1:18
Ajánlók - 2:31
Média információ:
Video:
Kodek: MPEG-1/2 Video (mpgv)
Felbontás: 720x576
Képkockasebesség: 25
Képformátum: 1.37:1 (4:3)
Hang:
Kodek: A52 Audio (aka AC3) (a52)
Csatornák: 3F2R/LFE
Mintavételi frekvencia: 48000 Hz
Bitsebesség: 448 kb/mp
Formátum: iso
Méret: 3,97 GB
Műsoridő: 1:05:37 (1:12:33)
(prémium)
[HIDE-THANKS]
Kód:
https://data.hu/get/11604243/D2111i.part1.rar
https://data.hu/get/11604238/D2111i.part2.rar
https://data.hu/get/11604246/D2111i.part3.rar
https://data.hu/get/11604227/D2111i.part4.rar
[/HIDE-THANKS]

3022616-20190102-MuiTFr.jpg

Formátum: dvdrip/avi
Méret: 656 MB
Felbontás: 720x544
Mintavételi frekvencia: 48000 Hz
Bitsebesség: 128 kbps
Műsoridő: 1:05:37
Részletes média információ:
I:\Video\12 - Hahó, a tenger!.avi
General
Complete name : I:\Video\12 - Hahó, a tenger!.avi
Format : AVI
Format/Info : Audio Video Interleave
File size : 655 MiB
Duration : 1 h 5 min
Overall bit rate : 1 395 kb/s
Writing application : VirtualDubMod 1.5.4.1 (build 2178/release)
Writing library : VirtualDubMod build 2178/release
Video #0
ID : 0
Format : MPEG-4 Visual
Format profile : Advanced [email protected]
Format settings, BVOP : 1
Format settings, QPel : No
Format settings, GMC : No warppoints
Format settings, Matrix : Custom
Codec ID : XVID
Codec ID/Hint : XviD
Duration : 1 h 5 min
Bit rate : 1 259 kb/s
Width : 720 pixels
Height : 544 pixels
Display aspect ratio : 4:3
Frame rate : 25.000 FPS
Color space : YUV
Chroma subsampling : 4:2:0
Bit depth : 8 bits
Scan type : Progressive
Compression mode : Lossy
Bits/(Pixel*Frame) : 0.129
Stream size : 591 MiB (90%)
Writing library : XviD 1.2.1 (UTC 2008-12-04)
Audio #1
ID : 1
Format : MPEG Audio
Format version : Version 1
Format profile : Layer 3
Mode : Joint stereo
Mode extension : MS Stereo
Codec ID : 55
Codec ID/Hint : MP3
Duration : 1 h 5 min
Bit rate mode : Constant
Bit rate : 128 kb/s
Channel(s) : 2 channels
Sampling rate : 48.0 kHz
Compression mode : Lossy
Stream size : 60.1 MiB (9%)
Alignment : Aligned on interleaves
Interleave, duration : 80 ms (2.00 video frames)
Interleave, preload duration : 504 ms
Writing library : LAME3.98r
Encoding settings : -m j -V 4 -q 2 -lowpass 17 -b 128
[HIDE-THANKS]
Kód:
https://data.hu/get/11604235/D2111a.rar
[/HIDE-THANKS]
vagy free
[HIDE-THANKS]
Kód:
https://data.hu/get/11604232/D2111av.part1.rar
https://data.hu/get/11604228/D2111av.part2.rar
https://data.hu/get/11604233/D2111av.part3.rar
https://data.hu/get/11604244/D2111av.part4.rar
[/HIDE-THANKS]
 

papadi

Állandó Tag
Állandó Tag
3022617-20190102-2ERuhp.jpg

Kincskereső kis ködmön (Kincskereső kisködmön)
Magyar ifjúsági film (1972)
Főszereplők: Szűcs Gábor, Bihary József, Gruber István, Haumann Péter, Medgyesi Mária, Pongrácz Imre, Szirtes Ádám, Fónay Márta, Gobbi Hilda, Hegedűs Erzsébet, Vargha Irén
Rendezte: Szemes Mihály
Magyar filmek gyűjteménye 13.
Fantasy Film, 2007. január 12.
Tartalom a borítóról:
Szűcs Ferkó a nyomorban élő falusi gyermekek mindennapjait éli, de szárnyaló fantáziája segítségével a mesék és babonás történetek világába jut el. Édesapja egy gyönyörű ködmönt varr neki, melyben egy angyal vigyázza Ferkó minden lépését. Szükség is van rá, mert az öreg Küsmödi bácsi, az öreg bánya őre el akarja varázsolni, az iskolában pedig társai csúfolják. Ferkó a "csodatévő" kisködmön segítségével saját erejéből felül tud kerekedni a bajokon. Amikor új osztálytársa, a szerencsétlen sorsú kis Bicebóca ellenében csalást követ el, hogy ő nyerje el a matekdolgozat hibátlan megoldásáért járó Égbelátót, lelkiismeretfurdalás kezdi gyötörni és elhatározza, hogy minden bűnét jóvá teszi...
Extrák:
magyar felirat
Ajánló (1:41)
Média információ:
Video:
Kodek: MPEG-1/2 Video (mpgv)
Felbontás: 720x576
Képkockasebesség: 25
Képformátum: 1.37:1 (4:3)
Hang:
Kodek: A52 Audio (aka AC3) (a52)
Csatornák: 3F2R/LFE
Mintavételi frekvencia: 48000 Hz
Bitsebesség: 448 kb/mp
Formátum: iso
Méret: 4,07 GB
Műsoridő: 1:30:23
(prémium)
[HIDE-THANKS]
Kód:
https://data.hu/get/11604754/D2404i.part1.rar
https://data.hu/get/11604758/D2404i.part2.rar
https://data.hu/get/11604755/D2404i.part3.rar
https://data.hu/get/11604751/D2404i.part4.rar
https://data.hu/get/11604752/D2404i.part5.rar
[/HIDE-THANKS]

3022618-20190102-XN9yyc.jpg

Formátum: dvdrip/avi
Méret: 902 MB
Felbontás: 720x544
Mintavételi frekvencia: 48000 Hz
Bitsebesség: 128 kbps
Műsoridő: 1:30:23
Részletes média információ:
I:\Video\13 - Kincskeresö kisködmön.avi
General
Complete name : I:\Video\13 - Kincskeresö kisködmön.avi
Format : AVI
Format/Info : Audio Video Interleave
File size : 901 MiB
Duration : 1 h 30 min
Overall bit rate : 1 394 kb/s
Writing application : VirtualDubMod 1.5.4.1 (build 2178/release)
Writing library : VirtualDubMod build 2178/release
Video #0
ID : 0
Format : MPEG-4 Visual
Format profile : Advanced [email protected]
Format settings, BVOP : 1
Format settings, QPel : No
Format settings, GMC : No warppoints
Format settings, Matrix : Custom
Codec ID : XVID
Codec ID/Hint : XviD
Duration : 1 h 30 min
Bit rate : 1 258 kb/s
Width : 720 pixels
Height : 544 pixels
Display aspect ratio : 4:3
Frame rate : 25.000 FPS
Color space : YUV
Chroma subsampling : 4:2:0
Bit depth : 8 bits
Scan type : Progressive
Compression mode : Lossy
Bits/(Pixel*Frame) : 0.128
Stream size : 813 MiB (90%)
Writing library : XviD 1.2.1 (UTC 2008-12-04)
Audio #1
ID : 1
Format : MPEG Audio
Format version : Version 1
Format profile : Layer 3
Mode : Joint stereo
Mode extension : MS Stereo
Codec ID : 55
Codec ID/Hint : MP3
Duration : 1 h 30 min
Bit rate mode : Constant
Bit rate : 128 kb/s
Channel(s) : 2 channels
Sampling rate : 48.0 kHz
Compression mode : Lossy
Stream size : 82.8 MiB (9%)
Alignment : Aligned on interleaves
Interleave, duration : 80 ms (2.00 video frames)
Interleave, preload duration : 504 ms
Writing library : LAME3.98r
Encoding settings : -m j -V 4 -q 2 -lowpass 17 -b 128
[HIDE-THANKS]
Kód:
https://data.hu/get/11604753/D2404a.rar
[/HIDE-THANKS]
vagy free
[HIDE-THANKS]
Kód:
https://data.hu/get/11604750/D2404av.part1.rar
https://data.hu/get/11604760/D2404av.part2.rar
https://data.hu/get/11604761/D2404av.part3.rar
https://data.hu/get/11604759/D2404av.part4.rar
https://data.hu/get/11604757/D2404av.part5.rar
[/HIDE-THANKS]
 

papadi

Állandó Tag
Állandó Tag
3022619-20190102-hbm8Nj.jpg

Budapesti mesék
Magyar filmdráma (1976)
Főszereplők: Mészáros Ági, Maja Komorowska, Franciszek Pieczka, Bálint András, Kovács Károly, Bánsági Ildikó, Madaras József, Simon Szurmiej, Huszárik Zoltán, Békés Rita, Bodis Irén, Kun Vilmos, Halmágyi Sándor, Jani János
Rendezte: Szabó István
Magyar filmek gyűjteménye 14.
Fantasy Film, 2007. január 12.
Tartalom a borítóról:
A nagy világégés után az emberek sorban bújnak elő rejtekhelyeikről. A Duna-parton egy felborult villamoskocsi fekszik, valamikor a városban róhatta az utcákat, de most ez jelképezi azt a pusztítást, melyet a háború végzett nemcsak az országban, de a fejekben és a lelkekben is. Az emberek összefognak és óriási erőfeszítések árán visszaemelik a sínre, amely talán elvezet a remízbe, vagyis a városba, ahol mindenki új életet kezdhet. A hihetetlenül hosszú, kegyetlenül nehéz utazás során megismerhetünk emberi sorsokat, konfliktusokat, szerelmeket és a nagy utazás végén kiderül, vajon érdemes volt-e a hosszú utat végigszenvedni mindazoknak, akik vállalták, hogy a villamost tolva újra felépíthetik a várost és saját életüket...
Extrák:
angol és magyar felirat
Ajánló (1:41)
Média információ:
Video:
Kodek: MPEG-1/2 Video (mpgv)
Felbontás: 720x576
Képkockasebesség: 25
Képformátum: 1.37:1 (4:3)
Hang:
Kodek: A52 Audio (aka AC3) (a52)
Csatornák: 3F2R/LFE
Mintavételi frekvencia: 48000 Hz
Bitsebesség: 448 kb/mp
Formátum: iso
Méret: 3,98 GB
Műsoridő: 0:00:00
(prémium)
[HIDE-THANKS]
Kód:
https://data.hu/get/11605311/D2405i.part1.rar
https://data.hu/get/11605308/D2405i.part2.rar
https://data.hu/get/11605310/D2405i.part3.rar
https://data.hu/get/11605304/D2405i.part4.rar
[/HIDE-THANKS]

3022620-20190102-GbbgDM.jpg

Formátum: dvdrip/avi
Méret: 838 MB
Felbontás: 720x544
Mintavételi frekvencia: 48000 Hz
Bitsebesség: 128 kbps
Műsoridő: 1:24:06
Részletes média információ:
I:\Video\14 - Budapesti mesék.avi
General
Complete name : I:\Video\14 - Budapesti mesék.avi
Format : AVI
Format/Info : Audio Video Interleave
File size : 837 MiB
Duration : 1 h 24 min
Overall bit rate : 1 392 kb/s
Writing application : VirtualDubMod 1.5.4.1 (build 2178/release)
Writing library : VirtualDubMod build 2178/release
Video #0
ID : 0
Format : MPEG-4 Visual
Format profile : Advanced [email protected]
Format settings, BVOP : 1
Format settings, QPel : No
Format settings, GMC : No warppoints
Format settings, Matrix : Custom
Codec ID : XVID
Codec ID/Hint : XviD
Duration : 1 h 24 min
Bit rate : 1 256 kb/s
Width : 720 pixels
Height : 544 pixels
Display aspect ratio : 4:3
Frame rate : 25.000 FPS
Color space : YUV
Chroma subsampling : 4:2:0
Bit depth : 8 bits
Scan type : Progressive
Compression mode : Lossy
Bits/(Pixel*Frame) : 0.128
Stream size : 756 MiB (90%)
Writing library : XviD 1.2.1 (UTC 2008-12-04)
Audio #1
ID : 1
Format : MPEG Audio
Format version : Version 1
Format profile : Layer 3
Mode : Joint stereo
Mode extension : MS Stereo
Codec ID : 55
Codec ID/Hint : MP3
Duration : 1 h 24 min
Bit rate mode : Constant
Bit rate : 128 kb/s
Channel(s) : 2 channels
Sampling rate : 48.0 kHz
Compression mode : Lossy
Stream size : 77.0 MiB (9%)
Alignment : Aligned on interleaves
Interleave, duration : 80 ms (2.00 video frames)
Interleave, preload duration : 504 ms
Writing library : LAME3.98r
Encoding settings : -m j -V 4 -q 2 -lowpass 17 -b 128
[HIDE-THANKS]
Kód:
https://data.hu/get/11605306/D2405a.rar
[/HIDE-THANKS]
vagy free
[HIDE-THANKS]
Kód:
https://data.hu/get/11605300/D2405av.part1.rar
https://data.hu/get/11605307/D2405av.part2.rar
https://data.hu/get/11605298/D2405av.part3.rar
https://data.hu/get/11605309/D2405av.part4.rar
https://data.hu/get/11605297/D2405av.part5.rar
[/HIDE-THANKS]
 

papadi

Állandó Tag
Állandó Tag
3022623-20190102-5QCFRA.jpg

Szabadíts meg a gonosztól!
Magyar filmdráma (1978)
Főszereplők: Psota Irén, Garas Dezső, Kútvölgyi Erzsébet, Kern András, Andorai Péter, Major Tamás, Margittai Ági, Rátonyi Róbert, Horváth Jenő
Rendezte: Sándor Pál
Magyar filmek gyűjteménye 15.
Fantasy Film, 2007. január 12.
Tartalom a borítóról:
A háború vége felé járunk. A Végvári Tánciskolában folyik a táncóra. András (Kern András) a ruhatáros Adorjánné fia kihasználva a légiriadó okozta zűrzavart, ellop egy kabátot, hogy miután eladta, a pénzből megvásárolhassa egy örömlány szolgáltatásait. A ruhatárosnő (Psota Irén) gyermekei és sógora, Svéd Feri (Garas Dezső) segítségével útnak indul, hogy visszaszerezze a kabátot és vele együtt becsületét. Útjuk valóságos pokoljárás a háború sújtotta város örömtanyáinak, sikátorainak, fürdőházainak fullasztó világában. A kabát megkerül ugyan, de a becsület örökre elveszett, azokkal az emberekkel együtt, akiknek emiatt meg kell halniuk...
Extrák:
angol és magyar felirat
Ajánló (1:41)
Média információ:
Video:
Kodek: MPEG-1/2 Video (mpgv)
Felbontás: 720x576
Képkockasebesség: 25
Képformátum: 1.37:1 (4:3)
Hang:
Kodek: A52 Audio (aka AC3) (a52)
Csatornák: 3F2R/LFE
Mintavételi frekvencia: 48000 Hz
Bitsebesség: 448 kb/mp
Formátum: iso
Méret: 3,97 GB
Műsoridő: 0:00:00
(prémium)
[HIDE-THANKS]
Kód:
https://data.hu/get/11605822/D2411i.part1.rar
https://data.hu/get/11605845/D2411i.part2.rar
https://data.hu/get/11605820/D2411i.part3.rar
https://data.hu/get/11605821/D2411i.part4.rar
[/HIDE-THANKS]

3022624-20190102-vHs8H9.jpg

Formátum: dvdrip/avi
Méret: 877 MB
Felbontás: 720x544
Mintavételi frekvencia: 48000 Hz
Bitsebesség: 128 kbps
Műsoridő: 1:27:38
Részletes média információ:
I:\Video\15 - Szabadits meg a gonosztól.avi
General
Complete name : I:\Video\15 - Szabadits meg a gonosztól.avi
Format : AVI
Format/Info : Audio Video Interleave
File size : 876 MiB
Duration : 1 h 27 min
Overall bit rate : 1 398 kb/s
Writing application : VirtualDubMod 1.5.4.1 (build 2178/release)
Writing library : VirtualDubMod build 2178/release
Video #0
ID : 0
Format : MPEG-4 Visual
Format profile : Advanced [email protected]
Format settings, BVOP : 1
Format settings, QPel : No
Format settings, GMC : No warppoints
Format settings, Matrix : Custom
Codec ID : XVID
Codec ID/Hint : XviD
Duration : 1 h 27 min
Bit rate : 1 262 kb/s
Width : 720 pixels
Height : 544 pixels
Display aspect ratio : 4:3
Frame rate : 25.000 FPS
Color space : YUV
Chroma subsampling : 4:2:0
Bit depth : 8 bits
Scan type : Progressive
Compression mode : Lossy
Bits/(Pixel*Frame) : 0.129
Stream size : 791 MiB (90%)
Writing library : XviD 1.2.1 (UTC 2008-12-04)
Audio #1
ID : 1
Format : MPEG Audio
Format version : Version 1
Format profile : Layer 3
Mode : Joint stereo
Mode extension : MS Stereo
Codec ID : 55
Codec ID/Hint : MP3
Duration : 1 h 27 min
Bit rate mode : Constant
Bit rate : 128 kb/s
Channel(s) : 2 channels
Sampling rate : 48.0 kHz
Compression mode : Lossy
Stream size : 80.2 MiB (9%)
Alignment : Aligned on interleaves
Interleave, duration : 80 ms (2.00 video frames)
Interleave, preload duration : 504 ms
Writing library : LAME3.98r
Encoding settings : -m j -V 4 -q 2 -lowpass 17 -b 128
[HIDE-THANKS]
Kód:
https://data.hu/get/11605844/D2411a.rar
[/HIDE-THANKS]
vagy free
[HIDE-THANKS]
Kód:
https://data.hu/get/11605819/D2411av.part1.rar
https://data.hu/get/11605815/D2411av.part2.rar
https://data.hu/get/11605817/D2411av.part3.rar
https://data.hu/get/11605818/D2411av.part4.rar
https://data.hu/get/11605816/D2411av.part5.rar
[/HIDE-THANKS]
 

papadi

Állandó Tag
Állandó Tag
3022625-20190102-IymhWS.jpg

Idő van
Magyar filmdráma (1985)
Főszereplők: Lázár Kati, Zala Márk, Ruttkai Éva, Bitskey Tibor, Cseh Tamás, Bodrogi Gyula, Básti Juli, Kern András
Rendezte: Gothár Péter
Magyar filmek gyűjteménye 16.
Fantasy Film, 2007. január 12.
Tartalom a borítóról:
Halasi Mihály igazi magyar átlagember a '80-as évekből, aki pár hétre otthagyja a gyárat, bepattan a Trabantba feleségével és két gyerekével, aztán irány a vállalati üdülő. Még az M7-esre sem jut ki, amikor egy apró kellemetlenség kizökkenti az eseményeket a normális kerékvágásból. Misi rájön, hogy bent felejtette a gyárban a nemrég vásárolt vibrátort. Ettől kezdve útja kaotikus sodródás egy abszurd, kafkai világban: portásokkal vív fegyveres összecsapást, felesége bizarr betegsége ellen küzd, kórházi folyosók labirintusaiban kóvályog, szadista ellenőrnő áldozatául esik. Kálváriájában hősünk szenvedéseit anyja és testvére sem tudja enyhíteni. Egyedül kell megértenie, hogy élete nem fog önmagától értelmes történetté összeállni. Az embernek magának kell a lét komikus-fájdalmas összevisszaságában találni egy vezérfonalat, mely számára igazán lényeges - méghozzá sürgősen, mert: "Idő van".
Extrák:
angol és magyar felirat
Ajánló (1:41)
Média információ:
Video:
Kodek: MPEG-1/2 Video (mpgv)
Felbontás: 720x576
Képkockasebesség: 25
Képformátum: 1.37:1 (4:3)
Hang:
Kodek: A52 Audio (aka AC3) (a52)
Csatornák: 3F2R/LFE
Mintavételi frekvencia: 48000 Hz
Bitsebesség: 448 kb/mp
Formátum: iso
Méret: 4,34 GB
Műsoridő: 1:40:53
(prémium)
[HIDE-THANKS]
Kód:
https://data.hu/get/11606139/D2412i.part1.rar
https://data.hu/get/11606060/D2412i.part2.rar
https://data.hu/get/11606135/D2412i.part3.rar
https://data.hu/get/11606131/D2412i.part4.rar
https://data.hu/get/11606134/D2412i.part5.rar
[/HIDE-THANKS]

3022626-20190102-suKwCt.jpg

Formátum: dvdrip/avi
Méret: 0,98 GB
Felbontás: 720x544
Mintavételi frekvencia: 48000 Hz
Bitsebesség: 128 kbps
Műsoridő: 1:40:53
Részletes média információ:
I:\Video\16 - Idö van.avi
General
Complete name : I:\Video\16 - Idö van.avi
Format : AVI
Format/Info : Audio Video Interleave
File size : 1 006 MiB
Duration : 1 h 40 min
Overall bit rate : 1 394 kb/s
Writing application : VirtualDubMod 1.5.4.1 (build 2178/release)
Writing library : VirtualDubMod build 2178/release
Video #0
ID : 0
Format : MPEG-4 Visual
Format profile : Advanced [email protected]
Format settings, BVOP : 1
Format settings, QPel : No
Format settings, GMC : No warppoints
Format settings, Matrix : Custom
Codec ID : XVID
Codec ID/Hint : XviD
Duration : 1 h 40 min
Bit rate : 1 259 kb/s
Width : 720 pixels
Height : 544 pixels
Display aspect ratio : 4:3
Frame rate : 25.000 FPS
Color space : YUV
Chroma subsampling : 4:2:0
Bit depth : 8 bits
Scan type : Progressive
Compression mode : Lossy
Bits/(Pixel*Frame) : 0.129
Stream size : 908 MiB (90%)
Writing library : XviD 1.2.1 (UTC 2008-12-04)
Audio #1
ID : 1
Format : MPEG Audio
Format version : Version 1
Format profile : Layer 3
Mode : Joint stereo
Mode extension : MS Stereo
Codec ID : 55
Codec ID/Hint : MP3
Duration : 1 h 40 min
Bit rate mode : Constant
Bit rate : 128 kb/s
Channel(s) : 2 channels
Sampling rate : 48.0 kHz
Compression mode : Lossy
Stream size : 92.4 MiB (9%)
Alignment : Aligned on interleaves
Interleave, duration : 80 ms (2.00 video frames)
Interleave, preload duration : 504 ms
Writing library : LAME3.98r
Encoding settings : -m j -V 4 -q 2 -lowpass 17 -b 128
[HIDE-THANKS]
Kód:
https://data.hu/get/11606064/D2412a.part1.rar
https://data.hu/get/11606137/D2412a.part2.rar
[/HIDE-THANKS]
vagy free
[HIDE-THANKS]
Kód:
https://data.hu/get/11606063/D2412av.part1.rar
https://data.hu/get/11606136/D2412av.part2.rar
https://data.hu/get/11606065/D2412av.part3.rar
https://data.hu/get/11606138/D2412av.part4.rar
https://data.hu/get/11606133/D2412av.part5.rar
https://data.hu/get/11606132/D2412av.part6.rar
[/HIDE-THANKS]
 

papadi

Állandó Tag
Állandó Tag
3022635-20190102-OgO9Ho.jpg

A skorpió megeszi az ikreket reggelire
Magyar filmvígjáték (1991)
Főszereplők: Rudolf Péter, Eszenyi Enikő, Törőcsik Mari, Garas Dezső
Rendezte: Gárdos Péter
Magyar filmek gyűjteménye 17.
Fantasy Film, 2007. január 12.
Tartalom a borítóról:
Tamás mintaférj. Ő a világ legboldogabb embere, mikor megszületik a kislánya. Egy telefonfülkéből akarja közölni az örömhírt szeretett nagyanyjával, de félretárcsáz. Panni, a gyönyörű fényképésznő veszi fel a telefont, s Tamás tíz perc múlva már ott csókolódzik a szőke ciklonnal a fülkében. Mindketten tudják, hogy ez a kapcsolat tönkre fogja tenni őket, s ráadásul a családjukat is. Még sincs megállás. Tamás élete fenekestül felfordul. Az ikrek szülöttjét magával rántja a skorpió lány viharos szerelme, a vad féltékenység, a pokoli szenvedés és a földöntúli boldogság. Tamás családja Ausztráliába költözik, nagyanyja meghal. Ő pedig magára marad, mert - ahogy mindig is tudta - Panni végül nem lesz az övé.
Extrák:
angol és magyar felirat
Interjú Gárdos Péter rendezővel pályafutásáról (14:50)
Interjú Rudolf Péterrel, a film főszereplőjével (12:31)
Gárdos Péter - Teljes rendezői filmográfia
Ajánló (2:31)
Média információ:
Video:
Kodek: MPEG-1/2 Video (mpgv)
Felbontás: 720x576
Képkockasebesség: 25
Képformátum: 1.37:1 (4:3)
Hang:
Kodek: A52 Audio (aka AC3) (a52)
Csatornák: 3F2R/LFE
Mintavételi frekvencia: 48000 Hz
Bitsebesség: 448 kb/mp
Formátum: iso
Méret: 5,49 GB
Műsoridő: 1:29:15 (1:59:08)
(prémium)
[HIDE-THANKS]
Kód:
https://data.hu/get/11606583/D2057i.part1.rar
https://data.hu/get/11606582/D2057i.part2.rar
https://data.hu/get/11606584/D2057i.part3.rar
https://data.hu/get/11606578/D2057i.part4.rar
https://data.hu/get/11606571/D2057i.part5.rar
https://data.hu/get/11606580/D2057i.part6.rar
[/HIDE-THANKS]

3022636-20190102-OXvqv0.jpg

Formátum: dvdrip/avi
Méret: 892 MB
Felbontás: 720x544
Mintavételi frekvencia: 48000 Hz
Bitsebesség: 128 kbps
Műsoridő: 1:29:15
Részletes média információ:
I:\Video\17 - A skorpió megeszi az ikreket reggelire.avi
General
Complete name : I:\Video\17 - A skorpió megeszi az ikreket reggelire.avi
Format : AVI
Format/Info : Audio Video Interleave
File size : 891 MiB
Duration : 1 h 29 min
Overall bit rate : 1 396 kb/s
Writing application : VirtualDubMod 1.5.4.1 (build 2178/release)
Writing library : VirtualDubMod build 2178/release
Video #0
ID : 0
Format : MPEG-4 Visual
Format profile : Advanced [email protected]
Format settings, BVOP : 1
Format settings, QPel : No
Format settings, GMC : No warppoints
Format settings, Matrix : Custom
Codec ID : XVID
Codec ID/Hint : XviD
Duration : 1 h 29 min
Bit rate : 1 261 kb/s
Width : 720 pixels
Height : 544 pixels
Display aspect ratio : 4:3
Frame rate : 25.000 FPS
Color space : YUV
Chroma subsampling : 4:2:0
Bit depth : 8 bits
Scan type : Progressive
Compression mode : Lossy
Bits/(Pixel*Frame) : 0.129
Stream size : 805 MiB (90%)
Writing library : XviD 1.2.1 (UTC 2008-12-04)
Audio #1
ID : 1
Format : MPEG Audio
Format version : Version 1
Format profile : Layer 3
Mode : Joint stereo
Mode extension : MS Stereo
Codec ID : 55
Codec ID/Hint : MP3
Duration : 1 h 29 min
Bit rate mode : Constant
Bit rate : 128 kb/s
Channel(s) : 2 channels
Sampling rate : 48.0 kHz
Compression mode : Lossy
Stream size : 81.7 MiB (9%)
Alignment : Aligned on interleaves
Interleave, duration : 80 ms (2.00 video frames)
Interleave, preload duration : 504 ms
Writing library : LAME3.98r
Encoding settings : -m j -V 4 -q 2 -lowpass 17 -b 128
[HIDE-THANKS]
Kód:
https://data.hu/get/11606581/D2057a.rar
[/HIDE-THANKS]
vagy free
[HIDE-THANKS]
Kód:
https://data.hu/get/11606579/D2057av.part1.rar
https://data.hu/get/11606568/D2057av.part2.rar
https://data.hu/get/11606573/D2057av.part3.rar
https://data.hu/get/11606574/D2057av.part4.rar
https://data.hu/get/11606572/D2057av.part5.rar
[/HIDE-THANKS]
 

papadi

Állandó Tag
Állandó Tag
3022637-20190102-Q9AhIW.jpg

Én vagyok Jeromos
Magyar vígjáték (1970)
Főszereplők: Alfonzó, Kállai Ferenc, Psota Irén, Harsányi Gábor, Pálos Zsuzsa, Bujtor István
Rendezte: Tímár István
Magyar filmek gyűjteménye 18.
Fantasy Film, 2007. január 12.
Tartalom a borítóról:
A Katona-házaspár régi álma, hogy végre valaki rendbe hozza a kertjük végében éktelenkedő pöcegödröt. Amikor egy reggel arra ébrednek, hogy a Fenntartó Vállalat dolgozója csönget be hozzájuk, felcsillan a remény. Jeromos úr és fia, Zserom munkamorálja azonban siralmas, hiába birtokolják már évek óta az állami vándorzászlót. A sör fogy, a táskarádióból üvölt a zene, a fű pedig lassacskán kikopik a pihenő munkások alatt, akik "modellt alszanak" az amatőr festő Katonánénak. A gödör viszont marad. Végül Katonáné és az asszisztens, Juditka bevetik magukat az ügy érdekében. Divatos bikinijük és kitűnő csirkepaprikásuk - némi jóféle házi pálinkával kísérve persze - meghozza a várt eredményt. A dolgozók munkakedve oly mértékben megjavul, hogy egyetlen éjszaka leforgása alatt elkészül a vadonatúj pöcegödör.
Extrák:
angol és magyar felirat
Ajánló (1:41)
Média információ:
Video:
Kodek: MPEG-1/2 Video (mpgv)
Felbontás: 720x576
Képkockasebesség: 25
Képformátum: 1.85:1 (16:9)
Hang:
Kodek: A52 Audio (aka AC3) (a52)
Csatornák: 3F2R/LFE
Mintavételi frekvencia: 48000 Hz
Bitsebesség: 448 kb/mp
Formátum: iso
Méret: 4,10 GB
Műsoridő: 1:13:12
(prémium)
[HIDE-THANKS]
Kód:
https://data.hu/get/11607129/D2413i.part1.rar
https://data.hu/get/11607132/D2413i.part2.rar
https://data.hu/get/11607127/D2413i.part3.rar
https://data.hu/get/11607130/D2413i.part4.rar
https://data.hu/get/11607128/D2413i.part5.rar
[/HIDE-THANKS]

3022638-20190102-PxNilt.jpg

Formátum: dvdrip/avi
Méret: 733 MB
Felbontás: 720x416
Mintavételi frekvencia: 48000 Hz
Bitsebesség: 128 kbps
Műsoridő: 1:13:12
Részletes média információ:
I:\Video\18 - Én vagyok Jeromos.avi
General
Complete name : I:\Video\18 - Én vagyok Jeromos.avi
Format : AVI
Format/Info : Audio Video Interleave
File size : 732 MiB
Duration : 1 h 13 min
Overall bit rate : 1 398 kb/s
Writing application : VirtualDubMod 1.5.4.1 (build 2178/release)
Writing library : VirtualDubMod build 2178/release
Video #0
ID : 0
Format : MPEG-4 Visual
Format profile : Advanced [email protected]
Format settings, BVOP : 1
Format settings, QPel : No
Format settings, GMC : No warppoints
Format settings, Matrix : Custom
Codec ID : XVID
Codec ID/Hint : XviD
Duration : 1 h 13 min
Bit rate : 1 263 kb/s
Width : 720 pixels
Height : 416 pixels
Display aspect ratio : 1.731
Frame rate : 25.000 FPS
Color space : YUV
Chroma subsampling : 4:2:0
Bit depth : 8 bits
Scan type : Progressive
Compression mode : Lossy
Bits/(Pixel*Frame) : 0.169
Stream size : 661 MiB (90%)
Writing library : XviD 1.2.1 (UTC 2008-12-04)
Audio #1
ID : 1
Format : MPEG Audio
Format version : Version 1
Format profile : Layer 3
Mode : Joint stereo
Mode extension : MS Stereo
Codec ID : 55
Codec ID/Hint : MP3
Duration : 1 h 13 min
Bit rate mode : Constant
Bit rate : 128 kb/s
Channel(s) : 2 channels
Sampling rate : 48.0 kHz
Compression mode : Lossy
Stream size : 67.0 MiB (9%)
Alignment : Aligned on interleaves
Interleave, duration : 80 ms (2.00 video frames)
Interleave, preload duration : 504 ms
Writing library : LAME3.98r
Encoding settings : -m j -V 4 -q 2 -lowpass 17 -b 128
[HIDE-THANKS]
Kód:
https://data.hu/get/11606924/D2413a.rar
[/HIDE-THANKS]
vagy free
[HIDE-THANKS]
Kód:
https://data.hu/get/11606920/D2413av.part1.rar
https://data.hu/get/11606919/D2413av.part2.rar
https://data.hu/get/11606921/D2413av.part3.rar
https://data.hu/get/11606927/D2413av.part4.rar
[/HIDE-THANKS]
 

papadi

Állandó Tag
Állandó Tag
3022640-20190102-h62Fjp.jpg

Falfúró
Magyar filmszatíra (1985)
Főszereplők: Bán János, Szatler Renáta, Szirtes Ági, Andorai Péter, Ujlaki Dénes
Rendezte: Szomjas György
Magyar filmek gyűjteménye 19.
Fantasy Film, 2006. október 26.
Tartalom a borítóról:
Géza (Bán János) egy lakótelepen él feleségével és két gyermekével. Egy napon elhatározza, hogy szakít minden kötöttséggel és új életet kezd. Még aznap ráborítja a művezetőjére az asztalt és kilép a gyárból. Önálló vállalkozásba kezd a lakótelepen, mint falfúró kisiparos. Így jut be könnyűvérű szomszédasszonya lakásába is, akivel szexuális viszonyt kezd és miatta a családját is otthagyja.
Extrák:
magyar felirat
Ajánló (1:41)
Média információ:
Video:
Kodek: MPEG-1/2 Video (mpgv)
Felbontás: 720x576
Képkockasebesség: 25
Képformátum: 1.37:1 (4:3)
Hang:
Kodek: A52 Audio (aka AC3) (a52)
Csatornák: 3F2R/LFE
Mintavételi frekvencia: 48000 Hz
Bitsebesség: 448 kb/mp
Formátum: iso
Méret: 4,16 GB
Műsoridő: 1:32:31
(prémium)
[HIDE-THANKS]
Kód:
https://data.hu/get/11607249/D2414i.part1.rar
https://data.hu/get/11607244/D2414i.part2.rar
https://data.hu/get/11607239/D2414i.part3.rar
https://data.hu/get/11607238/D2414i.part4.rar
https://data.hu/get/11607250/D2414i.part5.rar
[/HIDE-THANKS]

3022641-20190102-Fudh0V.jpg

Formátum: dvdrip/avi
Méret: 925 MB
Felbontás: 720x544
Mintavételi frekvencia: 48000 Hz
Bitsebesség: 128 kbps
Műsoridő: 1:32:30
Részletes média információ:
I:\Video\19 - Falfúró.avi
General
Complete name : I:\Video\19 - Falfúró.avi
Format : AVI
Format/Info : Audio Video Interleave
File size : 924 MiB
Duration : 1 h 32 min
Overall bit rate : 1 396 kb/s
Writing application : VirtualDubMod 1.5.4.1 (build 2178/release)
Writing library : VirtualDubMod build 2178/release
Video #0
ID : 0
Format : MPEG-4 Visual
Format profile : Advanced [email protected]
Format settings, BVOP : 1
Format settings, QPel : No
Format settings, GMC : No warppoints
Format settings, Matrix : Custom
Codec ID : XVID
Codec ID/Hint : XviD
Duration : 1 h 32 min
Bit rate : 1 260 kb/s
Width : 720 pixels
Height : 544 pixels
Display aspect ratio : 4:3
Frame rate : 25.000 FPS
Color space : YUV
Chroma subsampling : 4:2:0
Bit depth : 8 bits
Scan type : Progressive
Compression mode : Lossy
Bits/(Pixel*Frame) : 0.129
Stream size : 834 MiB (90%)
Writing library : XviD 1.2.1 (UTC 2008-12-04)
Audio #1
ID : 1
Format : MPEG Audio
Format version : Version 1
Format profile : Layer 3
Mode : Joint stereo
Mode extension : MS Stereo
Codec ID : 55
Codec ID/Hint : MP3
Duration : 1 h 32 min
Bit rate mode : Constant
Bit rate : 128 kb/s
Channel(s) : 2 channels
Sampling rate : 48.0 kHz
Compression mode : Lossy
Stream size : 84.7 MiB (9%)
Alignment : Aligned on interleaves
Interleave, duration : 80 ms (2.00 video frames)
Interleave, preload duration : 504 ms
Writing library : LAME3.98r
Encoding settings : -m j -V 4 -q 2 -lowpass 17 -b 128
[HIDE-THANKS]
Kód:
https://data.hu/get/11607247/D2414a.rar
[/HIDE-THANKS]
vagy free
[HIDE-THANKS]
Kód:
https://data.hu/get/11607248/D2414av.part1.rar
https://data.hu/get/11607246/D2414av.part2.rar
https://data.hu/get/11607240/D2414av.part3.rar
https://data.hu/get/11607241/D2414av.part4.rar
https://data.hu/get/11607245/D2414av.part5.rar
[/HIDE-THANKS]
 

papadi

Állandó Tag
Állandó Tag
3022642-20190102-Juucmu.jpg

A turné
Magyar filmvígjáték (1993)
Főszereplők: Eperjes Károly, Törőcsik Mari, Benedek Miklós, Bordán Irén, Ternyák Zoltán, Börcsök Enikő, Bezerédi Zoltán, Cseh Tamás
Rendezte: Bereményi Géza
Magyar filmek gyűjteménye 20.
Fantasy Film, 2007. január 12.
Tartalom a borítóról:
Vége az évadnak, közeleg a nyár. A színtársulatból páran úgy gondolják, csinos extrapénzre tehetnek szert, ha 40 nap alatt végigszáguldanak az országon, és lenyomnak 90 előadást. Hogy kemény menet lesz, azt mind sejtik. "Ha szerettek, én végig tudom csinálni." - mondja a társulat sztárja, Tibor (Eperjes Károly). De úgy tűnik, túl hosszú a negyven nap, és főleg a negyven éjszaka, túl zűrös a színészek lelkivilága. Kuszák a viszonyok, hiányzik a szeretet és szorít az idő. Tibor megérzi: ebbe az útba fog beledögleni.
Extrák:
magyar felirat
Interjú Beremányi Géza rendezővel pályafutásáról (22:46)
Bereményi Géza "A turné" forgatásáról (14:10)
Bereményi Géza - Teljes rendezői és forgatóókönyvírói filmográfia
Ajánló (2:31)
Média információ:
Video:
Kodek: MPEG-1/2 Video (mpgv)
Felbontás: 720x576
Képkockasebesség: 25
Képformátum: 1.37:1 (4:3)
Hang:
Kodek: A52 Audio (aka AC3) (a52)
Csatornák: 3F2R/LFE
Mintavételi frekvencia: 48000 Hz
Bitsebesség: 448 kb/mp
Formátum: iso
Méret: 5,67 GB
Műsoridő: 1:29:30 (2:08:59)
(prémium)
[HIDE-THANKS]
Kód:
https://data.hu/get/11607611/D2415i.part1.rar
https://data.hu/get/11607607/D2415i.part2.rar
https://data.hu/get/11607609/D2415i.part3.rar
https://data.hu/get/11607613/D2415i.part4.rar
https://data.hu/get/11607612/D2415i.part5.rar
https://data.hu/get/11607604/D2415i.part6.rar
[/HIDE-THANKS]

3022643-20190102-XZFR9X.jpg

Formátum: dvdrip/avi
Méret: 896 MB
Felbontás: 720x544
Mintavételi frekvencia: 48000 Hz
Bitsebesség: 128 kbps
Műsoridő: 1:29:29
Részletes média információ:
I:\Video\20 - A turné.avi
General
Complete name : I:\Video\20 - A turné.avi
Format : AVI
Format/Info : Audio Video Interleave
File size : 895 MiB
Duration : 1 h 29 min
Overall bit rate : 1 398 kb/s
Writing application : VirtualDubMod 1.5.4.1 (build 2178/release)
Writing library : VirtualDubMod build 2178/release
Video #0
ID : 0
Format : MPEG-4 Visual
Format profile : Advanced [email protected]
Format settings, BVOP : 1
Format settings, QPel : No
Format settings, GMC : No warppoints
Format settings, Matrix : Custom
Codec ID : XVID
Codec ID/Hint : XviD
Duration : 1 h 29 min
Bit rate : 1 262 kb/s
Width : 720 pixels
Height : 544 pixels
Display aspect ratio : 4:3
Frame rate : 25.000 FPS
Color space : YUV
Chroma subsampling : 4:2:0
Bit depth : 8 bits
Scan type : Progressive
Compression mode : Lossy
Bits/(Pixel*Frame) : 0.129
Stream size : 808 MiB (90%)
Writing library : XviD 1.2.1 (UTC 2008-12-04)
Audio #1
ID : 1
Format : MPEG Audio
Format version : Version 1
Format profile : Layer 3
Mode : Joint stereo
Mode extension : MS Stereo
Codec ID : 55
Codec ID/Hint : MP3
Duration : 1 h 29 min
Bit rate mode : Constant
Bit rate : 128 kb/s
Channel(s) : 2 channels
Sampling rate : 48.0 kHz
Compression mode : Lossy
Stream size : 81.9 MiB (9%)
Alignment : Aligned on interleaves
Interleave, duration : 80 ms (2.00 video frames)
Interleave, preload duration : 504 ms
Writing library : LAME3.98r
Encoding settings : -m j -V 4 -q 2 -lowpass 17 -b 128
[HIDE-THANKS]
Kód:
https://data.hu/get/11607614/D2415a.rar
[/HIDE-THANKS]
vagy free
[HIDE-THANKS]
Kód:
https://data.hu/get/11607610/D2415av.part1.rar
https://data.hu/get/11607606/D2415av.part2.rar
https://data.hu/get/11607615/D2415av.part3.rar
https://data.hu/get/11607605/D2415av.part4.rar
https://data.hu/get/11607608/D2415av.part5.rar
[/HIDE-THANKS]
 

papadi

Állandó Tag
Állandó Tag
3022654-20190102-UuCCUk.jpg

Ripacsok
Magyar film (1980)
Főszereplők: Garas Dezső, Kern András, Udvaros Dorottya, Bárdi György, Major Tamás, Temessy Hédi
Rendezte: Sándor Pál
Magyar filmek gyűjteménye 21.
Fantasy Film, 2006 október 26.
Tartalom a borítóról:
Stock Ede (Garas Dezső) és Salamon András (Kern András) már évek óta ugyanazt a giccses kuplét adja elő estéről estére a "légnadrágban". András azonban hirtelen gondol egyet és lecseréli Edét Bogárkára (Udvaros Dorottya), a főnök szeretőjére. A csere nem váltja be András reményeit, az élet Bogárkával sem boldogabb. Ede is szenved, olyannyira, hogy kétszer is András életére tör. Családjuk és barátaik aggódva figyelik, ahogy kapcsolatuk elmérgesedik, de tehetetlenek. A szakítás mindkettőjüket rákényszeríti, hogy végiggondolják, mit tartanak igazán fontosnak az életben, és végül az elcsépelt dal is új tartalommal telik meg...
Extrák:
angol és magyar felirat
Exluzív interjú Sándor Pállal pályájáról, filmjeiről (17:32)
Sándor Pál a Ripacsok forgatásáról (12:55)
Sándor Pál életrajz és teljes filmográfia
Ajánló (2:31)
Média információ:
Video:
Kodek: MPEG-1/2 Video (mpgv)
Felbontás: 720x576
Képkockasebesség: 25
Képformátum: 1.37:1 (4:3)
Hang:
Kodek: A52 Audio (aka AC3) (a52)
Csatornák: 3F2R/LFE
Mintavételi frekvencia: 48000 Hz
Bitsebesség: 448 kb/mp
Formátum: iso
Méret: 5,71 GB
Műsoridő: 1:29:21 (2:02:23)
(prémium)
[HIDE-THANKS]
Kód:
https://data.hu/get/11607811/D2112i.part1.rar
https://data.hu/get/11607816/D2112i.part2.rar
https://data.hu/get/11607804/D2112i.part3.rar
https://data.hu/get/11607825/D2112i.part4.rar
https://data.hu/get/11607806/D2112i.part5.rar
https://data.hu/get/11607820/D2112i.part6.rar
[/HIDE-THANKS]

3022655-20190102-VRElTa.jpg

Formátum: dvdrip/avi
Méret: 895 MB
Felbontás: 720x544
Mintavételi frekvencia: 48000 Hz
Bitsebesség: 128 kbps
Műsoridő: 1:29:20
Részletes média információ:
I:\Video\21 - Ripacsok.avi
General
Complete name : I:\Video\21 - Ripacsok.avi
Format : AVI
Format/Info : Audio Video Interleave
File size : 893 MiB
Duration : 1 h 29 min
Overall bit rate : 1 398 kb/s
Writing application : VirtualDubMod 1.5.4.1 (build 2178/release)
Writing library : VirtualDubMod build 2178/release
Video #0
ID : 0
Format : MPEG-4 Visual
Format profile : Advanced [email protected]
Format settings, BVOP : 1
Format settings, QPel : No
Format settings, GMC : No warppoints
Format settings, Matrix : Custom
Codec ID : XVID
Codec ID/Hint : XviD
Duration : 1 h 29 min
Bit rate : 1 263 kb/s
Width : 720 pixels
Height : 544 pixels
Display aspect ratio : 4:3
Frame rate : 25.000 FPS
Color space : YUV
Chroma subsampling : 4:2:0
Bit depth : 8 bits
Scan type : Progressive
Compression mode : Lossy
Bits/(Pixel*Frame) : 0.129
Stream size : 807 MiB (90%)
Writing library : XviD 1.2.1 (UTC 2008-12-04)
Audio #1
ID : 1
Format : MPEG Audio
Format version : Version 1
Format profile : Layer 3
Mode : Joint stereo
Mode extension : MS Stereo
Codec ID : 55
Codec ID/Hint : MP3
Duration : 1 h 29 min
Bit rate mode : Constant
Bit rate : 128 kb/s
Channel(s) : 2 channels
Sampling rate : 48.0 kHz
Compression mode : Lossy
Stream size : 81.8 MiB (9%)
Alignment : Aligned on interleaves
Interleave, duration : 80 ms (2.00 video frames)
Interleave, preload duration : 504 ms
Writing library : LAME3.98r
Encoding settings : -m j -V 4 -q 2 -lowpass 17 -b 128
[HIDE-THANKS]
Kód:
https://data.hu/get/11607823/D2112a.rar
[/HIDE-THANKS]
vagy free
[HIDE-THANKS]
Kód:
https://data.hu/get/11607817/D2112av.part1.rar
https://data.hu/get/11607805/D2112av.part2.rar
https://data.hu/get/11607819/D2112av.part3.rar
https://data.hu/get/11607812/D2112av.part4.rar
https://data.hu/get/11607821/D2112av.part5.rar
[/HIDE-THANKS]
 

papadi

Állandó Tag
Állandó Tag
3022656-20190102-F7twd3.jpg

Kopaszkutya
Magyar zenés film (1981)
Főszereplők: Deák „Bill” Gyula, Földes László (Hobo), Kőrös József, Mareczky István, Pálmai Zoltán, Póka Egon, Schuszter Lóránt, Szász László, Szénich János
Rendezte: Szomjas György
Magyar filmek gyűjteménye 22.
Fantasy Film, 2006 október 26.
Tartalom a borítóról:
"Le kell menni kutyába, légy a kutyák királya!" - üvölti a mikrofonba Bill és Hobo többezer tabáni rajongó előtt. Hosszú volt az út, amíg a lepukkant vidéki művházakban turnézó, feldolgozásokat előadó zenekarból igazi rockbanda lett. A menedzser (Schuszter Lóránt) vérző orral hallgatja a "Hosszúlábú asszonyt", miután a banda tagjai a koncert előtt módszeresen végigverték, mert nem jött ki a tévé. Miközben mégis csak neki köszönhető a siker, igaz, erre már senki sem emlékszik…
Szomjas György kultuszfilmje igazi magyar rock-karriertörténet, a 80-as évek életérzésének tökéletes lenyomata, és nem utolsósorban a legjobb zenés filmek egyike, melyben a Hobo Blues Band mellett a korszak legnagyobb zenekarainak dalai, (P. Mobil, Omega, Rolling Stones) is elhangzanak.

Extrák:
angol és magyar felirat
Privát rocktörténet: Hobo Blues Band (A Filmmúzeum dokumentumfilmje) (59:06)
Szomjas György rendezői filmográfia
Ajánló (2:31)
3022658-20190102-hA7I95.jpg

Privát rocktörténet 10.: Hobo Blues Band
Magyar dokumentumfilm (2006)
Műsorvezető: Veress Dóra, Narrátor: Magyar Kinga
Szerkesztő-rendező: Gellért Gábor
Média információ:
Video:
Kodek: MPEG-1/2 Video (mpgv)
Felbontás: 720x576
Képkockasebesség: 25
Képformátum: 1.37:1 (4:3)
Hang:
Kodek: A52 Audio (aka AC3) (a52)
Csatornák: 3F2R/LFE
Mintavételi frekvencia: 48000 Hz
Bitsebesség: 448 kb/mp
Formátum: iso
Méret: 7,86 GB
Műsoridő: 1:35:25 (2:37:03)
(prémium)
[HIDE-THANKS]
Kód:
https://data.hu/get/11608257/D2118i.part01.rar
https://data.hu/get/11608256/D2118i.part02.rar
https://data.hu/get/11608251/D2118i.part03.rar
https://data.hu/get/11608255/D2118i.part04.rar
https://data.hu/get/11608252/D2118i.part05.rar
https://data.hu/get/11608253/D2118i.part06.rar
https://data.hu/get/11608250/D2118i.part07.rar
https://data.hu/get/11608254/D2118i.part08.rar
[/HIDE-THANKS]

3022657-20190102-HPs813.jpg

Formátum: dvdrip/avi
Méret: 953 MB
Felbontás: 720x544
Mintavételi frekvencia: 48000 Hz
Bitsebesség: 128 kbps
Műsoridő: 1:35:25
Részletes média információ:
I:\Video\22a - Kopaszkutya.avi
General
Complete name : I:\Video\22a - Kopaszkutya.avi
Format : AVI
Format/Info : Audio Video Interleave
File size : 952 MiB
Duration : 1 h 35 min
Overall bit rate : 1 395 kb/s
Writing application : VirtualDubMod 1.5.4.1 (build 2178/release)
Writing library : VirtualDubMod build 2178/release
Video #0
ID : 0
Format : MPEG-4 Visual
Format profile : Advanced [email protected]
Format settings, BVOP : 1
Format settings, QPel : No
Format settings, GMC : No warppoints
Format settings, Matrix : Custom
Codec ID : XVID
Codec ID/Hint : XviD
Duration : 1 h 35 min
Bit rate : 1 259 kb/s
Width : 720 pixels
Height : 544 pixels
Display aspect ratio : 4:3
Frame rate : 25.000 FPS
Color space : YUV
Chroma subsampling : 4:2:0
Bit depth : 8 bits
Scan type : Progressive
Compression mode : Lossy
Bits/(Pixel*Frame) : 0.129
Stream size : 860 MiB (90%)
Writing library : XviD 1.2.1 (UTC 2008-12-04)
Audio #1
ID : 1
Format : MPEG Audio
Format version : Version 1
Format profile : Layer 3
Mode : Joint stereo
Codec ID : 55
Codec ID/Hint : MP3
Duration : 1 h 35 min
Bit rate mode : Constant
Bit rate : 128 kb/s
Channel(s) : 2 channels
Sampling rate : 48.0 kHz
Compression mode : Lossy
Stream size : 87.4 MiB (9%)
Alignment : Aligned on interleaves
Interleave, duration : 80 ms (2.00 video frames)
Interleave, preload duration : 504 ms
Writing library : LAME3.98r
Encoding settings : -m j -V 4 -q 2 -lowpass 17 -b 128
[HIDE-THANKS]
Kód:
https://data.hu/get/11608030/D2118a1.rar
[/HIDE-THANKS]
vagy free
[HIDE-THANKS]
Kód:
https://data.hu/get/11608039/D2118a1v.part1.rar
https://data.hu/get/11608036/D2118a1v.part2.rar
https://data.hu/get/11608032/D2118a1v.part3.rar
https://data.hu/get/11608028/D2118a1v.part4.rar
https://data.hu/get/11608029/D2118a1v.part5.rar
[/HIDE-THANKS]

A film extrája:
3022658-20190102-hA7I95.jpg

Privát rocktörténet 10.: Hobo Blues Band
Magyar dokumentumfilm (2006)
Műsorvezető: Veress Dóra, Narrátor: Magyar Kinga
Szerkesztő-rendező: Gellért Gábor
3022659-20190102-TaIdBW.jpg

Formátum: dvdrip/avi
Méret: 692 MB
Felbontás: 720x482
Mintavételi frekvencia: 48000 Hz
Bitsebesség: 192 kbps
Műsoridő: 59:06
Részletes média információ:
I:\Video\22b - Privát rocktörténet 10 - Hobo Blues Band.avi
General
Complete name : I:\Video\22b - Privát rocktörténet 10 - Hobo Blues Band.avi
Format : AVI
Format/Info : Audio Video Interleave
File size : 691 MiB
Duration : 59 min
Overall bit rate : 1 635 kb/s
Writing application : VirtualDubMod 1.5.4.1 (build 2178/release)
Writing library : VirtualDubMod build 2178/release
Video #0
ID : 0
Format : MPEG-4 Visual
Format profile : Advanced [email protected]
Format settings, BVOP : 1
Format settings, QPel : No
Format settings, GMC : No warppoints
Format settings, Matrix : Custom
Codec ID : XVID
Codec ID/Hint : XviD
Duration : 59 min
Bit rate : 1 435 kb/s
Width : 720 pixels
Height : 432 pixels
Display aspect ratio : 5:3
Frame rate : 25.000 FPS
Color space : YUV
Chroma subsampling : 4:2:0
Bit depth : 8 bits
Scan type : Progressive
Compression mode : Lossy
Bits/(Pixel*Frame) : 0.185
Stream size : 607 MiB (88%)
Writing library : XviD 1.2.1 (UTC 2008-12-04)
Audio #1
ID : 1
Format : MPEG Audio
Format version : Version 1
Format profile : Layer 3
Mode : Joint stereo
Mode extension : MS Stereo
Codec ID : 55
Codec ID/Hint : MP3
Duration : 59 min
Bit rate mode : Constant
Bit rate : 192 kb/s
Channel(s) : 2 channels
Sampling rate : 48.0 kHz
Compression mode : Lossy
Stream size : 81.2 MiB (12%)
Alignment : Aligned on interleaves
Interleave, duration : 80 ms (2.00 video frames)
Interleave, preload duration : 504 ms
Writing library : LAME3.98r
Encoding settings : -m j -V 4 -q 2 -lowpass 18.6 -b 192
[HIDE-THANKS]
Kód:
https://data.hu/get/11608031/D2118a2.rar
[/HIDE-THANKS]
vagy free
[HIDE-THANKS]
Kód:
https://data.hu/get/11608033/D2118a2v.part1.rar
https://data.hu/get/11608037/D2118a2v.part2.rar
https://data.hu/get/11608035/D2118a2v.part3.rar
https://data.hu/get/11608034/D2118a2v.part4.rar
[/HIDE-THANKS]
 
Oldal tetejére